#TITLE:reunion;
#SUBTITLE:俺の妹がこんなに可愛いわけがない。 OP;
#ARTIST:ClariS;
#TITLETRANSLIT:;
#SUBTITLETRANSLIT:Ore no Imouto ga Konna ni Kawaii wake ga Nai. OP;
#ARTISTTRANSLIT:;
#GENRE:IMOUTO TRANCE;
#CREDIT:;
#BANNER:reunion.png;
#BACKGROUND:reunion-bg.png;
#LYRICSPATH:;
#CDTITLE:cdtitle.png;
#MUSIC:reunion.mp3;
#METERTYPE:DDR X;
#MENUCOLOR:0,0,1,1;
#OFFSET:-1.804;
#SAMPLESTART:58.232;
#SAMPLELENGTH:12.000;
#SELECTABLE:YES;
#BPMS:0.000=135.000;
#STOPS:;
#BGCHANGES:;

//---------------dance-single - ----------------
#NOTES:
     dance-single:
     :
     Hard:
     10:
     0.490,0.484,0.169,0.124,0.000:
0000
0000
0000
0000
,
0000
0000
0000
0000
,
0000
0000
0000
0000
,
0000
0000
0000
0000
,
1001
0000
0100
0010
0100
1000
0100
0001
,
0000
0100
0001
0100
1000
0010
1000
0001
,
1000
0000
0100
0010
0100
0001
0010
1100
,
0000
0001
0010
0100
1000
0100
0010
0000
,
1001
0000
0100
0001
0001
1000
0100
0010
,
0000
0010
0010
0100
0100
1000
0100
0010
,
0002
0000
1000
0000
1003
0100
1000
0100
,
0100
0000
0000
0000
0100
0010
0100
0010
,
1000
0000
0100
0100
0010
0100
0001
1000
,
0100
0000
0010
0001
0001
0010
0100
1000
,
0001
0010
0100
0001
0100
0010
1000
0100
,
0000
0001
0100
0000
0010
0000
0100
0000
,
1001
0001
0010
0100
1000
0100
0001
0100
,
0010
0100
0001
0010
0100
1000
0100
0010
,
0001
0000
0001
0100
1000
0100
0010
1000
,
0100
0010
0100
0001
0010
0100
1000
0010
,
0001
0000
0100
1000
0001
0010
0100
0001
,
1000
0000
0001
1000
0100
0010
0001
0100
,
0100
0000
1000
0010
0100
0010
1000
0010
,
0100
0000
0001
0000
1000
0010
0100
0000
,
1010
0000
0100
0000
0010
0100
0001
0100
,
0010
0000
0010
0001
0100
0001
1000
0100
,
0020
0000
0230
0000
0301
0100
0010
0001
,
0000
0002
0000
0000
0103
0010
0100
1000
,
0012
0000
0100
0000
0100
0000
0100
0003
,
2010
0000
0010
0000
0010
0000
0010
3000
,
0101
0000
1000
0000
0001
0000
1000
0001
,
2000
0000
3002
0000
1003
0001
1000
0001
,
1001
0000
0100
0010
0100
1000
0100
0010
,
0100
0001
0000
0010
0001
0010
0100
0001
,
0100
0000
0002
0000
1003
0100
0010
1000
,
0010
0001
0000
0100
0001
1000
0001
0100
,
0110
0000
0110
0000
0010
0100
0001
1000
,
0010
0100
1000
0100
0000
0100
0001
1000
,
0000
1000
0001
0000
0100
0100
0010
0001
,
0000
0100
0001
0000
1000
0100
0010
0001
,
1001
0000
0101
0000
0100
1000
0100
0020
,
0000
1030
0000
0100
0010
0100
1000
0100
,
1000
1000
0020
0000
0031
0001
1000
0010
,
0001
0000
1000
0001
0100
1000
0100
0010
,
0001
0000
0001
0000
0100
0001
1000
0010
,
0000
0010
0100
0001
0000
0001
1000
0100
,
0010
0000
0010
0000
0010
0000
0010
1100
,
0000
1000
0010
0100
0000
0100
0010
1001
;

//---------------dance-single - ----------------
#NOTES:
     dance-single:
     :
     Challenge:
     13:
     0.676,0.673,0.472,0.169,0.298:
0000
0000
0000
0000
,
0000
0000
0000
0000
,
0000
0000
0000
0000
,
0000
0000
0000
0000
,
1001
0000
1000
0100
0010
1000
0010
0100
,
0000
0000
0100
0000
0000
0000
1000
0001
0100
0000
0001
0000
0100
0000
1000
0000
,
0010
0000
0000
0000
0001
0000
0100
0010
1000
0010
0100
0010
1000
0000
0011
0000
,
0000
0000
0000
0000
1000
0100
0010
0000
1000
0010
0001
0010
0100
0000
0000
0000
,
0110
0000
0000
0000
1000
0000
0100
0001
0010
0000
0100
0000
0001
0000
1000
0000
,
0000
0000
1000
0000
0010
0000
0100
1000
0010
0000
0100
0000
0001
0000
0010
0000
,
2000
0000
0000
0000
0001
0000
3001
0010
0100
0000
0010
0000
1000
0000
0100
0000
,
0020
0000
0000
0000
1000
0000
1030
0010
1000
0000
0001
0000
0100
0000
0001
0000
,
0100
0000
0000
0000
0001
0000
0001
0100
0001
0000
1000
0000
0100
0000
1000
0000
,
0010
0000
0000
0000
0010
0000
0010
1000
0001
0000
1000
0000
0010
0000
0001
0000
,
1000
0000
0001
0000
1000
0000
1000
0001
1000
0000
0001
0000
1000
0000
0020
0000
,
0100
0000
0100
0000
0031
0010
0100
0000
,
1001
0000
0000
0000
0101
0000
0100
1000
0010
0000
0100
0000
0110
0000
1000
0000
,
0100
0000
0010
0000
1100
0000
0100
0001
0010
0000
0100
0000
0110
0000
0001
0000
,
0100
0000
0010
0000
0011
0000
0100
0010
0001
0000
0100
0000
1100
0000
0100
0000
,
0010
0000
0100
0000
0110
0000
0001
1000
0010
0000
0001
0000
0011
0000
0100
0000
,
0001
0000
0100
0000
0101
0000
1000
0010
0100
0000
1000
0000
1010
0000
1000
0000
,
0001
0000
1000
0000
1001
0000
0100
1000
0001
0000
0100
0000
0011
0000
0100
0000
,
0001
0000
0100
0000
0101
0000
1000
0010
0100
0000
0010
0000
1010
0000
0101
0000
,
0010
0000
0100
0000
0010
0001
1000
0001
0100
0000
0010
0000
1000
0100
0001
0000
,
1001
0000
0000
0000
0100
0000
0010
1000
0100
0000
1000
0000
0100
0000
0010
0001
,
0200
0000
0000
0000
0310
0000
1000
0100
0010
0001
0100
0000
0001
0000
0010
0000
,
0200
0000
0000
0000
0310
0000
0001
0010
0100
0000
0010
0000
0001
0000
0020
0000
,
0000
0032
0000
0000
0000
1003
0001
1000
,
1002
0100
0100
0103
,
2001
0010
0010
3010
,
0010
0100
1000
0100
0010
0001
0100
0100
,
0210
0000
0000
0000
0310
0000
0000
0000
0100
0010
0100
0010
0100
0000
0100
0000
,
0110
0000
0000
0000
0110
0000
0100
0001
1000
0000
0100
0000
1100
0000
0010
0000
,
0001
0000
0010
0000
0100
0000
0010
1000
0001
0000
0010
0000
0010
0000
0010
0000
,
0110
0000
1000
0000
0110
0000
0010
0100
0001
0000
0100
0000
0010
0000
0200
0000
,
0000
0000
0310
0000
1000
0000
0100
0001
0010
0100
0001
0000
0100
0000
0100
0000
,
0110
0000
0100
0000
1000
0000
0100
1000
0010
0000
0001
0000
0010
0000
0110
0000
,
0100
0000
1000
0001
0100
0000
0110
0000
0001
0000
0100
0000
0011
0000
1001
0000
,
0001
0000
0100
0000
0010
0000
0100
1000
0010
0001
1000
0010
0100
0000
1100
0000
,
0100
0000
0010
0000
0100
0000
1000
0001
0100
0001
0100
1000
0010
0000
0010
0000
,
0110
0000
1000
0000
0100
0000
0010
1000
0001
0000
0001
0000
1000
0000
1000
0000
,
0001
0000
0100
0000
0010
0000
0100
0001
1000
0001
1000
0000
0100
0000
0100
0000
,
0110
0000
0001
0000
0101
0000
0001
1000
0001
0000
0100
0000
0010
0000
1010
0000
,
0010
0000
0001
0000
0011
0000
0001
1000
0010
0001
0010
0000
0001
0000
0001
0000
,
1001
0000
0001
0000
1000
0000
0010
0001
0100
0001
1000
0000
0100
0000
0010
0000
,
0001
0000
0100
0010
0100
0000
0100
0000
0010
0000
0100
0000
1000
0000
0200
0000
,
0000
0000
0310
0000
2000
0000
0000
0000
0010
0000
0000
3000
0010
0000
0120
0000
,
0000
0130
0010
0200
0000
0310
0001
1001
;

//---------------dance-single - ----------------
#NOTES:
     dance-single:
     :
     Medium:
     8:
     0.440,0.404,0.079,0.438,0.000:
0000
0000
0000
0000
,
0000
0000
0000
0000
,
0000
0000
0000
0000
,
0000
0000
0000
0000
,
1001
0000
0001
1000
0001
1000
0001
1000
,
0000
0100
0010
0100
0000
0100
0010
0100
,
0000
1000
0001
1000
0001
1000
0001
0100
,
0000
0100
0010
0000
2000
0000
3001
0000
,
1001
0000
0001
0100
0010
0001
0010
0100
,
0000
0000
0100
1000
0000
1000
0000
0200
,
0000
0000
0000
0000
0000
0301
1000
0002
,
0000
0000
0000
0000
0013
0100
0010
0200
,
0000
0000
0320
0000
0031
0000
0100
0002
,
0000
2003
0000
0000
0000
3001
0100
0020
,
0000
0032
0000
0013
0100
0010
0000
0200
,
0000
0000
0310
1000
,
0110
0000
0010
0001
0010
0001
0010
0200
,
0000
0000
0310
2000
0000
3020
0000
0230
,
0000
0000
0000
0310
0001
0010
0100
0002
,
0000
0000
0013
0100
0010
0100
0010
2000
,
0000
0000
0000
3001
1000
0001
1000
0020
,
0000
0032
0000
2003
0000
3001
0100
0002
,
0000
0000
0013
0200
0000
0320
0000
2030
,
0000
0000
0000
3001
1000
0001
1000
0001
,
1000
0000
1000
0010
0100
0000
0100
0010
,
0001
0000
0001
0010
0100
0000
0100
1000
,
0010
0000
0010
0001
0010
0100
0010
0200
,
0000
0320
0000
0000
0000
1030
0001
1000
,
1001
0001
0001
0001
,
1001
1000
1000
1000
,
0010
1000
0010
1000
0100
0010
0001
1000
,
0002
0000
0000
0000
1003
0001
1000
0001
,
1000
0000
1000
0000
0100
0010
0100
0020
,
0000
0000
0000
0031
1000
0001
1000
0001
,
0010
0000
0200
0000
0310
1000
0010
0200
,
0000
0000
0000
0310
1000
0010
0100
0010
,
0002
0000
0203
0000
0302
0000
1003
2000
,
0000
3010
0100
0010
0000
0100
0010
0200
,
0000
0000
0320
0000
0031
1000
0001
0200
,
0000
0000
0000
0000
0310
1000
1000
0100
,
0100
0000
0010
0000
0010
0001
0010
0100
,
0000
0100
0000
0010
0001
0001
0100
0001
,
0100
0000
0100
0000
1000
0100
0010
0200
,
0000
0000
0000
0310
1000
0010
0100
0010
,
2000
0001
3002
1000
,
1003
0000
0100
0010
0000
0100
0100
0010
,
0000
0001
0100
0000
0100
0000
1000
0011
,
0000
1000
0100
0010
0000
0001
1000
1001
;

//---------------dance-single - ----------------
#NOTES:
     dance-single:
     :
     Easy:
     5:
     0.287,0.295,0.079,0.011,0.000:
0000
0000
0000
0000
,
0000
0000
0000
0000
,
0000
0000
0000
0000
,
0000
0000
0000
0000
,
1001
0001
1000
1000
,
0100
0010
0001
0001
,
1000
0100
0010
0001
,
1000
0001
0100
0001
,
1001
0100
0010
0001
,
1000
0100
0100
0100
,
1000
0100
0010
0001
,
0010
0001
0001
0001
,
0010
1000
0001
1000
,
0010
0100
0010
0001
,
0100
1000
0001
1000
,
0001
0000
1000
1000
,
1001
0001
0100
0010
,
0001
1000
0001
1000
,
1000
0100
0010
0001
,
0100
0010
0010
0001
,
1000
1000
0100
0100
,
0010
0001
1000
0100
,
1000
1000
0010
0010
,
0001
0000
1000
0001
,
1001
0001
1000
1000
,
0100
0100
0010
0010
,
0001
0010
0100
1000
,
0100
0010
0001
1000
,
0001
0001
0001
0001
,
1001
1000
1000
1000
,
1001
0001
0001
0001
,
2000
0000
0000
0000
,
3010
0100
0100
0100
,
0010
0001
1000
1000
,
0100
0010
0001
0100
,
0010
1000
0100
0010
,
0001
1000
0010
0100
,
0001
0010
0100
1000
,
0010
0100
1000
0100
,
0010
0001
1000
1000
,
1001
0001
0100
0010
,
0001
0100
1000
0100
,
0010
0100
1000
0100
,
0001
1000
0010
0100
,
0010
0010
0100
0100
,
1000
1000
0001
0001
,
0100
0100
0010
0010
,
1000
0001
0001
1000
;

//---------------dance-single - ----------------
#NOTES:
     dance-single:
     :
     Beginner:
     1:
     0.080,0.159,0.034,0.000,0.000: // measure 1
0000
0000
0000
0000
,  // measure 2
0000
0000
0000
0000
,  // measure 3
0000
0000
0000
0000
,  // measure 4
0000
0000
0000
0000
,  // measure 5
1001
0000
0001
0000
,  // measure 6
0001
0000
0001
0000
,  // measure 7
0001
0000
1000
0000
,  // measure 8
1000
0000
0000
0000
,  // measure 9
0110
0000
0000
0000
,  // measure 10
0010
0000
0000
0000
,  // measure 11
0010
0000
0000
0000
,  // measure 12
0001
0000
0000
0000
,  // measure 13
1000
0000
0000
0000
,  // measure 14
1000
0000
0000
0000
,  // measure 15
0100
0000
0000
0000
,  // measure 16
0010
0000
0000
0000
,  // measure 17
0001
0000
0000
0000
,  // measure 18
1000
0000
0000
0000
,  // measure 19
0100
0000
0000
0000
,  // measure 20
0010
0000
0000
0000
,  // measure 21
0001
0000
0000
0000
,  // measure 22
1000
0000
0000
0000
,  // measure 23
0001
0000
0000
0000
,  // measure 24
0010
0000
0000
0000
,  // measure 25
1000
0000
0000
0000
,  // measure 26
0001
0000
0000
0000
,  // measure 27
0100
0000
0000
0000
,  // measure 28
0010
0000
0000
0000
,  // measure 29
1000
0000
0000
0000
,  // measure 30
0001
0000
0000
0000
,  // measure 31
1000
0000
0000
0000
,  // measure 32
0001
0000
0000
0000
,  // measure 33
0100
0000
0000
0000
,  // measure 34
0100
0000
0000
0000
,  // measure 35
0010
0000
0000
0000
,  // measure 36
0001
0000
0000
0000
,  // measure 37
1000
0000
0000
0000
,  // measure 38
0001
0000
0000
0000
,  // measure 39
0100
0000
0000
0000
,  // measure 40
0010
0000
0000
0000
,  // measure 41
1001
0000
0000
0000
,  // measure 42
0001
0000
0000
0000
,  // measure 43
0001
0000
0000
0000
,  // measure 44
0010
0000
0000
0000
,  // measure 45
0100
0000
0000
0000
,  // measure 46
1000
0000
0000
0000
,  // measure 47
0001
0000
0000
0000
,  // measure 48
0100
0000
0000
0000
;
