#TITLE:grilletto;
#SUBTITLE:魔法科高校の劣等生 OP2;
#ARTIST:GARNiDELiA;
#TITLETRANSLIT:grilletto;
#SUBTITLETRANSLIT:Mahouka Koukou no Rettousei OP2;
#ARTISTTRANSLIT:GARNiDELiA;
#GENRE:IRREGULAR POP 3;
#CREDIT:;
#BANNER:grilletto.png;
#BACKGROUND:grilletto-bg.png;
#LYRICSPATH:;
#CDTITLE:cdtitle.png;
#MUSIC:grilletto.mp3;
#METERTYPE:DDR X;
#MENUCOLOR:0,0,1,1;
#OFFSET:-0.478;
#SAMPLESTART:58.573;
#SAMPLELENGTH:12.000;
#SELECTABLE:YES;
#DISPLAYBPM:191:382;
#BPMS:0.000=191.000,20.000=382.000,52.000=191.000,67.000=382.000,188.000=191.000,192.000=382.000,256.000=191.000,291.000=382.000,411.000=764.000,425.000=382.000,485.000=191.000;
#STOPS:67.000=0.157
,283.500=1.257
,291.000=0.157
,425.000=0.157
;
#BGCHANGES:;

//---------------dance-single - ----------------
#NOTES:
     dance-single:
     :
     Hard:
     13:
     0.704,1.000,0.423,0.195,0.016: // measure 1
0000
0000
0000
0000
,  // measure 2
0000
0000
0000
0000
,  // measure 3
0000
0000
0000
0000
,  // measure 4
0000
0000
0000
0000
,  // measure 5
0000
0000
0000
0000
,  // measure 6
1000
0000
0100
0100
,  // measure 7
0000
0010
0000
0001
,  // measure 8
1000
1000
0001
0010
,  // measure 9
0000
0100
0000
1000
,  // measure 10
0000
1000
0001
0010
,  // measure 11
0000
1000
0010
0100
,  // measure 12
0000
0000
0000
1000
,  // measure 13
0001
0000
0100
0001
,  // measure 14
0000
1000
2000
0000
0010
0010
0000
0001
,  // measure 15
0001
0000
0100
0100
0000
0001
0000
3020
,  // measure 16
0000
0001
0001
0000
0100
0100
0000
1000
,  // measure 17
1000
0000
0100
0130
0000
0001
1001
0000
,  // measure 18
2001
0001
0001
0000
,  // measure 19
0010
0010
0000
0100
,  // measure 20
0100
0000
0001
3001
,  // measure 21
0100
0100
0010
0200
,  // measure 22
0000
1000
1000
0000
,  // measure 23
0010
0010
0000
0001
,  // measure 24
0001
0000
1000
0310
,  // measure 25
0001
0000
0010
0000
1000
0001
0020
0000
,  // measure 26
0000
1000
0100
0000
,  // measure 27
0100
0001
0000
0100
,  // measure 28
1000
0000
1000
0100
,  // measure 29
0031
1000
1000
0002
,  // measure 30
0000
0010
1000
0000
,  // measure 31
0010
1000
0103
1001
,  // measure 32
0000
1001
0000
1001
,  // measure 33
0000
0000
2000
0000
0200
0000
0000
3300
,  // measure 34
0011
0001
1000
0010
,  // measure 35
1000
0100
0000
0010
,  // measure 36
0000
0001
0100
0000
,  // measure 37
0100
1000
0000
0100
,  // measure 38
0000
0010
0001
0000
,  // measure 39
0010
0000
1000
0100
,  // measure 40
0000
0001
0100
0000
,  // measure 41
1000
0000
0010
0000
,  // measure 42
2000
0000
0001
3200
,  // measure 43
0000
0000
0310
0001
,  // measure 44
0000
0010
0000
0100
,  // measure 45
0010
0100
0000
1000
,  // measure 46
0100
0000
0010
0000
,  // measure 47
1000
0010
0001
0002
,  // measure 48
0000
0000
1000
0000
2000
0000
0000
0000
0000
0000
3003
0000
1000
0001
0010
0100
,  // measure 49
1000
1000
0100
0010
,  // measure 50
0001
0100
0000
0010
,  // measure 51
0000
1000
0100
0010
,  // measure 52
0001
0100
0010
0010
,  // measure 53
0000
1000
0100
0000
,  // measure 54
0001
0100
0000
0010
,  // measure 55
0000
1000
0010
0000
,  // measure 56
0001
0000
1000
0000
,  // measure 57
0002
0000
1000
0023
,  // measure 58
0000
0000
0130
1000
,  // measure 59
0000
0000
0100
0000
0000
0000
0010
0100
,  // measure 60
0010
0001
1000
0001
,  // measure 61
0100
0000
0001
0000
,  // measure 62
0010
0100
0000
1100
,  // measure 63
0000
0000
0100
0000
1001
0000
0000
0010
,  // measure 64
0001
1000
0010
0100
,  // measure 65
1001
0000
1000
0001
0000
0100
0000
0001
,  // measure 66
1000
0010
0100
0000
0001
0100
0000
0000
,  // measure 67
1000
0000
1000
0100
0010
1000
0000
0002
,  // measure 68
0000
0000
0000
0000
0000
0000
1003
0000
0200
0000
0000
0000
0010
0000
0310
0001
,  // measure 69
2000
0000
0000
0000
3010
1000
0001
0100
,  // measure 70
0000
0001
1000
0000
1000
0001
0000
0000
,  // measure 71
0011
1100
0000
0101
1010
0000
1001
0101
,  // measure 72
0110
1010
0000
1001
1001
0000
0110
0110
,  // measure 73
0000
0000
1000
0000
1000
0001
1000
0000
,  // measure 74
1001
0000
0001
0000
0001
0000
0000
1000
,  // measure 75
0001
0001
1000
0100
,  // measure 76
0010
0000
0000
0000
0001
0000
0000
0001
,  // measure 77
1000
0100
0010
0100
,  // measure 78
0010
0000
0000
0000
1000
0000
0100
0010
,  // measure 79
0100
0001
0100
1000
,  // measure 80
0000
0000
1000
0000
0010
0000
0000
0001
,  // measure 81
0010
0000
1000
0000
1000
0000
1000
0001
,  // measure 82
0010
0001
0110
1000
,  // measure 83
0100
0001
0101
1000
,  // measure 84
0100
0010
1010
0100
,  // measure 85
0001
1000
1100
0010
,  // measure 86
1000
0001
0011
0100
,  // measure 87
0001
1000
0110
0001
,  // measure 88
1000
0100
1001
0000
,  // measure 89
1001
0000
0100
0001
0010
0000
0100
0000
,  // measure 90
0110
0000
0000
0000
1000
0000
0000
0001
,  // measure 91
0010
0100
1000
0100
,  // measure 92
0001
0000
0100
0000
1000
0000
0000
0010
,  // measure 93
0001
0010
1000
0000
,  // measure 94
0001
0000
1000
1100
,  // measure 95
0000
0110
0000
0011
,  // measure 96
0000
0100
1001
0000
,  // measure 97
1000
0001
0100
0001
0010
1000
0001
0100
,  // measure 98
0001
0000
0100
1000
,  // measure 99
0010
0001
0010
1000
,  // measure 100
0001
0100
0010
1000
,  // measure 101
0000
0100
0010
1000
,  // measure 102
0000
0010
0001
0001
,  // measure 103
0000
1000
0001
1002
,  // measure 104
0000
0000
0000
0000
,  // measure 105
0000
0000
0000
0000
,  // measure 106
0000
0000
0000
0000
,  // measure 107
0000
1003
1001
0000
,  // measure 108
1000
0001
0010
0100
,  // measure 109
1000
0100
1000
0100
,  // measure 110
1000
0001
0010
0001
,  // measure 111
0010
0100
0000
1000
,  // measure 112
0010
0001
0010
1000
,  // measure 113
0100
0001
0100
1000
,  // measure 114
0010
1000
0010
0100
,  // measure 115
0001
0000
0100
0001
0010
0000
1000
0000
,  // measure 116
0010
0001
1000
0010
,  // measure 117
0100
0001
0000
1000
,  // measure 118
0001
0100
0000
0010
,  // measure 119
0001
0010
1000
1000
,  // measure 120
0100
0000
0010
0000
0001
0010
0100
1000
,  // measure 121
0100
0010
0001
0000
0000
0000
1001
0000
,  // measure 122
0100
1001
0000
0000
;

//---------------dance-single - ----------------
#NOTES:
     dance-single:
     :
     Beginner:
     5:
     0.188,0.329,0.054,0.033,0.000:
0000
0000
0000
0000
,
0000
0000
0000
0000
,
0000
0000
0000
0000
,
0000
0000
0000
0000
,
0000
0000
0000
0000
,
0010
0000
0000
0000
,
0010
0000
0000
0000
,
0100
0000
0000
0000
,
0100
0000
0000
0000
,
0001
0000
0000
0000
,
1000
0000
0000
0000
,
0001
0000
0000
0000
,
0000
0000
0000
0000
,
0000
0000
1000
0000
,
1000
0000
0001
0000
,
1000
0000
0001
0000
,
1000
0000
0001
1000
,
0001
0000
0000
0000
,
1000
0000
0000
0000
,
0001
0000
0000
0000
,
1000
0000
1000
0000
,
1000
0000
0000
0000
,
0001
0000
0000
0000
,
1000
0000
0000
0000
,
0001
0000
0001
0000
,
1000
0000
0000
0000
,
0010
0000
0000
0000
,
0100
0000
0000
0000
,
0010
0000
0010
0000
,
0100
0000
0000
0000
,
0010
0000
0000
0000
,
1000
0000
0000
0000
,
0000
0000
0000
0000
,
1001
0000
0000
0000
,
0000
0000
0000
0000
,
0001
0000
0000
0000
,
0000
0000
0000
0000
,
1000
0000
0000
0000
,
0000
0000
0000
0000
,
0001
0000
0000
0000
,
0000
0000
0000
0000
,
0100
0000
0000
0000
,
0100
0000
0000
0000
,
0100
0000
0000
0000
,
0010
0000
0000
0000
,
0010
0000
0000
0000
,
1000
0000
0000
0000
,
0001
0000
0000
0000
,
1001
0000
0000
0000
,
0000
0000
0000
0000
,
0001
0000
0000
0000
,
0010
0000
0000
0000
,
0010
0000
0000
0000
,
0000
0000
0000
0000
,
0100
0000
0000
0000
,
0100
0000
0000
0000
,
1000
0000
0000
0000
,
0000
0000
0000
0000
,
0000
0000
0000
0000
,
0000
0000
0000
0000
,
0001
0000
0000
0000
,
0001
0000
0000
0000
,
1000
0000
0000
0000
,
0000
0000
0000
0000
,
0110
0000
0000
0000
,
0010
0000
0000
0000
,
0010
0000
0000
0000
,
0100
0000
0000
0000
,
0001
0000
0000
0000
,
1000
0000
0000
0000
,
0001
0000
1000
0000
,
1000
0000
0001
0000
,
1000
0000
0001
1000
,
0001
0000
0000
0000
,
1000
0000
0000
0000
,
1000
0000
0000
0000
,
0010
0000
0010
0000
,
0100
0000
0000
0000
,
0001
0000
0000
0000
,
1000
0000
0000
0000
,
0000
0000
1000
0000
,
0100
0000
0000
0000
,
0100
0000
0000
0000
,
0100
0000
0010
0000
,
0001
0000
0000
0000
,
0001
0000
0000
0000
,
1000
0000
0000
0000
,
0001
0000
0001
0000
,
1000
0000
0000
0000
,
0002
0000
0000
0000
,
0000
0000
0000
0000
,
2003
0000
0000
0000
,
0000
0000
0000
0000
,
3010
0000
0000
0000
,
0100
0000
0000
0000
,
0001
0000
0000
0000
,
0000
0000
0000
0000
,
1001
0000
0000
0000
,
0000
0000
0000
0000
,
0001
0000
0000
0000
,
0000
0000
0000
0000
,
1000
0000
0000
0000
,
1000
0000
0000
0002
,
0000
0000
0000
0000
,
0000
0000
0000
0000
,
0000
0000
0000
0000
,
0000
0003
0000
0000
,
0000
0000
1000
0000
,
0000
0000
0100
0000
,
0000
0000
0010
0000
,
0010
0000
0010
0000
,
0000
0000
0001
0000
,
0000
0000
1000
0000
,
0000
0000
0001
0000
,
0001
0000
0001
0000
,
0000
0000
1000
0000
,
0000
0000
0001
0000
,
0000
0000
1000
0000
,
1000
0000
1000
0000
,
0000
0000
0001
0000
,
0000
0000
0000
0000
,
0000
1001
0000
0000
;

//---------------dance-single - ----------------
#NOTES:
     dance-single:
     :
     Easy:
     7:
     0.304,0.592,0.033,0.054,0.000:
0000
0000
0000
0000
,
0000
0000
0000
0000
,
0000
0000
0000
0000
,
0000
0000
0000
0000
,
0000
0000
0000
0000
,
1000
0000
0000
0000
,
1000
0000
0000
0000
,
0001
0000
0000
0000
,
0001
0000
0000
0000
,
1000
0000
1000
0000
,
0001
0000
0001
0000
,
1000
0000
0000
0000
,
0000
0000
0000
0000
,
1000
0000
0100
0000
,
0010
0000
0001
0000
,
1000
0000
1000
0000
,
1000
0100
0010
0001
,
1000
0000
0000
0000
,
0001
0000
0000
0000
,
0001
0000
0000
0000
,
1000
0000
1000
0000
,
0010
0000
0000
0000
,
0100
0000
0000
0000
,
0001
0000
0000
0000
,
0010
0000
0010
0000
,
0001
0000
0000
0000
,
1000
0000
0000
0000
,
0010
0000
0000
0000
,
0100
0000
0100
0000
,
0001
0000
0000
0000
,
1000
0000
0000
0000
,
0001
0000
1000
0000
,
0001
0000
0000
0000
,
1001
0000
0000
0000
,
0001
0000
0000
0000
,
0001
0000
0010
0000
,
0001
0000
1000
0000
,
0001
0000
0000
0000
,
1000
0000
0000
0000
,
1000
0000
0010
0000
,
1000
0000
0000
0000
,
0002
0000
0000
0000
,
1003
0000
0000
0000
,
0010
0000
0100
0000
,
0010
0000
0000
0000
,
0100
0000
0000
0000
,
0001
0000
0000
0000
,
1000
0000
0000
0001
,
0001
0000
0000
0000
,
1000
0000
0000
0000
,
1000
0000
0100
0000
,
0010
0000
0001
0000
,
1000
0000
0000
0000
,
0001
0000
0000
0000
,
0001
0000
0010
0000
,
0100
0000
0000
0000
,
2000
0000
0000
0000
,
3002
0000
0000
0000
,
0103
0000
0010
0000
,
0100
0000
0010
0000
,
1000
0000
0001
0000
,
1000
0000
0000
0000
,
0001
0000
0000
0000
,
1000
0000
0000
0000
,
1001
0000
1000
0100
,
0010
0001
0010
0100
,
1000
0000
1000
1000
,
0001
0000
0001
0010
,
0200
0000
1300
0000
,
1000
0100
0010
0000
,
1000
0000
0001
0000
,
1000
0000
0010
0000
,
0001
1000
0001
1000
,
0001
0000
1000
0000
,
0100
0000
0010
0000
,
0001
0000
0000
0000
,
0000
0000
0001
0000
,
0010
0000
0100
0000
,
1000
0000
0100
0000
,
0010
0000
0001
0000
,
0000
0000
1000
0000
,
0001
0000
1000
0000
,
0000
0000
0001
0000
,
1000
0000
0100
0000
,
0010
0000
0001
0000
,
1000
0000
1000
0000
,
0001
0000
0100
0000
,
0010
0000
0100
0000
,
0001
0000
1000
0000
,
1001
0000
0000
0000
,
0000
0000
0001
0000
,
0001
0000
0000
0000
,
0000
0000
1000
0000
,
0100
0000
0000
0000
,
0010
0000
0001
0000
,
0100
0000
0001
0000
,
0100
0000
0001
0000
,
1000
0000
0010
0000
,
1000
0000
0100
0000
,
0010
0000
0001
0000
,
0100
0000
0001
0000
,
1000
0000
0010
0000
,
1000
0000
0000
0020
,
0000
0000
0000
0000
,
0000
0000
0000
0000
,
0000
0000
0000
0000
,
0000
0030
0000
0000
,
0100
0000
0001
0000
,
0100
0000
0001
0000
,
1000
0000
0001
0000
,
0001
0000
0001
0000
,
0010
0000
0001
0000
,
1000
0000
0001
0000
,
1000
0000
0010
0000
,
0010
0000
1000
0000
,
0100
0000
0010
0000
,
0001
0000
1000
0000
,
0100
0000
0001
0000
,
0001
0000
0001
0000
,
0100
0000
1000
0000
,
0100
0001
0000
1000
,
0000
0001
0000
0000
;

//---------------dance-single - ----------------
#NOTES:
     dance-single:
     :
     Medium:
     10:
     0.485,0.790,0.130,0.228,0.000:
0000
0000
0000
0000
,
0000
0000
0000
0000
,
0000
0000
0000
0000
,
0000
0000
0000
0000
,
0000
0000
0000
0000
,
1000
0000
1000
0000
,
1000
0000
1000
0000
,
0010
0000
0010
0000
,
0010
0000
0010
0000
,
0100
0000
0001
0000
,
1000
0000
0001
2000
,
0000
0000
0000
0000
,
0000
0000
0000
0000
,
3000
0001
0010
0000
1000
0010
0000
0001
,
0100
0000
1000
0100
0000
0100
0000
0100
,
0000
0001
0010
0000
0100
1000
0000
1000
,
0001
0000
0001
1000
0000
1000
0001
0000
,
0000
1000
0100
0000
,
1000
0100
0000
0010
,
0001
0000
0010
0001
,
0000
1000
0000
0001
,
0000
0100
0100
0000
,
0010
0010
0000
1000
,
1000
0000
0001
0001
,
0000
1000
0000
0100
,
0000
0010
0010
0000
,
0001
0001
0000
1000
,
1000
0000
0100
0100
,
0000
0010
0000
0001
,
0000
1000
0001
0000
,
0100
0010
0000
0110
,
0000
1001
0000
1001
,
0000
0000
0000
0000
,
1000
0000
1000
0000
,
0010
0000
0010
0000
,
0001
0000
0001
0000
,
0010
1000
0000
1000
,
0100
0000
0010
0000
,
0010
0000
0001
0100
,
0000
0100
1000
0000
,
0100
0000
0000
0000
,
2000
0000
0000
3200
,
0000
0000
0301
0001
,
0000
0100
0000
0001
,
0100
0001
0000
0000
,
1000
0000
0001
0000
,
1000
0000
0000
0010
,
0000
0100
0020
0000
0000
0000
1030
0000
,
1001
0000
1000
0000
,
0100
0001
0000
0100
,
0000
1000
0001
0000
,
1000
0010
0000
0001
,
0000
0010
1000
0000
,
0001
0000
1000
0010
,
0000
0001
0010
0000
,
0001
0000
0000
0000
,
0002
0000
0000
0023
,
0000
0000
1030
1000
,
0000
1000
0000
0100
,
0010
0100
0010
0000
,
0001
0000
0100
0000
,
0010
1000
0000
0100
,
0000
0001
0100
0000
,
0000
0000
0000
0000
,
0100
0000
0100
1000
0000
0002
0000
0013
,
0000
0000
0100
0000
1000
0002
0000
0000
,
0013
0000
0100
1000
0000
0001
0000
0002
,
0000
0000
0000
1003
0020
0000
0000
1030
,
0100
0000
0000
0000
0010
0001
0010
0002
,
0000
0000
0103
0000
0010
0100
0000
0000
,
0101
0000
0000
0110
0000
0000
1010
0000
,
1100
0000
0000
0110
0000
0000
0011
0000
,
0000
0002
1000
1003
,
2000
0000
0000
0000
,
0000
0000
3100
0002
,
0000
0000
0000
0000
,
0000
0003
0100
0000
,
2000
0000
3010
0010
,
0000
0100
0000
0002
,
0000
1003
0200
0000
,
0000
1300
0100
0010
,
0001
0000
0100
0001
,
0000
1000
0000
0100
,
0010
0100
0010
0100
,
0000
1000
0000
0100
,
0000
0010
0001
0010
,
0000
1000
0001
0100
,
0000
1000
0100
0000
,
1000
0000
0100
0020
,
0000
0000
0000
0000
,
0000
0031
0010
2000
,
0000
0000
0000
0000
,
0000
0000
3010
0000
,
1000
0000
0001
0010
,
0000
0100
0000
2000
,
0000
3001
0100
0000
,
0000
0010
0100
0001
,
1000
0000
0001
1000
,
0000
0010
0000
1000
,
0100
0010
0001
0010
,
0000
0100
0000
1000
,
0000
1000
0001
0100
,
0000
0001
1000
2000
,
0000
0000
0000
0000
,
0000
0000
0000
0000
,
0000
0000
0000
0000
,
0000
3001
0000
1000
,
1000
0000
0001
0001
,
0000
1000
0010
0000
,
0010
1000
1000
0100
,
0010
0001
0000
0100
,
0100
0000
0010
0010
,
0000
1000
0001
0000
,
1000
0001
0100
0001
,
1000
0100
0000
0001
,
0100
0000
0100
0010
,
0000
0010
1000
0000
,
0010
0001
1000
1000
,
0001
0001
0000
0100
,
0010
0000
0100
0000
,
1000
0100
0000
0110
,
0000
1001
0000
0000
;
