#TITLE:ego-izm;
#SUBTITLE:M3~ソノ黒キ鋼~ ED1;
#ARTIST:la la larks;
#TITLETRANSLIT:ego-izm;
#SUBTITLETRANSLIT:M3 ~The Dark Metal~ ED1;
#ARTISTTRANSLIT:la la larks;
#GENRE:DARK METAL BALLAD 2;
#CREDIT:;
#BANNER:ego-izm.png;
#BACKGROUND:ego-izm-bg.png;
#LYRICSPATH:;
#CDTITLE:cdtitle.png;
#MUSIC:ego-izm.mp3;
#METERTYPE:DDR X;
#MENUCOLOR:0,0,1,1;
#OFFSET:-0.521;
#SAMPLESTART:32.634;
#SAMPLELENGTH:12.000;
#SELECTABLE:YES;
#BPMS:0.000=188.000;
#STOPS:;
#BGCHANGES:;

//---------------dance-single - ----------------
#NOTES:
     dance-single:
     :
     Beginner:
     2:
     0.072,0.183,0.000,0.011,0.000:
0000
0000
0000
0000
,
0000
0000
0000
0000
,
0000
0000
0000
0000
,
0000
0000
0000
0000
,
1000
0000
0000
0000
,
0000
0000
0000
0000
,
0001
0000
0000
0000
,
0000
0000
0000
0000
,
0100
0000
0000
0000
,
0000
0000
0000
0000
,
0010
0000
0000
0000
,
0000
0000
0000
0000
,
0100
0000
0000
0000
,
0000
0000
0000
0000
,
0001
0000
0000
0000
,
0000
0000
0000
0000
,
1000
0000
0000
0000
,
0000
0000
0000
0000
,
1000
0000
0000
0000
,
0000
0000
0000
0000
,
0001
0000
0000
0000
,
0000
0000
0000
0000
,
0010
0000
0000
0000
,
0000
0000
0000
0000
,
0100
0000
0000
0000
,
0000
0000
0000
0000
,
1000
0000
0000
0000
,
1000
0000
0000
0000
,
1000
0000
0000
0000
,
1000
0000
0000
0000
,
0001
0000
0000
0000
,
0001
0000
0000
0000
,
0001
0000
0000
0000
,
0001
0000
0000
0000
,
0100
0000
0000
0000
,
0100
0000
0000
0000
,
0100
0000
0000
0000
,
0100
0000
0000
0000
,
0010
0000
0000
0000
,
0010
0000
0000
0000
,
0020
0000
0000
0000
,
0000
0000
0000
0000
,
0030
0000
0000
0000
,
0000
0000
0000
0000
,
0100
0000
0000
0000
,
0000
0000
0000
0000
,
0001
0000
0000
0000
,
0000
0000
0000
0000
,
1000
0000
0000
0000
,
0000
0000
0000
0000
,
0100
0000
0000
0000
,
0100
0000
0000
0000
,
0100
0000
0000
0000
,
0100
0000
0000
0000
,
0010
0000
0000
0000
,
0010
0000
0000
0000
,
0001
0000
0001
0000
,
0001
0000
0001
0000
,
0001
0000
0000
0000
,
0000
0000
0000
0000
,
0100
0000
0000
0000
,
0000
0000
0000
0000
,
0010
0000
0000
0000
,
0000
0000
0000
0000
,
0100
0000
0000
0000
,
0001
0000
0000
0000
;

//---------------dance-single - ----------------
#NOTES:
     dance-single:
     :
     Hard:
     11:
     0.485,0.555,0.090,0.303,0.073:
0000
0000
0000
0000
,
0000
0000
0000
0000
,
0000
0000
0000
0000
,
0000
0000
0000
0000
,
0000
1000
0100
1000
0100
0010
0001
0010
,
0000
0001
0010
0001
0010
0100
1000
0100
,
0000
1000
0100
0010
0001
0100
0010
0100
,
0000
1000
0100
0000
0010
0100
0001
1000
,
0002
0000
0000
2003
0000
0000
3020
0000
,
0030
0000
0000
0000
0000
1000
0001
0020
,
0000
0000
0000
0000
,
0031
0000
0000
0000
0000
0000
0000
0000
1000
0000
0000
0100
0000
0000
0001
0000
,
0100
0000
1000
0100
0000
0010
0001
0000
,
0000
0000
0000
0000
0000
0001
0100
0020
,
0000
2030
0000
0000
,
3000
0001
0100
0000
0010
0001
0000
0000
,
0010
1000
1000
0010
,
0010
0100
0100
0001
,
0001
0000
1000
1000
0000
0100
0020
0000
,
0000
0000
0000
0000
0000
0031
1000
0001
,
1000
0000
1000
0100
0000
0010
0002
0000
,
0000
0000
0000
0000
0000
0103
0010
0100
,
0010
0010
0000
1000
1000
0000
0010
0010
,
0000
1000
0100
0010
0001
0100
0010
0000
,
1000
0000
0000
0000
0000
0000
0000
0000
1100
0000
0000
0000
0000
0000
0000
0000
0000
0000
1001
0000
0000
0000
0000
0000
0000
0000
0000
0000
0000
0000
0110
0000
0000
0000
0000
0000
0000
0000
0000
1001
0000
0000
0000
0000
0000
0000
0000
0000
,
1001
0000
0200
0000
,
0310
1000
0000
1000
0000
1000
0100
0000
,
0010
0000
0000
0000
0001
0000
0000
0000
0100
0000
0000
0100
0000
0000
0100
0000
,
0010
0000
0000
0000
1000
0000
0000
0000
0010
0000
0000
0010
0000
0000
0010
0000
,
0200
0000
0000
0301
,
0001
0010
0000
1000
0000
0010
0001
0000
,
0100
2000
3200
0310
,
1000
0000
1000
0100
0000
0010
0000
0002
,
0000
0000
0000
0000
0000
0000
1003
0000
0100
0000
0000
0010
0000
0000
0001
0000
,
0200
0000
0000
0302
0000
0000
2003
0000
,
0000
0000
0000
0000
0000
0000
0000
0000
3001
0000
0000
0100
0000
0000
0001
0000
,
0020
0000
0000
0000
0000
0000
0000
0000
0031
0000
0000
0100
0000
0000
0001
0000
,
2000
0000
0000
0000
0000
0000
3100
0010
,
0010
0001
0000
1000
0000
1000
0100
0000
,
0010
0001
0100
0010
,
1000
0000
0100
0010
0000
0100
0010
0000
,
0001
0000
0000
0000
1000
0000
0100
0000
0010
0000
0000
0001
0000
0000
0100
0000
,
1000
0000
0000
2000
0000
0000
3100
0000
,
0000
0000
0000
0000
0000
0000
1000
0000
0100
0000
0000
0010
0000
0000
1000
0000
,
0200
0000
0000
0320
0000
0000
0032
0000
,
0000
0000
0000
1003
,
1000
0001
0000
1000
0000
0100
0010
0000
,
0001
1000
1000
0001
,
0100
0010
0000
1000
0000
1000
0100
0000
,
0010
0000
0000
0000
0001
0000
1000
0000
0001
0000
0000
1000
0000
0000
1000
0000
,
0001
0000
0000
0020
0000
0000
0032
0000
,
0000
0000
0000
0000
0000
0000
0000
0000
1003
0000
0000
0001
0000
0000
1000
0000
,
0200
0000
0000
0000
0000
0000
0000
0000
0310
0000
0000
0001
0000
0000
0010
0000
,
0200
0000
0000
0310
,
0001
0100
0000
0010
0000
0010
1000
0000
,
0100
0010
0001
0010
,
1000
0000
1000
1000
1000
0010
0010
0100
,
0100
0001
0001
0100
0200
0000
0000
0301
,
0000
0100
1000
1000
,
0000
0000
0000
0000
0001
0010
0001
0010
,
0000
0000
0100
0000
1000
0000
0000
0010
,
0000
1000
0010
0000
0100
0001
0000
1000
,
0000
1000
0100
0010
0001
0100
0010
0100
,
0000
0001
0010
0100
1000
0010
0100
0010
,
0000
1000
0001
0010
0001
1000
0100
1000
,
0000
1000
1010
0000
0100
0101
0000
0011
;

//---------------dance-single - ----------------
#NOTES:
     dance-single:
     :
     Challenge:
     16:
     0.786,1.000,0.910,0.112,0.225: // measure 1
0000
0000
0000
0000
,  // measure 2
0000
0000
0000
0000
,  // measure 3
0000
0000
0000
0000
,  // measure 4
0000
0000
0000
0000
,  // measure 5
0100
0010
0001
1000
0100
0010
0001
1000
,  // measure 6
0000
0001
0100
1000
0100
0001
0100
0010
,  // measure 7
0000
0001
0010
0100
1000
0001
0010
0100
,  // measure 8
0001
1000
1000
0000
0001
0001
1000
1000
,  // measure 9
0200
0000
0000
2300
0000
0000
0200
0000
,  // measure 10
3300
0001
0100
0100
1000
0100
0100
0200
,  // measure 11
0001
0000
0000
0001
0000
0000
0310
0001
,  // measure 12
0000
0000
1000
0000
0100
0000
0000
0000
0100
0000
1000
0100
0001
0000
0100
0000
,  // measure 13
1000
0000
0010
0001
0000
0010
1000
0000
,  // measure 14
0001
0010
0100
0010
0001
1000
0100
0010
,  // measure 15
0000
0200
0000
0000
,  // measure 16
1300
0001
0010
0000
0001
1000
0000
0000
,  // measure 17
1001
1000
1000
0010
,  // measure 18
0010
0100
0100
0110
,  // measure 19
1001
0000
0001
0100
0000
0100
0002
0000
,  // measure 20
1000
0000
1000
0000
1000
1003
0010
0100
,  // measure 21
0001
0000
0100
0010
0000
0100
0002
0000
,  // measure 22
1000
0000
0103
0000
0010
1000
0001
0100
,  // measure 23
0110
0110
0000
1100
1100
0000
0101
0101
,  // measure 24
1000
0100
1000
0100
0010
0100
0010
0001
0010
0001
0010
0100
0010
0100
1000
0100
,  // measure 25
1000
0000
0000
0000
0000
0000
0000
0000
1100
0000
0000
0000
0000
0000
0000
0000
0000
0000
1001
0000
0000
0000
0000
0000
0000
0000
0000
0000
0000
0000
0110
0000
0000
0000
0000
0000
0000
0000
0000
1001
0000
0000
0000
0000
0000
0000
0000
0000
,  // measure 26
1001
0000
2000
0000
0020
3000
0200
0330
,  // measure 27
0110
0100
0000
0101
0000
0100
1010
0000
,  // measure 28
1000
0000
0000
0000
0100
0000
0110
0000
0100
0000
1000
0001
1000
0000
0100
0000
,  // measure 29
1001
0000
0000
0000
1000
0000
0011
0000
0100
0000
0010
1000
0010
0000
0100
0000
,  // measure 30
0101
0000
1000
1001
0010
0000
1000
0000
,  // measure 31
0110
1000
0000
0110
0000
0101
0001
0000
,  // measure 32
0010
0000
0100
1001
0010
0100
0001
0000
,  // measure 33
1001
0000
0100
0011
0000
0100
0000
1000
,  // measure 34
0100
0000
0000
0000
0010
0000
0101
0000
0001
0000
1000
0001
0010
0000
0010
0000
,  // measure 35
0110
0000
1000
0101
0000
0001
1100
0000
,  // measure 36
0101
0000
0000
0000
1000
0000
0101
0000
1000
0000
0100
0001
1000
0000
0001
0000
,  // measure 37
0110
0000
0000
0000
0100
0000
1001
0000
0100
0000
0100
0010
0100
0000
0001
0000
,  // measure 38
1001
0000
0000
0000
0100
0000
0000
0000
0011
0000
0000
1000
0100
0000
0010
0000
,  // measure 39
0100
0010
0000
1001
0000
0100
0010
0000
,  // measure 40
0100
0000
0001
0100
1001
0000
0001
0000
,  // measure 41
1000
0100
1000
0010
0100
0001
1000
0001
0100
0010
1000
0010
1000
0001
0100
0010
,  // measure 42
1000
0000
0010
1000
0010
0001
0100
0001
1000
0010
0100
0010
0001
1000
0001
0100
,  // measure 43
0010
0000
0000
0000
0000
0000
0100
0000
0100
0000
0010
0100
0000
0000
0010
0000
,  // measure 44
1000
0000
0000
1000
0100
0000
0110
0000
,  // measure 45
0110
0000
0000
0000
1000
0000
0100
0000
0001
0000
0000
0100
1000
0000
0001
0000
,  // measure 46
0100
0000
0100
1000
0010
0000
1001
0000
,  // measure 47
0110
1000
0000
0110
0000
0001
0100
1000
,  // measure 48
0100
0000
0001
1001
0100
0000
0010
0000
,  // measure 49
0110
1000
0000
0110
0000
0001
0010
0000
,  // measure 50
0100
0010
0001
0010
0001
0000
1000
0010
1000
0000
0000
0001
0010
0000
0100
0000
,  // measure 51
0110
0000
1000
0101
0000
1010
0001
0000
,  // measure 52
0100
0000
0000
0000
0010
0000
0101
0000
1000
0000
0100
0001
0010
0000
0100
0000
,  // measure 53
1010
0000
0000
0000
0001
0000
1010
0000
0100
0000
0010
0100
0001
0000
0010
0000
,  // measure 54
1001
0000
1000
0011
0100
0000
1000
0001
,  // measure 55
1100
1000
0000
0101
0000
0011
1000
0000
,  // measure 56
0100
0110
1001
0101
,  // measure 57
1010
0000
0011
0011
0011
0011
1100
1100
,  // measure 58
1100
1100
1001
1001
0110
0000
0000
0001
,  // measure 59
0101
0000
1000
0010
0001
1000
0100
0001
,  // measure 60
0000
1000
0100
0001
1000
0010
0001
0100
,  // measure 61
0000
0001
0100
1000
0100
0010
0001
0100
,  // measure 62
0000
1000
0100
0000
0100
0010
0000
1000
,  // measure 63
0011
1000
0100
0010
0001
1000
0010
0100
,  // measure 64
0000
0001
0010
0100
1000
0100
0010
0001
,  // measure 65
0000
1000
0100
1000
0100
0010
0001
0010
,  // measure 66
0000
1100
1100
0000
0101
0101
0000
1001
;

//---------------dance-single - ----------------
#NOTES:
     dance-single:
     :
     Easy:
     5:
     0.183,0.329,0.067,0.079,0.000:
0000
0000
0000
0000
,
0000
0000
0000
0000
,
0000
0000
0000
0000
,
0000
0000
0000
0000
,
1000
0000
0000
0000
,
0100
0000
0000
0000
,
0010
0000
0000
0000
,
0001
0000
0000
0000
,
1000
0000
1000
0000
,
1000
0000
0000
0000
,
0001
0000
0001
0000
,
0001
0000
0000
0000
,
0100
0000
0100
0000
,
0100
0000
0000
0000
,
0000
0020
0000
0000
,
0000
0000
0000
0000
,
1030
0000
1000
0000
,
1000
0000
0001
0000
,
0001
0000
0010
0000
,
0010
0000
0100
0000
,
0100
0000
1000
0000
,
1000
0000
0001
0000
,
1000
0000
1000
0000
,
1000
0000
0001
0000
,
1001
0000
0000
0000
,
0110
0000
0000
0000
,
0100
0000
0100
0000
,
0100
0000
0010
0000
,
0010
0000
1000
0000
,
2000
0000
0000
0000
,
3001
0000
0001
0000
,
0001
0000
0001
0000
,
0010
0000
0010
0000
,
0100
0000
0100
0000
,
1001
0000
0100
0000
,
0010
0000
0100
0000
,
0010
0000
1000
0000
,
0002
0000
0000
0000
,
1003
0000
1000
0000
,
1000
0000
0100
0000
,
0010
0000
0010
0000
,
0001
0000
0001
0000
,
1001
0000
0000
0000
,
0001
0000
0000
0000
,
0110
0000
0000
0000
,
0100
0000
0000
0000
,
0010
0000
0010
0000
,
0010
0000
1000
0000
,
0001
0000
1000
0000
,
0001
0000
0000
0000
,
1001
0000
0000
0000
,
0001
0000
0001
0000
,
0001
0000
0000
0000
,
1000
0000
0000
0000
,
1000
0000
1000
0000
,
0010
0000
0100
0000
,
0002
0000
2003
0000
,
3200
0000
0320
0000
,
0031
0000
0001
0000
,
1000
0000
1000
0000
,
0001
0000
0100
0000
,
0010
0000
0010
0000
,
1000
0000
0010
0000
,
0100
0000
0001
0000
,
1000
0000
0001
0000
,
1000
0000
0000
0000
;

//---------------dance-single - ----------------
#NOTES:
     dance-single:
     :
     Medium:
     7:
     0.350,0.407,0.157,0.191,0.011:
0000
0000
0000
0000
,
0000
0000
0000
0000
,
0000
0000
0000
0000
,
0000
0000
0000
0000
,
0001
0100
0010
1000
,
0000
0001
0000
0000
1000
0000
0000
0010
,
0000
0100
0010
0100
,
0000
0010
0000
0000
0100
0000
0001
0000
,
0200
0000
0000
0310
0000
0000
1000
0000
,
0000
0000
0000
0000
0000
1000
0000
0002
,
0000
0000
0003
0000
,
0000
0000
1000
1000
,
0001
0000
0000
1000
0000
0000
0001
0000
,
0000
0000
0000
0000
0000
0100
0000
0100
,
0000
0020
0000
0000
,
0000
1030
0000
0000
0001
0000
0000
0000
,
1000
1000
0100
0100
,
0010
0010
0001
0001
,
1000
0100
0010
0002
,
0000
1000
0000
1003
,
0010
0100
0010
2000
,
0000
0001
0000
0001
,
3001
0100
0010
0002
,
0000
2003
0000
0000
,
3100
0000
0000
0000
0000
0000
0000
0000
0100
0000
0000
0000
0000
0000
0000
0000
0000
0000
0110
0000
0000
0000
0000
0000
0000
0000
0000
0000
0000
0000
0001
0000
0000
0000
0000
0000
0000
0000
0000
0001
0000
0000
0000
0000
0000
0000
0000
0000
,
1001
0000
0020
0000
,
1030
0100
0000
0000
0001
0000
0100
0000
,
1000
0010
0001
0010
,
2000
0000
3001
1000
,
0020
0000
0000
1030
,
0001
1000
0000
0000
0010
0000
1000
0000
,
0100
0001
1000
0010
,
0002
0000
0000
1003
0000
0100
0000
0110
,
0000
0000
1000
1100
,
1100
0000
1000
1000
,
0100
0000
0010
0001
,
0010
0000
0100
1000
,
0002
0000
0000
1003
,
0001
1000
0100
0010
,
0000
0001
0010
0100
,
2000
0000
0000
3002
0000
0000
1003
0000
,
0000
0000
1000
1100
,
1100
0000
0001
0010
,
0010
0000
0100
0110
,
0110
0000
1000
0001
,
0001
0000
0010
0011
,
0011
0000
0001
0010
,
0100
0000
1000
0001
,
1000
0100
0010
0001
,
0000
0000
0000
0001
0000
0000
0100
0000
,
1100
0000
0000
1000
0000
0000
0100
0000
,
0100
0000
0001
0100
,
0010
0000
0100
0001
,
2000
0000
0000
3001
,
1000
1000
0010
0010
,
0000
0100
0100
0001
,
1000
1000
0100
0010
,
0001
0000
1000
0000
0002
0000
0000
2000
,
3003
1000
0100
0010
,
0001
1000
0010
0010
,
0000
0100
0000
0000
0100
0000
0000
0001
,
0000
1000
0000
0000
0100
0000
0000
0010
,
0000
1000
0000
0000
1000
0000
0010
0000
,
0000
0001
0000
0000
1000
0000
0100
0000
,
0000
0001
0000
0000
0100
0000
0000
0110
,
0000
1000
0100
0000
0010
0001
0000
1001
;
