#TITLE:courage (Indonesian ver.);
#SUBTITLE:ソードアート.オンライン II OP2;
#ARTIST:fleurishana;
#TITLETRANSLIT:courage (Indonesian ver.);
#SUBTITLETRANSLIT:Sword Art Online II OP2;
#ARTISTTRANSLIT:fleurishana;
#GENRE:ROSARY POP 2;
#CREDIT:;
#BANNER:courage (Indonesian ver.).png;
#BACKGROUND:courage (Indonesian ver.)-bg.png;
#LYRICSPATH:;
#CDTITLE:cdtitle.png;
#METERTYPE:DDR X;
#MENUCOLOR:0,0,1,1;
#MUSIC:courage (Indonesian ver.).mp3;
#OFFSET:-0.300;
#SAMPLESTART:49.642;
#SAMPLELENGTH:12.000;
#SELECTABLE:YES;
#BPMS:0.000=196.000;
#STOPS:;
#BGCHANGES:;

//---------------dance-single - ----------------
#NOTES:
     dance-single:
     :
     Hard:
     10:
     0.478,0.504,0.202,0.266,0.005:
0000
0000
0000
0000
,
0000
0000
0000
0000
,
0000
0000
0000
0000
,
0000
0000
0000
0000
,
0000
0000
0000
0000
,
0000
0000
0000
0000
,
0000
0000
0000
0000
,
0000
0000
0000
0000
,
0000
0000
0000
0000
,
0001
0000
1000
0000
0010
0000
0000
1000
,
0100
0010
0000
0100
0000
0001
0000
0100
,
0000
0000
0010
0100
0010
0000
0000
0100
,
1000
0010
0000
0001
0000
0010
0000
0200
,
0000
0000
0000
0000
0000
0000
0000
1300
,
0100
0001
0000
0010
0000
0100
0000
0000
,
0001
0000
0000
0001
0100
0000
0000
0100
,
1000
0000
0100
0000
1000
0001
1000
0000
,
0010
0000
0001
0010
0100
0000
0000
0010
,
1000
0010
0000
0100
0000
0101
0000
1010
,
0000
0000
0100
0001
1000
0000
0000
0001
,
1000
0010
0000
1000
0000
0010
0000
0200
,
0000
0001
0000
0001
0000
0000
0000
0301
,
0010
1000
0000
0010
0000
0001
0000
0000
,
1001
0000
0000
0010
0100
0000
0000
0010
,
0011
1100
0110
0000
,
0001
0000
1000
0100
0001
0000
0100
0000
,
1000
0001
0010
1000
,
0010
0001
1000
0100
0010
0000
0100
1000
,
0000
0001
0010
0011
0000
1100
0000
0000
,
0001
0000
0010
0100
0010
0000
0001
0000
,
0100
0010
0100
0010
,
0001
0010
0100
0001
1000
0000
0010
0100
,
0000
0010
0100
1100
0000
0011
0002
0000
,
0013
0010
0100
1000
,
0010
1000
0100
0010
,
0002
0000
0013
0100
0020
0000
0031
0100
,
0001
1000
0001
0010
,
0110
0001
0010
0100
,
1000
0100
0010
0001
,
0100
0101
0000
0010
0110
0000
1000
1010
,
0000
0000
0000
0001
0200
0000
0301
0000
,
1010
0000
0100
0010
0000
0100
0000
0001
,
0020
0000
0230
0000
0320
0000
1030
0002
,
0000
0000
0000
0000
0000
1003
0020
0000
,
0030
0000
0001
0010
,
1100
0000
0010
0100
0000
0001
0000
0010
,
0000
0100
0010
1000
,
0010
0000
0100
0020
0000
0000
0000
0000
,
0000
0000
0000
0031
1000
0000
1000
0001
,
1000
0000
0000
1000
0001
0000
0010
0000
,
0100
0000
0000
0010
0100
0000
0010
0000
,
0001
0000
0100
1000
0000
0100
0000
1000
,
0200
0310
0100
0001
,
0100
0000
0001
0020
0100
0000
0100
0000
,
0100
0100
0130
0010
,
0100
0000
0000
0000
1000
0000
0001
0010
,
1100
0000
0000
1000
0200
0000
0310
0000
,
0100
0000
0001
0100
0000
0100
0000
1000
,
0200
0000
0320
0000
0032
0000
1003
0020
,
0000
0000
0000
0000
0030
0100
2000
0000
,
0000
0000
3100
0100
,
0001
0000
0010
0100
0000
0010
0000
0100
,
0000
0001
0100
1000
,
0010
0000
1000
0020
0000
0000
0000
0000
,
0000
0000
0000
0000
0000
0000
0000
0000
1030
0000
0000
0001
0000
0000
1000
0000
,
0001
0000
0001
1000
0001
0000
0002
0000
,
0100
0103
0100
0100
,
0020
1000
1000
1000
,
0230
0001
0001
0001
,
0301
0000
0010
0200
0001
0000
0001
0000
,
0001
0001
0001
1300
,
1010
0000
0001
0100
0010
0000
1000
0100
,
0010
0001
0000
0010
0100
0100
0000
0011
;

//---------------dance-single - ----------------
#NOTES:
     dance-single:
     :
     Beginner:
     2:
     0.120,0.192,0.011,0.011,0.000: // measure 1
0000
0000
0000
0000
,  // measure 2
0000
0000
0000
0000
,  // measure 3
0000
0000
0000
0000
,  // measure 4
0000
0000
0000
0000
,  // measure 5
0000
0000
0000
0000
,  // measure 6
0000
0000
0000
0000
,  // measure 7
0000
0000
0000
0000
,  // measure 8
0000
0000
0000
0000
,  // measure 9
0000
0000
0000
0000
,  // measure 10
1000
0000
0000
0000
,  // measure 11
0000
0000
0000
0000
,  // measure 12
0001
0000
0000
0000
,  // measure 13
0000
0000
0000
0000
,  // measure 14
0001
0000
0000
0000
,  // measure 15
0000
0000
0000
0000
,  // measure 16
0100
0000
0000
0000
,  // measure 17
0000
0000
0000
0000
,  // measure 18
0110
0000
0000
0000
,  // measure 19
0000
0000
0000
0000
,  // measure 20
0010
0000
0000
0000
,  // measure 21
0000
0000
0000
0000
,  // measure 22
1000
0000
0000
0000
,  // measure 23
0000
0000
0000
0000
,  // measure 24
0001
0000
0001
0000
,  // measure 25
0001
0000
0000
0000
,  // measure 26
0100
0000
0000
0000
,  // measure 27
0100
0000
0000
0000
,  // measure 28
0010
0000
0000
0000
,  // measure 29
0010
0000
0000
0000
,  // measure 30
1000
0000
0000
0000
,  // measure 31
1000
0000
0000
0000
,  // measure 32
0001
0000
0000
0000
,  // measure 33
0001
0000
0000
0000
,  // measure 34
0001
0000
0000
0000
,  // measure 35
0100
0000
0000
0000
,  // measure 36
0010
0000
0010
0000
,  // measure 37
0010
0000
0000
0000
,  // measure 38
0100
0000
0000
0000
,  // measure 39
0001
0000
1000
0000
,  // measure 40
0001
0000
0000
0000
,  // measure 41
0000
0000
0000
0000
,  // measure 42
1000
0000
1000
0000
,  // measure 43
1000
0000
0001
0000
,  // measure 44
0002
0000
0000
0000
,  // measure 45
0003
0000
0000
0000
,  // measure 46
1000
0000
1000
0000
,  // measure 47
0010
0000
0010
0000
,  // measure 48
0100
0000
0100
0000
,  // measure 49
0100
0000
0000
0000
,  // measure 50
0010
0000
0010
0000
,  // measure 51
0010
0000
1000
0000
,  // measure 52
0001
0000
1000
0000
,  // measure 53
0100
0000
1000
0000
,  // measure 54
0001
0000
0100
0000
,  // measure 55
0001
0000
0100
0000
,  // measure 56
0001
0000
0001
0000
,  // measure 57
1000
0000
0000
0000
,  // measure 58
0010
0000
0000
0000
,  // measure 59
0100
0000
0000
0000
,  // measure 60
0010
0000
0000
0000
,  // measure 61
0100
0000
0000
0000
,  // measure 62
0001
0000
0000
0000
,  // measure 63
1000
0000
0000
0000
,  // measure 64
0001
0000
0000
0000
,  // measure 65
1000
0000
0000
0000
,  // measure 66
0001
0000
0001
0000
,  // measure 67
1000
0000
1000
0000
,  // measure 68
0010
0000
0010
0000
,  // measure 69
0100
0000
0100
0000
,  // measure 70
0001
0000
0001
0000
,  // measure 71
1000
0000
1000
0000
,  // measure 72
0001
0000
1000
0000
,  // measure 73
0001
0000
0000
0000
;

//---------------dance-single - ----------------
#NOTES:
     dance-single:
     :
     Easy:
     5:
     0.224,0.345,0.000,0.149,0.000:
0000
0000
0000
0000
,
0000
0000
0000
0000
,
0000
0000
0000
0000
,
0000
0000
0000
0000
,
0000
0000
0000
0000
,
0000
0000
0000
0000
,
0000
0000
0000
0000
,
0000
0000
0000
0000
,
0000
0000
0000
0000
,
2000
0000
0000
0000
,
3000
0000
0000
0000
,
0200
0000
0000
0000
,
0300
0000
0000
0000
,
0020
0000
0000
0000
,
0030
0000
0000
0000
,
0002
0000
0000
0000
,
0003
0000
0000
0000
,
1000
0000
1000
0000
,
0001
0000
0001
0000
,
0100
0000
0100
0000
,
0010
0000
0010
0000
,
1000
0000
1000
0000
,
0001
0000
0001
0000
,
1000
0010
1000
0100
,
1000
0010
1000
0000
,
0001
0100
0001
0010
,
0001
0100
0001
1000
,
0002
0000
2003
0000
,
3001
0000
0001
0000
,
1000
0010
1000
0100
,
1000
0010
1000
0001
,
0200
0000
0320
0000
,
1030
0100
0010
0000
,
0010
0000
0010
0000
,
0100
1000
0100
0010
,
0100
0000
0001
0000
,
0001
0010
0001
0010
,
0001
0000
0000
1000
,
0100
1000
0100
1000
,
0001
0000
0000
0000
,
0000
0000
0000
0000
,
1000
0010
0100
0010
,
0100
0001
0010
0001
,
0020
0000
0000
0000
,
0030
0000
0000
0000
,
0001
0001
0100
0100
,
0010
1000
0010
1000
,
0100
1000
0020
0000
,
0000
0000
0000
0000
,
0130
0001
0010
0000
,
0001
0010
0001
0000
,
0001
0100
0001
0000
,
0001
1000
0010
1000
,
0100
1000
0020
0000
,
0000
0000
0000
0000
,
0130
0000
0010
0000
,
1000
0000
0000
0000
,
2000
0000
0000
0000
,
0000
0000
0000
0000
,
3002
0000
0000
0000
,
0000
0000
0000
0000
,
0103
0000
0000
0000
,
0010
0000
0000
0000
,
1000
0000
0000
0000
,
0100
0000
0000
0000
,
1000
0100
1000
0100
,
0010
0100
0010
0100
,
0010
0001
0010
0001
,
0010
0100
1000
0100
,
0010
0002
0000
0000
,
0000
0000
0000
0000
,
1003
0000
0000
1000
,
0001
0000
0000
0000
;

//---------------dance-single - ----------------
#NOTES:
     dance-single:
     :
     Medium:
     8:
     0.332,0.388,0.096,0.234,0.000:
0000
0000
0000
0000
,
0000
0000
0000
0000
,
0000
0000
0000
0000
,
0000
0000
0000
0000
,
0000
0000
0000
0000
,
0000
0000
0000
0000
,
0000
0000
0000
0000
,
0000
0000
0000
0000
,
0000
0000
0000
0000
,
0020
0000
0000
0000
,
0000
0000
0000
0000
,
0130
0000
0000
0001
0000
0000
0020
0000
,
0000
0000
0000
0000
,
0130
0000
0000
1000
0000
0000
0200
0000
,
0000
0000
0000
0000
,
1300
0000
0001
0000
,
0100
0001
0100
0000
,
0001
0100
0010
0000
,
0010
1000
0100
0010
,
1000
1000
0010
0000
,
0100
0010
0001
0100
,
0010
1000
0010
0000
,
0100
0010
0001
0010
,
2000
0000
3002
0000
,
0103
0010
0110
0000
,
1000
0100
1000
0010
,
0100
0001
0010
0001
,
1000
1000
0001
0000
,
0100
0010
0100
0000
,
0100
0001
1000
0100
,
0010
0001
0100
0010
,
1000
1000
0001
1000
,
0010
0100
0010
1000
,
2000
0000
3002
0000
,
0103
0100
0001
0010
,
0200
0000
0320
0000
,
0031
0100
0010
0100
,
0101
0000
0000
0001
,
0010
0100
0010
0001
,
1100
0000
0000
0011
0000
0000
1100
0000
,
0000
0000
0001
0010
,
1000
0010
0001
0100
,
2000
3100
0200
0301
,
2000
0000
0000
3002
,
0000
0000
0000
0003
0100
0000
0001
0000
,
1000
0010
1000
0100
,
1000
0001
0100
0001
,
0010
0002
0000
0000
,
0000
0000
1003
0001
,
0011
0000
0001
1000
,
1100
0000
0100
0010
,
0001
0010
0100
0010
,
1000
0010
0001
0100
,
0110
0010
0020
0000
,
0000
0000
0000
1030
,
0001
0100
0010
1000
,
0200
0000
0000
0000
,
0301
0000
0100
0000
0000
1000
0000
0000
,
0100
0010
1000
0010
,
0020
0000
0000
0000
,
0230
0000
0000
0000
,
1300
0001
0010
0100
,
0010
0000
0001
0100
,
0020
0000
0032
0000
,
0013
0000
1000
0001
,
1000
1000
1000
1000
,
0010
0010
0010
0010
,
0100
0100
0100
0100
,
0001
0001
0001
0001
,
2000
0000
3002
0000
,
0103
0000
0001
1000
,
0001
0000
1000
0100
,
0010
0000
0000
0100
0000
0010
0000
1001
;
