#TITLE:black bullet;
#SUBTITLE:ブラック・ブレット BLACK BULLET [黒の銃弾] OP;
#ARTIST:fripSide;
#TITLETRANSLIT:black bullet;
#SUBTITLETRANSLIT:BLACK BULLET OP;
#ARTISTTRANSLIT:fripSide;
#CREDIT:;
#GENRE:BLACK OPERA TECHNO;
#BANNER:black bullet.png;
#BACKGROUND:black bullet-bg.png;
#LYRICSPATH:;
#CDTITLE:cdtitle.png;
#DISPLAYBPM:155;
#MUSIC:black bullet.mp3;
#METERTYPE:DDR X;
#MENUCOLOR:0,0,1,1;
#OFFSET:-0.051;
#SAMPLESTART:38.740;
#SAMPLELENGTH:12.000;
#SELECTABLE:YES;
#BPMS:0.000=155.000,122.000=310.000,124.000=155.000,216.000=310.000,217.000=155.000;
#STOPS:122.000=0.048
,122.250=0.048
,122.500=0.048
,122.750=0.048
,123.000=0.048
,123.250=0.048
,123.500=0.048
,123.750=0.048
,216.000=0.048
,216.250=0.048
,216.500=0.048
,216.750=0.048
;
#BGCHANGES:;

//---------------dance-single - ----------------
#NOTES:
     dance-single:
     :
     Hard:
     13:
     0.745,0.805,1.000,0.391,0.246:
0000
0000
0000
0000
,
0000
0000
0000
0000
,
0000
0000
0000
0000
,
0000
0000
0000
0000
,
1100
0010
0010
0101
0010
1100
0001
1010
,
0100
0011
0100
0110
0001
1010
1001
0000
,
0011
0010
0010
0110
1000
0011
0100
0120
,
0000
1000
0000
0100
0000
0001
1030
0000
,
1000
0000
0000
0001
0100
0000
0010
0000
0020
0000
0000
0000
0031
0000
0010
0000
,
0100
0000
0000
1000
0100
0000
0100
0000
0020
0000
0000
0000
0130
0000
0000
0000
,
1000
0000
0000
1000
0100
0000
0100
0000
0020
0000
0000
0000
0031
0000
0010
0000
,
1000
0000
0000
1000
0010
0000
0100
0000
0020
0000
0000
0000
0130
0000
0100
0000
,
0101
0000
0000
1000
0100
0000
0001
0000
0100
0000
0000
0000
0100
0000
1000
0000
,
0100
0000
0000
0010
0100
0000
0010
0000
0001
0000
0000
0000
0010
0000
0001
0000
,
0100
0000
0000
0001
0100
0000
0100
0000
0010
0000
0000
0010
0100
0000
1000
0000
,
0100
0000
0000
0100
0010
0000
0010
0000
1000
0000
0010
0000
0100
0000
0010
0000
,
1001
0000
0000
1000
0100
0000
0020
0000
0200
0000
0330
0000
0110
0000
1000
0000
,
0100
0000
0000
1000
0010
0000
0002
0000
0020
0000
0033
0000
0011
0000
0000
0000
,
0010
0000
0000
1000
0001
0000
0200
0000
0002
0000
0303
0000
0101
0000
0100
0000
,
0010
0000
0000
0100
1000
0000
1000
0000
0100
0010
0000
0000
0110
0000
0010
0000
,
1010
0000
0000
0100
0010
0000
0020
0000
2000
0000
3030
0000
1010
0000
0100
0000
,
0001
0000
0000
1000
0001
0000
0002
0000
2000
0000
3003
0000
1001
0000
0000
0000
,
0100
0000
0000
1000
0001
0000
0001
1000
0001
0000
0000
0010
0100
0000
0010
0000
,
0011
0000
0000
0100
0010
0000
1000
0000
0011
0000
0000
0000
0110
0000
0000
0000
,
2000
0000
0000
0000
0100
0000
0000
0000
0001
0000
0000
0100
0000
0000
0010
0000
,
0010
0000
0000
0001
0000
0000
0010
0000
3001
0000
0000
0000
1001
0000
0000
0000
,
0002
0000
0000
0000
0100
0000
0000
0000
1000
0000
0000
0100
0000
0000
0010
0000
,
0010
0000
0000
1000
0000
0000
0100
0000
1003
0001
0000
0000
1001
0000
0000
0000
,
2000
0000
0000
0000
3200
0000
0000
0000
0320
0000
0000
0032
0000
0000
0013
0000
,
0100
0000
0000
0020
0000
0000
1030
0000
0020
0000
0000
0031
0000
0000
0001
0000
,
1002
0000
0000
0103
0001
0000
0010
0000
0001
0010
0001
0100
0001
1000
0001
1000
,
1100
0000
0000
0110
0000
0000
0022
0000
0000
0000
0033
0000
0100
0000
0010
0000
,
1010
0000
0101
0100
1010
0000
1100
0100
,
0110
0001
0101
0100
1010
0000
1100
0100
,
0110
0000
0011
0100
0101
0000
1010
0100
,
1001
0100
0011
0100
0110
0000
1001
0100
,
0110
0000
1100
1000
1001
0000
0101
0100
,
0011
0100
0110
1000
1010
0000
0100
0100
,
1010
0000
0000
0100
0000
0000
0010
0000
2000
0000
0000
0000
0100
0000
0000
0000
,
0010
0000
0000
0001
0000
0000
0010
0000
3010
0000
0000
0000
0101
0000
1000
0000
,
0101
0000
0110
1000
0110
0000
0011
1000
,
0011
1000
0101
1000
0101
0000
1100
0001
,
1100
0000
1001
0010
1001
0000
0101
0010
,
0101
0010
1100
0010
1100
0000
1100
0100
,
0220
0330
0011
0100
0110
0000
1100
0100
,
0110
1000
1001
0100
0110
0000
0011
0100
,
0110
0000
0000
0100
0000
0000
0100
0000
0200
0000
0000
0000
1000
0000
0000
0000
,
1000
0000
0000
0010
0000
0000
0001
0000
0001
0000
0300
0000
0100
0000
1000
0000
,
1200
0000
0000
1000
0000
0000
0310
0000
0021
0000
0000
0001
0000
0000
0130
0000
,
1001
0000
1000
0000
0100
0000
0010
0000
1000
0000
1000
0000
0001
0100
1000
0001
,
1000
1000
0100
0110
0001
1100
0010
0101
,
1000
0011
0100
0011
1000
0110
0110
0000
,
1001
0100
0010
0011
1000
0110
0001
0102
,
0000
1000
0000
0010
0000
1000
1003
0000
,
1000
0100
1000
0100
0022
0000
0000
0000
0000
0000
0000
0000
0000
0000
0000
0000
,
0000
0000
0033
0000
;

//---------------dance-single - ----------------
#NOTES:
     dance-single:
     :
     Beginner:
     2:
     0.102,0.121,0.011,0.033,0.000: // measure 1
0000
0000
0000
0000
,  // measure 2
0000
0000
0000
0000
,  // measure 3
0000
0000
0000
0000
,  // measure 4
0000
0000
0000
0000
,  // measure 5
0001
0000
0001
0000
,  // measure 6
0001
0000
0000
0000
,  // measure 7
1000
0000
1000
0000
,  // measure 8
1000
0000
0000
0000
,  // measure 9
0010
0000
0000
0000
,  // measure 10
0010
0000
0000
0000
,  // measure 11
0100
0000
0000
0000
,  // measure 12
0100
0000
0000
0000
,  // measure 13
0001
0000
0000
0000
,  // measure 14
0001
0000
0000
0000
,  // measure 15
1000
0000
0000
0000
,  // measure 16
1000
0000
0000
0000
,  // measure 17
0100
0000
0000
0000
,  // measure 18
0100
0000
0000
0000
,  // measure 19
0010
0000
0000
0000
,  // measure 20
0010
0000
0000
0000
,  // measure 21
0001
0000
0000
0000
,  // measure 22
0001
0000
0000
0000
,  // measure 23
1000
0000
0000
0000
,  // measure 24
1000
0000
0000
0000
,  // measure 25
0001
0000
0000
0000
,  // measure 26
0001
0000
0000
0000
,  // measure 27
1000
0000
0000
0000
,  // measure 28
1000
0000
0000
0000
,  // measure 29
0010
0000
0000
0000
,  // measure 30
0100
0000
0000
0000
,  // measure 31
0001
0000
2000
0000
,  // measure 32
3000
0000
0000
0000
,  // measure 33
1000
0000
1000
0000
,  // measure 34
1000
0000
0000
0000
,  // measure 35
0010
0000
0010
0000
,  // measure 36
0010
0000
0000
0000
,  // measure 37
0100
0000
0100
0000
,  // measure 38
0100
0000
0000
0000
,  // measure 39
0001
0000
0000
0000
,  // measure 40
0002
0000
0000
0000
,  // measure 41
0003
0000
0000
0000
,  // measure 42
0001
0001
0001
0000
,  // measure 43
0000
0000
0000
0000
,  // measure 44
1000
1000
1000
0000
,  // measure 45
0000
0000
0000
0000
,  // measure 46
0100
0100
0100
0000
,  // measure 47
0000
0000
0000
0000
,  // measure 48
0020
0000
0000
0000
,  // measure 49
0030
0000
0001
0000
,  // measure 50
0001
0000
0000
0000
,  // measure 51
1000
0000
1000
0000
,  // measure 52
1000
0000
0000
0000
,  // measure 53
0001
0000
0001
0000
,  // measure 54
0001
0000
0000
0000
,  // measure 55
0000
1001
0000
0000
;

//---------------dance-single - ----------------
#NOTES:
     dance-single:
     :
     Easy:
     6:
     0.258,0.273,0.033,0.067,0.000: // measure 1
0000
0000
0000
0000
,  // measure 2
0000
0000
0000
0000
,  // measure 3
0000
0000
0000
0000
,  // measure 4
0000
0000
0000
0000
,  // measure 5
1000
0000
0100
0000
,  // measure 6
1000
0000
0001
0000
,  // measure 7
0010
0000
0001
0000
,  // measure 8
1000
0000
0000
0000
,  // measure 9
1000
1000
0001
0000
,  // measure 10
0001
0001
1000
0000
,  // measure 11
0010
0010
0100
0000
,  // measure 12
0100
0100
0010
0000
,  // measure 13
1000
0100
1000
0000
,  // measure 14
0001
0010
0001
0000
,  // measure 15
1000
0001
1000
0000
,  // measure 16
0001
1000
0001
0000
,  // measure 17
0100
0100
0100
0000
,  // measure 18
0010
0010
0010
0000
,  // measure 19
1000
1000
1000
0000
,  // measure 20
0001
0001
0001
1000
,  // measure 21
0001
0001
0001
0000
,  // measure 22
1000
1000
1000
0000
,  // measure 23
0010
0010
0010
0000
,  // measure 24
0100
0100
0100
0000
,  // measure 25
0001
1000
0001
1000
,  // measure 26
0010
1000
0010
0100
,  // measure 27
0001
0100
0001
0010
,  // measure 28
0001
0100
0001
1000
,  // measure 29
0010
0100
0010
1000
,  // measure 30
0010
0100
0001
0010
,  // measure 31
0001
1000
0001
1000
,  // measure 32
0001
0000
0000
1000
,  // measure 33
1001
0001
0001
0000
,  // measure 34
1000
0001
1000
0000
,  // measure 35
0010
0110
0100
0100
,  // measure 36
0001
1000
0001
0000
,  // measure 37
0001
1001
1000
1000
,  // measure 38
0001
0100
0001
0000
,  // measure 39
2000
0000
0002
0000
,  // measure 40
0000
0000
3003
0000
,  // measure 41
1000
0010
1000
0001
,  // measure 42
0010
0001
0010
0001
,  // measure 43
1000
0010
1000
0010
,  // measure 44
0100
0001
0010
0001
,  // measure 45
1000
0010
1000
0100
,  // measure 46
1000
0001
0100
0000
,  // measure 47
0020
0000
0200
0000
,  // measure 48
0000
0000
0330
0000
,  // measure 49
0001
1000
0001
1000
,  // measure 50
0002
0000
0000
0000
,  // measure 51
1003
0100
1000
0100
,  // measure 52
1000
0001
1000
0001
,  // measure 53
0010
0001
0010
0001
,  // measure 54
0001
0000
0000
0000
,  // measure 55
2000
3001
0000
0000
;

//---------------dance-single - ----------------
#NOTES:
     dance-single:
     :
     Medium:
     10:
     0.499,0.515,0.201,0.335,0.190: // measure 1
0000
0000
0000
0000
,  // measure 2
0000
0000
0000
0000
,  // measure 3
0000
0000
0000
0000
,  // measure 4
0000
0000
0000
0000
,  // measure 5
0002
0000
0013
0200
0000
1000
0000
0010
,  // measure 6
0000
0001
0000
0010
0000
1000
1300
0000
,  // measure 7
2000
0000
3100
0020
0000
0100
0000
0001
,  // measure 8
0000
1000
0000
0100
0000
0001
0031
0000
,  // measure 9
1000
0000
0000
0100
0000
0000
0010
0000
0002
0000
0000
0000
0000
0000
1003
0000
,  // measure 10
0010
0000
0000
0100
0000
0000
0010
0000
0002
0000
0000
0000
0000
0000
0000
0000
,  // measure 11
0013
0000
0000
1000
0000
0000
0100
0000
0002
0000
0000
0000
0000
0000
1003
0000
,  // measure 12
0010
0000
0000
0100
0000
0000
1000
0000
2000
0000
0000
0000
0000
0000
0000
0000
,  // measure 13
3010
0000
0000
0100
0000
0000
0001
0000
0020
0000
0000
0000
0000
0000
1030
0000
,  // measure 14
0010
0000
0000
0010
0000
0000
0001
0000
0020
0000
0000
0000
0000
0000
0130
0000
,  // measure 15
0001
0000
0000
0100
0000
0000
1000
0000
0100
0000
0000
0010
0000
0000
0001
0000
,  // measure 16
0100
0000
0000
0010
0000
0000
0100
0000
0020
0000
0000
0000
0000
0000
0000
0000
,  // measure 17
1030
0000
0000
0100
0000
0000
0010
0000
0002
0000
0000
0000
0000
0000
1003
0000
,  // measure 18
0010
0000
0000
0100
0000
0000
0010
0000
2000
0000
0000
0000
0000
0000
0000
0000
,  // measure 19
3010
0000
0000
0100
0000
0000
0001
0000
0020
0000
0000
0000
0000
0000
0031
0000
,  // measure 20
0010
0000
0000
1000
0000
0000
0010
0000
0200
0000
0000
0000
0000
0000
0000
0000
,  // measure 21
0310
0000
0000
1000
0000
0000
0010
0000
0200
0000
0000
0000
0000
0000
0301
0000
,  // measure 22
0100
0000
0000
0001
0000
0000
0100
0000
0200
0000
0000
0000
0320
0000
0000
0000
,  // measure 23
1030
0000
0000
0010
0000
0000
0001
0000
1000
0000
0000
1000
0000
0000
0100
0000
,  // measure 24
0010
0000
0000
0001
0000
0000
0100
0000
0010
0000
0000
0000
0000
0000
0000
0000
,  // measure 25
2000
0000
0000
0000
3100
0000
0000
0000
0010
0000
0000
0010
0000
0000
0001
0000
,  // measure 26
0010
0000
0000
0100
0000
0000
0010
0000
0001
0000
0000
0000
0000
0000
0000
0000
,  // measure 27
0020
0000
0000
0000
0130
0000
0000
0000
1000
0000
0000
0100
0000
0000
0010
0000
,  // measure 28
0100
0000
0000
1000
0000
0000
0100
0000
0010
0000
0000
0000
0000
0000
0000
0000
,  // measure 29
0002
0000
0000
0000
1003
0000
0000
0000
1000
0000
0000
0010
0000
0000
1000
0000
,  // measure 30
0001
0000
0000
0100
0000
0000
0010
0000
0100
0000
0000
0001
0000
0000
0100
0000
,  // measure 31
0001
0000
0000
1000
0000
0000
0001
0000
1000
0000
0000
0100
0000
0000
0010
0000
,  // measure 32
0110
0000
0000
0110
0000
0000
0110
0000
0000
0000
0000
0000
1000
0000
0100
0000
,  // measure 33
0011
0000
1000
0100
0010
0000
0010
0001
,  // measure 34
0010
0100
0010
0100
0110
0000
0001
0010
,  // measure 35
1100
0000
0001
0010
0100
0000
1000
0100
,  // measure 36
0010
1000
0010
1000
0011
0000
1000
0100
,  // measure 37
0011
0000
1000
0100
0010
0000
0010
0001
,  // measure 38
0010
0100
1000
0100
0110
0000
0000
1000
,  // measure 39
0001
0000
0000
1000
0000
0000
0001
0000
2000
0000
0000
0000
3001
0000
0000
0000
,  // measure 40
0200
0000
0000
0001
0000
0000
0001
0000
0301
0000
0000
0000
1000
0000
0100
0000
,  // measure 41
1000
0000
1000
0010
1000
0000
0100
0010
,  // measure 42
0100
0001
0100
0010
0001
0000
0010
0001
,  // measure 43
0010
0000
0100
0010
1000
0000
1000
0100
,  // measure 44
1000
0010
0100
0010
0100
0000
0001
0010
,  // measure 45
0002
0000
0103
0010
0100
0000
1000
0100
,  // measure 46
0010
0100
0010
0100
0010
0000
0000
1000
,  // measure 47
0100
0000
0000
0010
0000
0000
0001
0000
1000
0000
0000
0000
0200
0000
0000
0000
,  // measure 48
0310
0000
0000
1000
0000
0000
0010
0000
0100
0000
0000
0000
0000
0000
1000
0000
,  // measure 49
0200
0000
0000
0010
0000
0000
0001
0000
0320
0000
0000
1000
0000
0000
1030
0000
,  // measure 50
0010
0100
0010
0100
2000
0000
0000
0000
,  // measure 51
3001
1000
0001
1000
0000
1001
0000
0110
,  // measure 52
0000
1010
0000
0102
0000
0010
0013
0000
,  // measure 53
0100
1000
0010
0100
0000
0011
0000
1010
,  // measure 54
0000
1100
0000
0210
0000
0001
0301
0000
,  // measure 55
1000
0001
1001
0000
0000
0000
0000
0000
;
