#TITLE:balance unbalance 〜ホントウ ノ ワタシ〜;
#SUBTITLE:GJ部 ED2;
#ARTIST:皇 紫音;
#TITLETRANSLIT:balance unbalance ~Hontou no Watashi~;
#SUBTITLETRANSLIT:GJ-bu ED2;
#ARTISTTRANSLIT:Sumeragi Shion;
#GENRE:BALANCE POP;
#CREDIT:;
#BANNER:balance unbalance ~Hontou no Watashi~.png;
#BACKGROUND:balance unbalance ~Hontou no Watashi~-bg.png;
#LYRICSPATH:;
#CDTITLE:cdtitle.png;
#MUSIC:balance unbalance ~Hontou no Watashi~.mp3;
#METERTYPE:DDR X;
#MENUCOLOR:0,0,1,1;
#OFFSET:-0.532;
#SAMPLESTART:65.573;
#SAMPLELENGTH:12.000;
#SELECTABLE:YES;
#BPMS:0.000=120.000;
#STOPS:;
#BGCHANGES:;

//---------------dance-single - ----------------
#NOTES:
     dance-single:
     :
     Hard:
     10:
     0.410,0.420,0.112,0.157,0.039: // measure 1
0000
0000
0000
0000
,  // measure 2
0000
0000
0000
0000
,  // measure 3
0000
0000
0000
0000
,  // measure 4
0000
0000
0000
0000
,  // measure 5
1000
0000
0100
0010
0010
0000
0001
1000
,  // measure 6
0000
0001
1000
0100
0010
0000
0001
0000
,  // measure 7
0100
0010
0100
0001
0010
0000
0100
2000
,  // measure 8
0000
3200
0000
0320
0000
0032
0000
0000
,  // measure 9
1003
0001
0100
0010
0100
0000
0001
0010
,  // measure 10
0000
0100
0010
0001
0100
0000
0010
0000
,  // measure 11
0001
0100
1000
0000
0100
0000
1000
0001
,  // measure 12
0000
0010
1000
0100
0010
0000
0001
0000
,  // measure 13
1001
0000
0001
0000
1000
0000
0001
0000
0100
0000
0000
0100
0000
0000
0100
0000
,  // measure 14
0000
0000
0010
0000
1000
0000
0010
0000
0001
0000
0000
0001
0000
0000
0001
0000
,  // measure 15
0000
0000
0010
0000
1000
0000
0001
0000
0010
0000
0000
0010
0000
0000
0010
0000
,  // measure 16
0000
0000
1000
0000
0010
0000
1000
0000
1000
0000
0000
1000
0000
0000
1000
0000
,  // measure 17
0010
0000
0100
0000
0010
0001
0000
0100
,  // measure 18
0000
0010
0001
0100
0001
0000
1001
0000
,  // measure 19
0100
0010
0001
0010
0100
0000
1000
0100
,  // measure 20
0000
0010
0000
1000
0000
0100
0010
0000
,  // measure 21
0100
1000
0100
1000
0010
0001
0010
0001
,  // measure 22
0100
0010
0100
0010
0010
0100
0010
0100
,  // measure 23
1000
0000
0100
0010
0000
0100
0010
0000
,  // measure 24
1001
0000
0001
0100
0000
0001
1000
0000
0000
0000
0000
0000
0100
0000
1000
0000
,  // measure 25
0010
0000
0100
0020
0000
0130
1000
0100
,  // measure 26
0010
1000
0100
0000
0001
0000
1000
0001
,  // measure 27
0100
0000
0010
0001
0000
0100
0000
0002
,  // measure 28
1000
0000
0000
0000
0000
0000
1003
0001
,  // measure 29
1000
0010
0100
0010
0100
0000
0001
0010
,  // measure 30
0100
0000
0000
0000
0110
0000
0000
0000
1001
0000
0000
0000
0100
0010
0100
0000
,  // measure 31
0010
0000
0001
0100
0000
0020
0000
2030
,  // measure 32
0000
0000
0000
0001
0000
0000
0001
0001
,  // measure 33
3001
0100
0001
0100
0010
0000
0010
2000
,  // measure 34
0000
3100
0010
0100
0000
0100
0010
0001
,  // measure 35
2000
0000
3100
0001
0200
0000
1300
0100
,  // measure 36
0000
0100
0010
0100
0000
0000
1000
0100
,  // measure 37
1000
0010
0100
0000
0010
0000
0100
0001
,  // measure 38
0000
1000
0100
0001
0000
0000
0100
0000
,  // measure 39
0010
0100
0001
0010
0100
0010
0000
0100
,  // measure 40
0100
0010
0001
0100
0010
0100
0010
0000
,  // measure 41
1001
0100
0001
0100
0001
0000
1000
0200
,  // measure 42
0000
0310
0001
0010
0200
0000
0301
0000
,  // measure 43
1000
0001
0100
0010
1000
0000
0010
0011
,  // measure 44
0000
0110
0000
1100
0000
1001
0200
0000
,  // measure 45
0301
0000
0000
0000
;

//---------------dance-single - ----------------
#NOTES:
     dance-single:
     :
     Challenge:
     12:
     0.456,0.519,0.169,0.259,0.107:
0000
0000
0000
0000
,
0000
0000
0000
0000
,
0000
0000
0000
0000
,
0000
0000
0000
0000
,
0002
0000
0023
0100
0130
0000
1000
0100
,
0000
0010
0001
0100
0010
0000
MMMM
0000
,
1000
0010
0001
0010
1010
0000
0100
0200
,
0010
0320
0001
0031
1000
0001
MMMM
0000
,
0001
0010
0010
1000
1000
MMMM
0001
0001
,
0000
1000
0100
0010
0001
0000
MMMM
0000
,
0001
0100
1000
0100
0110
0000
1000
0001
,
0000
0010
1000
0100
0020
0000
0031
0000
,
MMMM
0000
0010
0000
1000
0000
0100
0000
0100
0000
0010
0100
0000
0010
0100
0000
,
0000
0000
0010
0000
1000
0000
0010
0000
0001
0000
1000
0001
0000
1000
0001
0000
,
0000
0000
0010
0000
0100
0000
1000
0000
0001
0000
0100
0010
0000
0100
0010
0000
,
0000
0000
1000
0000
0010
0000
1000
0000
1000
0000
0001
1000
0000
0001
1000
0000
,
0020
0000
0130
0000
0010
MMMM
0000
0100
,
0000
0010
0001
0100
0001
0000
1001
0000
,
0100
0010
0001
0010
0100
0000
1000
1100
,
MMMM
0110
MMMM
1001
MMMM
0100
0010
0000
,
2000
0100
0100
0100
3002
0100
0100
0100
,
0203
0001
0001
0001
0320
1000
1000
1000
,
1030
0000
0110
0010
MMMM
0001
1001
0000
,
1001
0000
0010
0100
0000
0010
1000
0000
MMMM
0000
0000
0000
0100
0000
1000
0000
,
0020
0000
0130
0020
0000
0130
0001
0100
,
0010
1000
0100
0000
MMMM
0000
1000
0001
,
0200
0000
0310
0001
0000
0100
0000
0002
,
1000
0000
1000
0000
1000
0000
1003
0001
,
1000
0010
0100
0010
0100
MMMM
0001
0010
,
0200
0000
0000
0000
0310
0000
0000
0000
1001
0000
0000
0000
0100
0010
0100
0010
,
0100
0000
0001
0100
0000
0020
0000
2030
,
0000
0000
0000
0000
3000
0000
MMMM
0000
0000
0000
0000
0000
0010
1000
0001
0000
,
0001
0000
0100
0000
0001
0000
0100
0000
0010
0100
0010
0000
0001
0000
2000
0000
,
0000
0000
3100
0010
0001
0000
0100
0000
MMMM
0000
0000
0000
0100
0010
0001
0000
,
2000
0000
3100
0100
0020
0000
1030
0001
,
0000
0000
0100
0000
0010
0000
0100
0000
0000
MMMM
0000
0000
1000
0000
0100
0000
,
1000
0010
0100
MMMM
0010
MMMM
0100
0001
,
MMMM
0001
0100
0001
MMMM
0000
0100
0000
,
0010
0100
1000
0010
0100
0010
0000
0100
,
0100
0000
0010
0000
0001
0000
0100
0000
0010
0100
0010
0000
0010
0000
0000
0000
,
0101
0000
0100
0000
0001
0000
0100
0000
0001
0000
0000
0001
1000
0000
0200
0000
,
0000
0310
0001
0010
0200
0000
0301
MMMM
,
1000
0001
0100
0010
1000
0000
0010
0110
,
MMMM
1001
MMMM
1010
MMMM
0101
0200
0000
,
0301
0000
0000
0000
;

//---------------dance-single - ----------------
#NOTES:
     dance-single:
     :
     Medium:
     7:
     0.289,0.371,0.000,0.112,0.000: // measure 1
0000
0000
0000
0000
,  // measure 2
0000
0000
0000
0000
,  // measure 3
0000
0000
0000
0000
,  // measure 4
0000
0000
0000
0000
,  // measure 5
1000
0100
1000
0010
,  // measure 6
0100
0010
0001
0000
,  // measure 7
1000
0010
1000
0000
0010
0000
0001
0000
,  // measure 8
1000
0001
1000
0000
,  // measure 9
1000
1000
0001
0001
,  // measure 10
1000
0001
1000
0000
,  // measure 11
0010
0000
0100
0000
0010
0000
1000
0001
,  // measure 12
0000
0001
1000
0000
0001
0000
0000
0000
,  // measure 13
1000
0010
1000
0000
0010
0000
0010
0010
,  // measure 14
0000
0000
1000
0000
0001
0000
0001
0001
,  // measure 15
0000
0000
0100
0000
0010
0000
0010
0010
,  // measure 16
0000
1000
0001
0000
,  // measure 17
1000
0001
1000
0000
0010
0100
0000
0010
,  // measure 18
0000
0100
0010
0000
0010
0000
0000
0000
,  // measure 19
1000
0001
1000
0000
1000
0000
0100
0010
,  // measure 20
0000
0010
0000
0001
0000
0001
0000
0000
,  // measure 21
0001
0010
0001
0000
1000
0100
1000
0000
,  // measure 22
0010
0100
0010
0000
0001
1000
0001
0000
,  // measure 23
0000
0000
1000
0001
0000
0001
1000
0000
,  // measure 24
0100
0010
0000
0010
0100
0000
0000
0000
,  // measure 25
1000
0001
1000
0100
,  // measure 26
0010
0000
0001
0000
,  // measure 27
1000
0000
0001
1000
0000
0001
0000
1000
,  // measure 28
0002
0000
1003
0100
,  // measure 29
0010
0000
1000
0010
1000
0000
0001
1000
,  // measure 30
0002
0000
2003
0000
3001
0000
0100
0010
,  // measure 31
0200
0000
0000
0302
0000
0000
0000
0000
,  // measure 32
2003
0000
0000
3001
0000
0000
1000
0000
,  // measure 33
0001
0000
0100
0000
0010
0000
0010
0100
,  // measure 34
0000
1000
0000
0100
0000
0000
0100
0000
,  // measure 35
1000
0000
0100
0000
0010
0000
0001
0100
,  // measure 36
0000
0001
0100
0001
0000
0000
1000
0010
,  // measure 37
2000
0000
3010
0000
0100
0000
0001
0100
,  // measure 38
0000
0010
0000
0001
0000
0000
0000
0000
,  // measure 39
1000
0001
1000
0200
0000
0320
0000
0031
,  // measure 40
0000
1000
0001
1000
0001
1000
0001
0000
,  // measure 41
0001
1000
0001
0000
0100
0000
0100
0010
,  // measure 42
0000
0010
1000
0000
0010
0000
0000
0000
,  // measure 43
1000
0100
1000
0000
0010
0000
0001
0100
,  // measure 44
0000
0001
0000
1000
0000
0001
2000
0000
,  // measure 45
3000
0000
0000
0000
;

//---------------dance-single - ----------------
#NOTES:
     dance-single:
     :
     Beginner:
     2:
     0.112,0.198,0.011,0.022,0.000:
0000
0000
0000
0000
,
0000
0000
0000
0000
,
0000
0000
0000
0000
,
0000
0000
0000
0000
,
1000
0000
1000
0000
,
1000
0000
1000
0000
,
0001
0000
0001
0000
,
0001
0000
0001
0000
,
2000
0000
3000
0000
,
0200
0000
0300
0000
,
0010
0010
0010
0000
,
0001
0001
0001
0000
,
1001
0000
1000
0000
,
1000
0000
0001
0000
,
0001
0000
0100
0000
,
0100
0000
0000
0000
,
1000
0000
1000
0000
,
0010
0000
0010
0000
,
0001
0000
0001
0000
,
1000
0000
1000
0000
,
1000
0000
0100
0000
,
0010
0000
0001
0000
,
0000
0000
1000
0000
,
1000
0000
0000
0000
,
0001
0000
0100
0000
,
0010
0000
1000
0000
,
1000
0000
0001
0000
,
0001
0000
0000
0000
,
0100
0000
0100
0000
,
0010
0000
0010
0000
,
1000
0000
0000
0000
,
0001
0000
0000
0000
,
1000
0000
1000
0000
,
0100
0000
0000
0000
,
0010
0000
0010
0000
,
0001
0000
0000
0000
,
1000
0000
1000
0000
,
0001
0000
0000
0000
,
0100
0000
0100
0000
,
0010
0000
0000
0000
,
1000
0000
0000
0000
,
0001
0000
0000
0000
,
0010
0000
0000
0000
,
1000
0000
0000
0000
,
0001
0000
0000
0000
;

//---------------dance-single - ----------------
#NOTES:
     dance-single:
     :
     Easy:
     4:
     0.202,0.247,0.011,0.124,0.000:
0000
0000
0000
0000
,
0000
0000
0000
0000
,
0000
0000
0000
0000
,
0000
0000
0000
0000
,
1000
0000
0001
0000
,
0001
0000
1000
0000
,
0010
0000
0010
0000
,
1000
0000
0001
0000
,
2000
0000
3001
0000
,
0002
0000
1003
0000
,
0010
0010
0100
0000
,
1000
1000
0001
0000
,
1001
0000
0001
0001
,
0001
0000
1000
1000
,
1000
0000
0100
0100
,
0100
0000
0002
0000
,
1003
0010
0010
0000
,
1000
0100
1000
0000
,
0001
0010
0001
1000
,
0001
1000
0001
0000
,
0200
0000
0320
0000
,
2030
0000
3002
0000
,
0003
1000
0000
1000
,
0010
0000
0000
0000
,
1000
1000
0010
0000
,
0001
0001
0010
0000
,
1000
1000
0100
0000
,
0001
0001
0100
0000
,
1000
0100
0001
0100
,
2000
3100
0001
0010
,
2000
0000
3002
0000
,
1003
0000
0000
1000
0000
0000
0000
0000
,
1000
0100
0010
0000
,
0001
0010
0100
0000
,
1000
0001
1000
0000
,
0100
0010
0100
0000
,
1000
0100
1000
0100
,
0010
0001
0001
0000
,
1000
0001
1000
0100
,
0010
0001
1000
1000
,
0001
0001
0100
0010
,
1000
0100
0010
0000
,
0001
0000
0010
0000
0100
0000
0000
1000
,
0000
0100
0000
0010
0000
0002
0000
0000
,
0000
0003
0000
0000
0000
0000
0000
0000
0000
0000
0000
0000
0000
0000
0000
0000
0000
0000
0000
0000
0000
0000
0000
0000
0000
0000
0000
0000
0000
0000
0000
0000
0000
0000
0000
0000
0000
0000
0000
0000
0000
0000
0000
0000
0000
0000
0000
0000
0000
0000
0000
0000
0000
0000
0000
0000
0000
0000
0000
0000
0000
0000
0000
0000
0000
0000
0000
0000
0000
0000
0000
0000
0000
0000
0000
0000
0000
0000
0000
0000
0000
0000
0000
0000
0000
0000
0000
0000
0000
0000
0000
0000
0000
0000
0000
0000
0000
0000
0000
0000
0000
0000
0000
0000
0000
0000
0000
0000
0000
0000
0000
0000
0000
0000
0000
0000
0000
0000
0000
0000
0000
0000
0000
0000
0000
0000
0000
0000
0000
0000
0000
0000
0000
0000
0000
0000
0000
0000
0000
0000
0000
0000
0000
0000
0000
0000
0000
0000
0000
0000
0000
0000
0000
0000
0000
0000
0000
0000
0000
0000
0000
0000
0000
0000
0000
0000
0000
0000
0000
0000
0000
0000
0000
0000
0000
0000
0000
0000
0000
0000
0000
0000
0000
0000
0000
0000
0000
0000
0000
0000
0000
0000
;
