#TITLE:aLIEz;
#SUBTITLE:アルドノア・ゼロ ED2;
#ARTIST:SawanoHiroyuki[nZk];
#TITLETRANSLIT:aLIEz;
#SUBTITLETRANSLIT:Aldnoah Zero ED2;
#ARTISTTRANSLIT:SawanoHiroyuki[nZk];
#GENRE:ALDNOAH POP;
#CREDIT:;
#BANNER:aLIEz.png;
#BACKGROUND:aLIEz-bg.png;
#LYRICSPATH:;
#CDTITLE:cdtitle.png;
#MUSIC:aLIEz.mp3;
#METERTYPE:DDR X;
#MENUCOLOR:0,0,1,1;
#OFFSET:4.266;
#SAMPLESTART:57.750;
#DISPLAYBPM:198;
#SAMPLELENGTH:12.000;
#SELECTABLE:YES;
#BPMS:0.000=49.500,4.000=198.000;
#STOPS:;
#BGCHANGES:;

//---------------dance-single - ----------------
#NOTES:
     dance-single:
     :
     Beginner:
     1:
     0.080,0.118,0.090,0.000,0.000: // measure 1
0000
0000
0000
0000
,  // measure 2
0000
0000
0000
0000
,  // measure 3
0000
0000
0000
0000
,  // measure 4
0000
0000
0000
0000
,  // measure 5
0000
0000
0000
0000
,  // measure 6
0000
0000
0000
0000
,  // measure 7
0000
0000
0000
0000
,  // measure 8
0000
0000
0000
0000
,  // measure 9
0000
0000
0000
0000
,  // measure 10
1000
0000
0000
0000
,  // measure 11
0000
0000
0000
0000
,  // measure 12
1000
0000
0000
0000
,  // measure 13
0000
0000
0000
0000
,  // measure 14
0010
0000
0000
0000
,  // measure 15
0000
0000
0000
0000
,  // measure 16
0010
0000
0000
0000
,  // measure 17
0000
0000
0000
0000
,  // measure 18
0100
0000
0000
0000
,  // measure 19
0000
0000
0000
0000
,  // measure 20
0100
0000
0000
0000
,  // measure 21
0000
0000
0000
0000
,  // measure 22
0001
0000
0000
0000
,  // measure 23
0001
0000
0000
0000
,  // measure 24
1000
0000
0000
0000
,  // measure 25
1000
0000
0000
0000
,  // measure 26
0001
0000
0000
0000
,  // measure 27
0000
0000
0000
0000
,  // measure 28
0001
0000
0000
0000
,  // measure 29
0000
0000
0000
0000
,  // measure 30
1000
0000
0000
0000
,  // measure 31
1000
0000
0000
0000
,  // measure 32
0100
0000
0000
0000
,  // measure 33
0100
0000
0000
0000
,  // measure 34
0010
0000
0000
0000
,  // measure 35
0001
0000
0000
0000
,  // measure 36
0001
0000
0000
0000
,  // measure 37
1000
0000
0000
0000
,  // measure 38
0001
0000
0000
0000
,  // measure 39
1000
0000
0000
0000
,  // measure 40
1000
0000
0000
0000
,  // measure 41
0001
0000
0000
0000
,  // measure 42
0100
0000
0000
0000
,  // measure 43
0100
0000
0000
0000
,  // measure 44
0010
0000
0000
0000
,  // measure 45
0010
0000
0000
0000
,  // measure 46
0100
0000
0000
0000
,  // measure 47
0100
0000
0000
0000
,  // measure 48
0100
0000
0000
0000
,  // measure 49
0000
0000
0000
0000
,  // measure 50
1001
0000
0000
0000
,  // measure 51
0000
0000
0000
0000
,  // measure 52
1001
0000
0000
0000
,  // measure 53
0000
0000
0000
0000
,  // measure 54
0110
0000
0000
0000
,  // measure 55
0000
0000
0000
0000
,  // measure 56
0110
0000
0000
0000
,  // measure 57
0000
0000
0000
0000
,  // measure 58
1001
0000
0000
0000
,  // measure 59
0000
0000
0000
0000
,  // measure 60
1001
0000
0000
0000
,  // measure 61
0000
0000
0000
0000
,  // measure 62
1001
0000
0000
0000
,  // measure 63
0000
0000
0000
0000
,  // measure 64
0110
0000
0000
0000
,  // measure 65
0000
0000
0000
0000
,  // measure 66
0110
0000
0000
0000
,  // measure 67
0000
0000
0000
0000
,  // measure 68
1000
0000
0000
0000
,  // measure 69
0000
0000
0000
0000
,  // measure 70
0001
0000
0000
0000
,  // measure 71
0000
0000
0000
0000
,  // measure 72
1000
0000
0000
0000
,  // measure 73
0000
0000
0000
0000
,  // measure 74
0010
0000
0000
0000
,  // measure 75
0000
0000
0000
0000
,  // measure 76
0100
0000
0000
0000
,  // measure 77
0000
0000
0000
0000
,  // measure 78
0010
0000
0000
0000
,  // measure 79
0000
0000
0000
0000
,  // measure 80
0100
0000
0000
0000
;

//---------------dance-single - ----------------
#NOTES:
     dance-single:
     :
     Easy:
     5:
     0.247,0.363,0.080,0.070,0.000: // measure 1
0000
0000
0000
0000
,  // measure 2
0000
0000
0000
0000
,  // measure 3
0000
0000
0000
0000
,  // measure 4
0000
0000
0000
0000
,  // measure 5
0000
0000
0000
0000
,  // measure 6
0000
0000
0000
0000
,  // measure 7
0000
0000
0000
0000
,  // measure 8
0000
0000
0000
0000
,  // measure 9
0000
0000
0000
0000
,  // measure 10
1000
0100
1000
0100
,  // measure 11
2000
0000
0000
0000
,  // measure 12
3001
0010
0001
0010
,  // measure 13
0002
0000
0000
0000
,  // measure 14
0103
0010
0100
0010
,  // measure 15
0200
0000
0000
0000
,  // measure 16
0310
0100
0010
0100
,  // measure 17
0020
0000
0000
0000
,  // measure 18
1030
0000
0000
1000
,  // measure 19
0100
1000
1000
0001
,  // measure 20
0000
0000
0000
0001
,  // measure 21
1000
0001
0100
0100
,  // measure 22
0000
0010
0010
0010
,  // measure 23
0000
0100
0100
0100
,  // measure 24
0001
1000
0001
1000
,  // measure 25
0001
0000
1000
0000
,  // measure 26
0000
0000
0000
0001
,  // measure 27
0001
1000
0001
1000
,  // measure 28
0000
0000
0010
0020
,  // measure 29
0000
0000
0130
0000
,  // measure 30
0000
0000
0100
0001
,  // measure 31
0100
0001
0001
1000
,  // measure 32
0001
1000
0010
0100
,  // measure 33
0010
0000
0010
0000
,  // measure 34
0100
0001
0100
0001
,  // measure 35
0000
0001
1000
0001
,  // measure 36
0000
1000
0001
1000
,  // measure 37
1000
0000
0000
0000
,  // measure 38
0001
1000
1000
0000
,  // measure 39
0001
0001
1000
0000
,  // measure 40
1000
0100
0010
0000
,  // measure 41
0100
0010
0001
0000
,  // measure 42
0001
0100
0001
0000
,  // measure 43
1000
0001
1000
0000
,  // measure 44
0001
0001
1000
0000
,  // measure 45
1000
1000
0001
0000
,  // measure 46
0200
0000
0310
0000
,  // measure 47
0020
0000
0130
0000
,  // measure 48
0001
0000
0000
0000
,  // measure 49
0000
1000
0000
0001
,  // measure 50
1001
0000
0000
0000
,  // measure 51
0000
1000
0000
0000
,  // measure 52
1001
0000
0000
0000
,  // measure 53
0000
0001
0000
0000
,  // measure 54
1001
0000
0000
0000
,  // measure 55
0000
0100
0000
0000
,  // measure 56
0110
0000
0000
0000
,  // measure 57
0010
0000
0010
0000
,  // measure 58
0110
0000
0000
0000
,  // measure 59
0000
0100
0000
0000
,  // measure 60
0110
0000
0000
0000
,  // measure 61
0000
0100
0000
0000
,  // measure 62
0110
0000
0000
0000
,  // measure 63
0000
0100
0000
0000
,  // measure 64
0010
0000
0100
0000
,  // measure 65
0001
0000
0001
0000
,  // measure 66
1000
0000
1001
0000
,  // measure 67
0001
0000
1000
0000
,  // measure 68
0001
0000
1000
0000
,  // measure 69
0010
0000
0100
0000
,  // measure 70
0100
0000
0001
0000
,  // measure 71
1000
0000
0001
0000
,  // measure 72
1000
0000
1000
0000
,  // measure 73
0001
0000
1000
0000
,  // measure 74
0010
0000
0010
0000
,  // measure 75
0100
0000
0100
0000
,  // measure 76
0001
0000
0001
0000
,  // measure 77
0010
0000
0010
0000
,  // measure 78
0001
0000
0001
0000
,  // measure 79
1000
0000
1000
0000
,  // measure 80
0100
0000
1000
0000
,  // measure 81
0001
1000
0001
1000
;

//---------------dance-single - ----------------
#NOTES:
     dance-single:
     :
     Medium:
     7:
     0.373,0.402,0.160,0.350,0.000: // measure 1
0000
0000
0000
0000
,  // measure 2
1001
0000
1000
0000
,  // measure 3
0002
0000
0003
0000
,  // measure 4
1000
0000
0100
0000
,  // measure 5
0020
0000
0030
0000
,  // measure 6
0001
0000
0100
0000
,  // measure 7
0020
0000
0030
0000
,  // measure 8
1000
0000
0001
0000
,  // measure 9
0200
0000
0300
0000
,  // measure 10
0100
0010
0100
0010
,  // measure 11
0200
0000
0000
0000
0000
0300
0000
0000
,  // measure 12
0001
0100
0001
0100
,  // measure 13
0002
0000
0000
0000
0000
0003
0000
0000
,  // measure 14
1000
0100
0010
0100
,  // measure 15
0020
0000
0030
0000
,  // measure 16
1000
0100
0010
0100
,  // measure 17
0002
0000
0003
0000
,  // measure 18
0100
0000
0000
1000
,  // measure 19
0100
0010
0100
0010
,  // measure 20
0000
0000
0000
0001
,  // measure 21
0100
0001
1000
0001
,  // measure 22
0000
0100
0100
0010
,  // measure 23
0000
1000
0100
0010
,  // measure 24
0001
0100
0100
0010
,  // measure 25
1000
1000
0020
0000
,  // measure 26
1030
0100
0010
0100
,  // measure 27
0010
0000
0000
0001
0000
0000
0000
0000
,  // measure 28
1000
0100
0010
0002
,  // measure 29
0000
1003
0001
0000
,  // measure 30
0000
0000
0100
0010
,  // measure 31
1000
0100
0010
0001
,  // measure 32
0100
0001
0100
0010
,  // measure 33
2000
0000
0000
3001
0000
0000
0000
0000
,  // measure 34
1000
0100
0010
0100
,  // measure 35
0000
0010
0100
1000
,  // measure 36
0100
0010
0100
0001
,  // measure 37
2000
0000
0000
3010
0000
0000
0000
0000
,  // measure 38
0001
0010
0100
0100
,  // measure 39
0010
0001
0100
0010
,  // measure 40
0100
1000
0100
0010
,  // measure 41
0100
0000
0000
0100
0000
0000
0000
0000
,  // measure 42
1000
0100
0001
0100
,  // measure 43
0000
0010
1000
0100
,  // measure 44
0010
0100
0001
0100
,  // measure 45
0002
0000
0000
0103
0000
0000
0000
0000
,  // measure 46
0100
0100
0010
0001
,  // measure 47
0000
0100
0010
1000
,  // measure 48
0002
0000
0000
0000
0000
0000
0000
1003
,  // measure 49
0000
0000
1000
0000
0000
1000
0000
0000
,  // measure 50
2002
0000
0000
3003
,  // measure 51
0000
0000
1000
0000
0000
0100
0000
0000
,  // measure 52
2002
0000
0000
3003
,  // measure 53
0000
0000
0100
0000
0000
0010
0000
0000
,  // measure 54
0220
0000
0000
0000
0000
0330
0000
0000
,  // measure 55
0000
0000
0001
0000
0000
0010
0000
0000
,  // measure 56
0001
0100
0001
0100
,  // measure 57
2000
0000
0000
3100
0000
0100
0000
0000
,  // measure 58
0202
0000
0000
0003
0000
0300
0101
0000
,  // measure 59
0000
0000
1000
0000
0000
0100
0000
0000
,  // measure 60
2020
0000
0000
0030
0000
3000
1010
0000
,  // measure 61
0000
0000
1000
0000
0000
0100
0000
0000
,  // measure 62
0220
0000
0000
0330
0000
0000
0110
0000
,  // measure 63
0000
0000
1000
0000
0000
0100
0000
0000
,  // measure 64
0010
0100
0010
0100
,  // measure 65
2000
0000
0000
3200
0000
0000
0310
0000
,  // measure 66
0000
0100
0110
0000
,  // measure 67
0100
0000
0020
0000
0000
0130
0000
0000
,  // measure 68
0000
0010
0110
0000
,  // measure 69
0010
0000
0200
0000
0000
0310
0000
0000
,  // measure 70
0000
0001
1001
0000
,  // measure 71
1000
0000
0002
0000
0000
1003
0001
0000
,  // measure 72
0010
1000
0100
0010
,  // measure 73
0001
0000
0000
0100
0000
0000
0000
0000
,  // measure 74
0000
1000
1001
0000
,  // measure 75
0001
0000
2000
0000
0000
3001
0000
0000
,  // measure 76
0000
1000
1100
0000
,  // measure 77
1000
0000
0200
0000
0000
1300
0000
0000
,  // measure 78
0000
0001
0011
0000
,  // measure 79
0001
0000
0020
0000
0000
0031
1000
0000
,  // measure 80
0100
0100
0010
0010
,  // measure 81
0001
0000
0000
0001
0000
0000
0000
0000
;

//---------------dance-single - ----------------
#NOTES:
     dance-single:
     :
     Hard:
     9:
     0.551,0.646,0.450,0.640,0.000: // measure 1
0000
0000
0000
0000
,  // measure 2
1001
1000
1000
0001
,  // measure 3
0002
0000
0000
1003
0000
0000
0000
0000
,  // measure 4
0010
0010
0100
0100
,  // measure 5
0020
0000
0000
0130
0000
0000
0000
0000
,  // measure 6
0100
0100
0010
0010
,  // measure 7
0200
0000
0000
0310
0000
0000
0000
0000
,  // measure 8
1000
0010
0100
0001
,  // measure 9
2000
0000
0000
3001
0000
0000
0000
0000
,  // measure 10
1001
0010
1100
0010
,  // measure 11
2000
0000
0000
3001
0100
0000
0000
0000
,  // measure 12
0001
0100
0011
0100
,  // measure 13
0002
0000
0000
1003
0010
0000
0000
0000
,  // measure 14
0100
0001
0110
0001
,  // measure 15
0200
0000
0000
0301
1000
0000
0000
0000
,  // measure 16
0010
1000
0110
1000
,  // measure 17
0020
1000
0000
1030
0001
0100
0010
0000
,  // measure 18
1001
0000
0000
0000
0000
0000
1000
0100
,  // measure 19
1000
0000
0001
0010
0001
0000
0100
0000
,  // measure 20
0000
0000
0000
0000
0000
0000
0100
0001
,  // measure 21
0100
0000
0010
1000
0010
0000
0100
0000
,  // measure 22
0000
0000
0001
1000
0001
0000
1000
0000
,  // measure 23
0010
0000
0100
0010
0100
0000
0001
0000
,  // measure 24
0020
0230
0320
2030
,  // measure 25
3010
0001
2000
0000
,  // measure 26
3001
0000
0100
0000
0001
0000
1000
0100
,  // measure 27
1000
0000
0001
0100
0001
0000
0100
0000
,  // measure 28
0000
0000
0110
2000
,  // measure 29
0000
3001
0220
0000
,  // measure 30
0330
0000
0101
0100
,  // measure 31
0010
0100
1010
0100
,  // measure 32
0010
0100
0101
0010
,  // measure 33
0200
0001
0000
0310
0000
0000
0000
0000
,  // measure 34
1001
0000
0100
0000
1001
0000
0001
0200
,  // measure 35
0000
0000
0310
0000
1000
0000
0001
0020
,  // measure 36
0000
0130
1001
0100
,  // measure 37
2000
0000
0000
3100
0010
0000
0000
0000
,  // measure 38
1001
0000
0010
0000
1001
0000
1000
0020
,  // measure 39
0000
0000
0130
0000
0001
0000
1000
0200
,  // measure 40
0000
0310
1001
0010
,  // measure 41
0002
0000
0000
0013
0100
0000
0000
0000
,  // measure 42
0110
0000
0001
0000
0110
0000
0010
2000
,  // measure 43
0000
0000
3100
0000
0001
0000
0100
2000
,  // measure 44
0000
3010
0110
1000
,  // measure 45
0020
0000
0000
0130
0001
0000
0000
0000
,  // measure 46
0110
0000
1000
0000
0110
0000
0100
0002
,  // measure 47
0000
0000
0013
0000
1000
0000
0010
0002
,  // measure 48
0000
0000
0000
0000
1000
0000
0000
1003
,  // measure 49
0000
0000
1000
0000
1000
0001
0000
0000
,  // measure 50
2002
0000
0000
3000
1003
0000
1001
0000
,  // measure 51
0000
0000
1000
0000
0100
0010
0000
0000
,  // measure 52
0220
0000
0000
0300
0130
0000
0110
0000
,  // measure 53
0000
0000
0100
0000
0010
0100
0000
0000
,  // measure 54
0220
0000
0000
0330
0110
0000
0001
0000
,  // measure 55
0000
0000
1000
0000
0001
0010
0000
0000
,  // measure 56
0100
1000
0101
0010
,  // measure 57
2000
0000
0000
3010
0000
0100
0010
0100
,  // measure 58
0220
0000
0000
0030
0310
0000
0110
0000
,  // measure 59
0000
0000
0100
0000
0010
0100
0000
0000
,  // measure 60
2002
0000
0000
0003
3001
0000
1001
0000
,  // measure 61
0000
0000
1000
0000
0001
1000
0000
0000
,  // measure 62
2002
0000
0000
3003
0110
0000
1001
0000
,  // measure 63
0000
0000
0100
0000
0001
1000
0000
0000
,  // measure 64
1000
0100
0010
0001
,  // measure 65
0100
0010
0100
0010
1000
0001
1000
0001
,  // measure 66
1001
0000
0010
0000
0220
0000
0000
0330
,  // measure 67
0001
0000
2000
0000
0000
3001
0000
0000
,  // measure 68
0000
0000
0001
0000
2002
0000
0000
3003
,  // measure 69
0100
0000
0020
0000
0000
0130
0000
0000
,  // measure 70
0000
0000
0100
0000
0220
0000
0000
0330
,  // measure 71
1000
0002
0000
2003
,  // measure 72
3200
0320
0230
0302
,  // measure 73
0103
0000
0000
0100
0000
0000
0000
0000
,  // measure 74
1001
0000
1000
0000
2002
0000
0000
3003
,  // measure 75
0010
0000
0200
0000
0000
0310
0000
0000
,  // measure 76
0000
0000
1000
0000
0022
0000
0000
0033
,  // measure 77
0100
0000
0002
0000
0000
0013
0000
0000
,  // measure 78
0000
0000
0001
0000
2200
0000
0000
3300
,  // measure 79
0010
0000
2000
0000
0000
3100
1000
0000
,  // measure 80
0001
0010
0100
0000
1000
0100
0010
0000
,  // measure 81
0001
0000
0000
1000
0000
0000
0010
0000
;

//---------------dance-single - ----------------
#NOTES:
     dance-single:
     :
     Challenge:
     12:
     0.745,0.687,0.959,0.290,0.005: // measure 1
0000
0000
0000
0000
,  // measure 2
1001
0000
0100
0010
0000
0000
0100
0000
,  // measure 3
0020
0000
0000
2030
0001
0000
0000
0000
,  // measure 4
3001
0100
0110
0001
,  // measure 5
0200
0000
0000
0302
1000
0000
0000
0000
,  // measure 6
1003
0001
0101
1000
,  // measure 7
0020
0000
0000
0230
0001
0000
0000
0000
,  // measure 8
0301
0100
0101
0010
,  // measure 9
0200
0010
0000
0320
1000
0000
1030
0000
,  // measure 10
0110
0100
0110
0001
,  // measure 11
0100
0200
0000
0310
2001
0000
3010
0000
,  // measure 12
0101
0100
0101
1000
,  // measure 13
0010
0020
0000
0130
1002
0000
0103
0000
,  // measure 14
0110
1000
0110
0001
,  // measure 15
0001
0002
0000
1003
0210
0000
0301
0000
,  // measure 16
0101
0100
0110
1000
,  // measure 17
0100
0010
1000
0000
0010
0010
0010
0010
,  // measure 18
0110
0000
0010
0000
0110
0000
0001
0100
,  // measure 19
0010
0000
0100
0001
0010
0000
0100
0000
,  // measure 20
0010
0000
1000
0000
0010
0000
0100
0010
,  // measure 21
0100
0000
1000
0100
0010
0000
0001
0000
,  // measure 22
0010
1100
0101
1100
,  // measure 23
0010
0000
1000
1000
0100
0000
0110
0000
,  // measure 24
1010
0110
0110
1001
,  // measure 25
0101
0110
0200
0310
,  // measure 26
0110
0000
1000
0000
0110
0000
0100
0100
,  // measure 27
0010
0000
1000
1000
0100
0000
1000
0000
,  // measure 28
0001
0001
0012
0203
,  // measure 29
0310
1000
2100
0100
,  // measure 30
3010
0100
0110
1001
,  // measure 31
0011
1100
1100
0100
,  // measure 32
0010
0100
0110
0001
,  // measure 33
0010
0100
0001
0000
0100
0000
0010
0010
,  // measure 34
0110
0000
1000
0000
1100
0000
0100
1000
,  // measure 35
0010
0000
0100
0000
0101
0000
0010
1000
,  // measure 36
0001
0010
0011
0100
,  // measure 37
0001
0000
2000
0001
0000
3001
0110
0000
,  // measure 38
0010
0000
0100
0000
0110
0000
0001
0100
,  // measure 39
0000
0100
0001
0000
0011
0000
1000
0001
,  // measure 40
0100
0001
1001
0100
,  // measure 41
0010
0000
0100
0010
0000
0010
0100
0000
,  // measure 42
0110
0000
0001
0000
0011
0000
0100
0001
,  // measure 43
0010
0000
0100
0000
1100
0000
0100
1000
,  // measure 44
0010
0100
0101
1000
,  // measure 45
0100
1000
0000
0100
0010
0000
1000
0000
,  // measure 46
0010
0000
0100
0000
1100
0000
1000
0001
,  // measure 47
0010
0000
0100
0000
0110
0000
1000
0010
,  // measure 48
0100
1000
0010
0000
0110
0000
0001
2000
,  // measure 49
0000
0000
0002
0000
3000
0200
0003
0310
,  // measure 50
0210
0000
0000
0310
0110
0000
0100
0100
,  // measure 51
0000
0010
0010
0000
0011
0100
0000
0010
,  // measure 52
0120
0000
0000
0130
0110
0000
0010
0010
,  // measure 53
0000
0100
0100
0000
1010
0100
0000
0010
,  // measure 54
1002
0000
0000
1003
1001
0000
1100
0000
,  // measure 55
0000
0000
2001
0000
3001
0001
0000
0001
,  // measure 56
0110
1010
0110
1100
,  // measure 57
0101
0000
0000
0110
0000
1010
1000
0001
,  // measure 58
2001
0000
0000
3001
1001
0000
0100
0100
,  // measure 59
0000
0001
0001
0000
0101
0010
0000
0100
,  // measure 60
2010
0000
0000
3100
0011
0000
1000
0010
,  // measure 61
0000
0100
0001
0000
1010
0100
0000
0010
,  // measure 62
0102
0000
0000
0013
1100
0000
0001
0100
,  // measure 63
0000
0010
1000
0000
0110
0001
0000
1000
,  // measure 64
0110
0000
1010
0000
0110
0000
1001
0100
,  // measure 65
0001
0100
0010
0001
0100
0100
0100
0010
,  // measure 66
1001
0000
0100
0000
0110
1000
0000
0100
,  // measure 67
0010
0100
0001
0000
0110
1000
0010
0000
,  // measure 68
1001
0000
0010
0000
0110
0001
0000
0010
,  // measure 69
0100
0010
1000
0000
0110
0001
0100
0000
,  // measure 70
0110
0000
0001
0000
1001
0100
0000
0001
,  // measure 71
1000
0001
0100
0000
1001
0010
1000
0000
,  // measure 72
0001
0001
0100
0000
0010
0010
1000
0000
,  // measure 73
1000
0100
0010
0001
1000
1000
1000
1000
,  // measure 74
0110
0000
1000
0000
1001
0010
0000
1000
,  // measure 75
0001
1000
0010
0000
1001
0100
0001
0010
,  // measure 76
0001
0000
0010
0000
1100
0001
0000
0001
,  // measure 77
0100
0010
1000
0000
0100
0001
0100
0010
,  // measure 78
1000
0000
0100
0000
0011
1000
0000
1000
,  // measure 79
0010
0100
0001
0000
0010
1000
0010
0100
,  // measure 80
0001
0000
0100
0000
0010
1000
0001
0000
0100
0000
0100
0000
0001
0000
0001
0000
,  // measure 81
0100
0100
0100
0100
0010
0010
0010
0010
;
