#TITLE:X-encounter;
#SUBTITLE:東京レイヴンズ OP;
#ARTIST:黒崎 真音;
#TITLETRANSLIT:X-encounter;
#SUBTITLETRANSLIT:Tokyo Ravens OP;
#ARTISTTRANSLIT:Maon Kurosaki;
#GENRE:RAVENS POP;
#CREDIT:;
#BANNER:X-encounter.png;
#BACKGROUND:X-encounter-bg.png;
#LYRICSPATH:;
#CDTITLE:cdtitle.png;
#MUSIC:X-encounter.mp3;
#MENUCOLOR:0,0,1,1;
#METERTYPE:DDR X;
#OFFSET:-0.720;
#SAMPLESTART:59.671;
#SAMPLELENGTH:12.000;
#SELECTABLE:YES;
#BPMS:0.000=138.010;
#STOPS:;
#BGCHANGES:;

//---------------dance-single - ----------------
#NOTES:
     dance-single:
     :
     Hard:
     15:
     0.814,0.706,0.344,0.344,0.827: // measure 1
0000
0000
0000
0000
,  // measure 2
0000
0000
0000
0000
,  // measure 3
1001
0000
1000
0001
0000
0001
0100
0000
0010
0000
0000
1000
0001
0000
0100
0000
,  // measure 4
0011
0000
0001
0000
0100
1000
0000
0100
0010
0000
0001
0000
0001
0100
0001
0100
,  // measure 5
0001
0000
1000
0100
0000
0100
1000
0000
0001
0000
0000
0010
0001
0000
0100
0000
,  // measure 6
1010
0000
1000
0000
1001
0000
0001
0100
1000
0000
0100
0000
0001
0100
0010
0100
,  // measure 7
1000
0000
1000
0100
0000
0100
0010
0000
0001
0000
0100
0001
0000
0010
0001
0000
,  // measure 8
1001
0000
0001
0000
1000
0100
0000
0010
0001
0000
0000
0001
1000
0000
0010
1000
,  // measure 9
0010
0000
1000
0010
0000
0100
0001
0000
0100
0000
0000
0010
0100
0000
0001
0000
,  // measure 10
1000
0000
0100
0000
0010
0000
0001
0000
0001
0010
0100
1000
0100
1000
0001
0100
,  // measure 11
0001
0000
1000
0001
0010
0000
1000
0000
0010
0000
0001
0000
0100
0001
1000
0000
,  // measure 12
0100
0000
1000
0100
0001
0000
0100
0000
1000
0000
0001
0000
0100
0010
0001
0000
,  // measure 13
0010
0000
0010
0100
1000
0000
0100
0000
0010
0000
1000
0000
1000
0001
0100
0000
,  // measure 14
0100
0000
0010
1000
0010
0000
0010
0000
1000
0000
0001
0000
1000
0010
1000
0010
,  // measure 15
1000
0000
0001
1000
0000
1000
0100
0000
0100
0010
0000
0010
0001
0000
1000
0000
,  // measure 16
1001
0000
0001
0010
0000
0010
0100
0000
0100
1000
0000
1000
0001
0000
1000
0000
,  // measure 17
0101
0000
0001
0100
0000
0100
0010
0000
0010
1000
0000
1000
0010
0000
1000
0000
,  // measure 18
1100
1000
0010
0110
0100
0001
1001
1100
,  // measure 19
0001
0000
0100
0010
0000
0100
0010
0000
1000
0001
1000
0001
0000
0000
1000
0000
,  // measure 20
0101
0000
0001
0100
0000
0001
0100
0000
0010
1000
0000
0010
1000
0000
1010
0000
,  // measure 21
1000
0000
0100
0010
0000
0001
1000
0000
0001
0100
0000
0010
1000
0000
0100
0000
,  // measure 22
1000
0000
1100
0000
0010
0000
0011
0000
1000
0100
1000
0100
0010
0001
0010
0001
,  // measure 23
1000
0001
0100
0020
1000
2030
0001
3002
,  // measure 24
1000
0103
0010
2000
0001
3001
0100
0110
,  // measure 25
0000
0001
1000
2000
0100
3200
0010
0310
,  // measure 26
1001
0000
0001
2000
0001
0000
3001
0000
0101
0000
0001
0000
1000
0100
0010
0001
,  // measure 27
0100
0010
1000
0001
0000
1000
0001
1000
0000
0010
0200
0000
0000
0000
0000
0000
,  // measure 28
1300
0100
0000
0100
0001
0100
0001
0000
0000
0000
2000
0000
0000
0000
3100
0000
,  // measure 29
0010
0100
0000
1000
0001
1000
0002
0000
0000
0000
1003
0000
1100
0000
0000
0000
,  // measure 30
1000
0100
0000
1000
0100
1000
0100
0000
0000
0000
0020
0000
0000
0032
0000
0000
,  // measure 31
1003
0000
1000
0001
0000
0100
1000
0000
0000
0000
2000
0000
3100
0010
0000
1000
,  // measure 32
0002
0000
0013
0100
0000
0100
0001
0000
0000
0000
2000
0000
0000
3020
0000
0000
,  // measure 33
0032
0000
0003
1000
0000
0000
0001
0000
1000
0000
0000
0000
1000
0000
0001
0000
,  // measure 34
0011
0000
0010
0000
1100
0000
1000
0000
0001
0010
0100
1000
0100
0001
0100
1000
,  // measure 35
0100
0010
0000
0001
0100
0000
1000
0100
0001
0200
1000
0000
1300
0000
0000
0000
,  // measure 36
1000
0100
0000
0100
0001
0000
1001
0000
0000
0000
1000
0000
0100
0000
0010
0000
,  // measure 37
0001
0010
0001
0010
0000
0010
0002
0000
2003
0000
3001
0000
1001
0000
0000
0000
,  // measure 38
0100
0001
0000
0100
0001
0010
0002
0000
1000
0000
0100
0000
0000
1000
0003
0000
,  // measure 39
1000
0100
0000
0100
0010
0100
0020
0000
0000
0000
0001
0000
0000
1030
0000
0001
,  // measure 40
0100
0000
0010
0100
0010
0001
1000
0000
0000
0000
0011
0000
1000
0001
0000
1000
,  // measure 41
0100
0000
0010
0001
1000
0001
0200
0000
0000
0000
0301
0000
0000
0000
1000
0000
,  // measure 42
0001
0000
1000
0000
0001
0000
1000
0000
0001
1000
0001
0100
0001
0010
0001
1000
,  // measure 43
0100
0000
0000
0000
2000
0000
0000
0000
3001
0000
1000
0100
0000
0010
0001
1000
,  // measure 44
0001
0000
1000
0100
0000
0010
2000
0000
0000
0000
3020
0000
0000
0000
0031
0000
,  // measure 45
2000
0000
3001
0000
1001
0000
0000
0000
0002
0000
0000
0103
0000
0100
0010
0000
,  // measure 46
0110
0000
0000
1010
0000
0000
0011
0000
1001
0000
0000
1001
0000
0000
1000
0100
,  // measure 47
1000
0000
0000
0101
0000
0010
1000
0010
1000
0000
0000
0001
0000
1000
0001
0000
,  // measure 48
2000
0000
0000
3002
0000
0000
0103
0000
0000
0000
0001
0000
1000
0000
0100
0000
,  // measure 49
0010
0000
1000
0001
0010
0000
0100
0000
0010
0000
0001
0000
0100
0000
0010
0000
,  // measure 50
1000
0010
0000
0010
0001
0000
0010
1000
0000
0100
0010
1000
0001
0000
0100
0010
,  // measure 51
0002
0000
0000
1000
0000
0000
0100
0000
1003
0000
1000
0100
0000
0010
0001
0000
;

//---------------dance-single - ----------------
#NOTES:
     dance-single:
     :
     Medium:
     12:
     0.670,0.622,0.144,0.444,0.594: // measure 1
0000
0000
0000
0000
,  // measure 2
0000
0000
0000
0000
,  // measure 3
1001
0000
0002
0000
0000
1003
0010
0000
2000
0000
0000
3001
1000
0000
0001
0000
,  // measure 4
1000
0000
0020
0000
0000
1030
0000
0010
0100
0000
0001
0010
0000
0010
0100
0000
,  // measure 5
1000
0000
0001
0000
0000
0010
0001
0000
1000
0000
0000
0100
1000
0000
1000
0000
,  // measure 6
0001
0000
0000
1000
0001
0000
1000
0000
0001
0000
1000
0000
1000
0000
0001
0000
,  // measure 7
0001
0000
1000
0000
0000
0010
0100
0000
0001
0000
1000
0010
0000
0000
0100
0000
,  // measure 8
0010
0000
1000
0000
0001
1000
0000
0000
0100
0000
0000
1000
0001
0000
0100
0001
,  // measure 9
1000
0000
0001
0000
0000
0010
0001
0000
1000
0000
0000
0100
0010
0000
0001
0000
,  // measure 10
1000
0000
0001
0000
0100
0000
0010
0000
1000
0100
0010
0000
0010
0001
1000
0000
,  // measure 11
1000
0000
0000
1000
0100
0000
0010
0000
0100
0000
1000
0000
0010
1000
0000
0000
,  // measure 12
0100
0000
0000
0010
0001
0000
0100
0000
0001
0000
0010
0000
0100
0001
0000
0000
,  // measure 13
0100
0000
0000
0010
0100
0000
1000
0000
0001
0000
1000
0000
1000
0100
0000
0000
,  // measure 14
0010
0000
0000
0001
0100
0000
0100
0000
0010
0000
1000
0000
0001
0000
0100
0000
,  // measure 15
0001
0000
1000
0000
0000
0001
0010
0000
0010
0000
0000
0100
1000
0000
0001
0000
,  // measure 16
1000
0000
1000
0000
0000
0100
0010
0000
0001
0000
0000
1000
0100
0000
1000
0000
,  // measure 17
0001
0000
0100
0000
0000
0010
0100
0000
0001
0000
0000
1000
0100
0000
0010
0000
,  // measure 18
0002
1000
1003
0020
0100
0130
0001
1000
,  // measure 19
0000
0000
0100
0000
0000
0010
0100
0000
1000
0000
0001
1000
0000
0000
0100
0000
,  // measure 20
0010
0000
0001
0000
0000
1000
0100
0000
0010
0000
0000
0001
1000
0000
0100
0000
,  // measure 21
0010
0000
1000
0000
0000
0010
0001
0000
0010
0000
0000
0100
1000
0000
0100
0000
,  // measure 22
1000
0000
0100
0000
0010
0000
0001
0000
0010
0001
0010
0000
0100
1000
0100
0000
,  // measure 23
1000
0001
0010
0200
0000
2300
0000
3002
,  // measure 24
0000
1003
0100
0002
0000
1003
0010
0110
,  // measure 25
0000
1000
0001
0002
0000
0023
0100
0130
,  // measure 26
1001
0000
1000
0001
0000
0000
1000
0000
1010
0000
0000
0000
0001
1000
0001
0000
,  // measure 27
0010
0001
2000
0000
0000
3000
0001
0000
0000
0100
0020
0000
0000
0000
0000
0000
,  // measure 28
0031
0010
0000
0010
0000
0010
1000
0000
0000
0000
0002
0000
0000
0000
0013
0000
,  // measure 29
0100
0010
0000
0001
0000
0001
2000
0000
0000
0000
3001
0000
1001
0000
0000
0000
,  // measure 30
0001
0010
0000
0001
0000
0001
0010
0000
0000
0000
0200
0000
0000
2300
0000
0000
,  // measure 31
3001
0000
0000
1000
0000
0010
0001
0000
0000
0000
0002
0000
0013
0100
0000
0001
,  // measure 32
2000
0000
0000
3010
0000
0000
0001
0000
0000
0000
0002
0000
0000
0023
0000
0000
,  // measure 33
2030
0000
3000
0001
0000
0000
1000
0000
0001
0000
0000
0000
0001
0000
1000
0000
,  // measure 34
1100
0000
0000
0100
0000
0000
1000
0000
0010
0100
0010
0000
1000
0001
1000
0000
,  // measure 35
0010
1000
0000
1000
0000
0000
0001
1000
0001
0000
2002
0000
3003
0000
0000
0000
,  // measure 36
0001
0000
0000
1000
0010
0000
1001
0000
0000
0000
0001
0000
0010
0000
0100
0000
,  // measure 37
1000
0100
0000
0100
0000
0100
2000
0000
0000
0000
3001
0000
1001
0000
0000
0000
,  // measure 38
0001
1000
0000
0001
0000
1000
0001
0000
0000
0000
0010
0000
0000
0001
0000
0000
,  // measure 39
0001
0010
0000
0010
0000
0010
0200
0000
0000
0000
1000
0000
0000
1300
0000
0000
,  // measure 40
1000
0000
0100
0010
0000
0001
1000
0000
0000
0000
0011
0000
0000
1000
0000
0001
,  // measure 41
0010
0000
0100
1000
0000
1000
0020
0000
0000
0000
1030
0000
0000
0000
0001
0000
,  // measure 42
2000
0000
0000
0001
0000
0000
3001
0000
1000
0001
1000
0000
1000
0100
1000
0000
,  // measure 43
0010
0000
0000
0000
2000
0000
0000
0000
3001
0000
0000
0010
0000
0100
1000
0000
,  // measure 44
1000
0000
0001
0010
0000
0000
0002
0000
0000
0000
0203
0000
0000
0000
0301
0000
,  // measure 45
2000
0000
0001
0000
3001
0000
0000
0000
2000
0000
0000
3010
0000
0010
0100
0000
,  // measure 46
0120
0000
0000
2030
0000
0000
3001
0000
0102
0000
0000
0203
0000
0000
0301
0000
,  // measure 47
1000
0000
0000
0101
0000
0000
0100
0000
0001
1000
0000
1000
0000
0001
1000
0000
,  // measure 48
0002
0000
0000
2003
0000
0000
3010
0000
0000
0000
1000
0000
0001
0000
0010
0000
,  // measure 49
0100
0000
0000
1000
0100
0000
0010
0000
0100
0000
1000
0000
0000
0000
0100
0000
,  // measure 50
0001
0100
0000
0100
1000
0000
0001
1000
0000
0001
0100
0000
0001
0000
1000
0000
,  // measure 51
2000
0000
0000
0001
0000
0000
0001
0000
3001
0000
0001
0010
0000
0100
1000
0000
;

//---------------dance-single - ----------------
#NOTES:
     dance-single:
     :
     Beginner:
     4:
     0.173,0.222,0.022,0.044,0.000:
0000
0000
0000
0000
,
0000
0000
0000
0000
,
1001
0000
0001
0000
,
0001
0000
1000
0000
,
0100
0000
0100
0000
,
0010
0000
0010
0000
,
0001
0000
0001
0000
,
1000
0000
1000
0000
,
0100
0000
0010
0000
,
0001
0000
0001
0000
,
0001
0000
0000
0000
,
1000
0000
0000
0000
,
0100
0000
0000
0000
,
0010
0000
0000
0000
,
0001
0000
0001
0000
,
1000
0000
1000
0000
,
0010
0000
0010
0000
,
0100
0000
0100
0000
,
0001
0000
0001
0000
,
1000
0000
1000
0000
,
0100
0000
0100
0000
,
0010
0000
0010
0000
,
0001
0000
1000
0000
,
1000
0000
0001
0000
,
1000
0000
0001
0000
,
1000
0000
0000
0000
,
0010
0010
0010
0010
,
0100
0100
0100
0000
,
0001
0001
0001
0001
,
1000
1000
1000
0000
,
0002
0000
0000
0000
,
2003
0000
0000
0000
,
3000
0000
0001
0000
,
0100
0100
0100
0100
,
0010
0010
1000
0000
,
0001
0001
0001
0000
,
1000
1000
1000
0001
,
1000
0000
0001
0000
,
0100
0100
0100
0000
,
0010
0010
0010
0000
,
0001
0000
1000
0000
,
1000
1000
1000
1000
,
1000
0000
0001
0000
,
0001
0000
0001
0000
,
0100
0000
0010
0000
,
0010
0000
1000
0000
,
2000
0000
0000
0000
,
3002
0000
0000
0000
,
0003
0000
1000
0000
,
0010
0010
0100
0000
,
1001
0000
0000
0000
;

//---------------dance-single - ----------------
#NOTES:
     dance-single:
     :
     Easy:
     8:
     0.493,0.509,0.011,0.433,0.328: // measure 1
0000
0000
0000
0000
,  // measure 2
0000
0000
0000
0000
,  // measure 3
1000
0000
0100
0000
0000
0010
0000
0000
0001
0000
0000
1000
0000
0000
0000
0000
,  // measure 4
0010
0000
1000
0000
0000
1000
0000
0000
0100
0000
0000
0010
0000
0000
0001
0000
,  // measure 5
1000
0000
0010
0000
0000
0010
0000
0000
1000
0000
0000
0100
0000
0000
1000
0000
,  // measure 6
0001
0000
1000
0001
0000
0001
1000
0001
,  // measure 7
1000
0000
0001
0000
0000
0100
0000
0000
0001
0000
1000
0000
0000
0000
0000
0000
,  // measure 8
0010
0000
1000
0000
0000
0100
0000
0000
1000
0000
0000
0001
0000
0000
0010
0000
,  // measure 9
0001
0000
0100
0000
0000
0010
0000
0000
1000
0000
0000
0001
0000
0000
0100
0000
,  // measure 10
0001
1000
0010
0100
0000
0010
0100
0001
,  // measure 11
1000
0000
0100
0010
0100
1000
0000
0010
,  // measure 12
0000
1000
0001
0100
0000
0010
0100
0001
,  // measure 13
0100
0000
0001
1000
0001
1000
0000
1000
,  // measure 14
0010
0000
0100
0100
0010
1000
0001
0100
,  // measure 15
0000
0000
1000
0000
0000
0001
0000
0000
0010
0000
0000
0100
0000
0000
1000
0000
,  // measure 16
0001
0000
0100
0000
0000
0100
0000
0000
0001
0000
0000
1000
0000
0000
1000
0000
,  // measure 17
0001
0000
0100
0000
0000
0010
0000
0000
1000
0000
0000
0001
0000
0000
0100
0000
,  // measure 18
0002
0000
1003
0020
0000
1030
0001
1000
,  // measure 19
0000
0000
0100
0000
0000
0010
0000
0000
0001
0000
0100
0000
0000
0000
0100
0000
,  // measure 20
0001
0000
1000
0000
0000
1000
0000
0000
0010
0000
0000
1000
0000
0000
0001
0000
,  // measure 21
0010
0000
1000
0000
0000
0010
0000
0000
0001
0000
0000
0100
0000
0000
0001
0000
,  // measure 22
0100
1000
0001
1000
0000
0010
0100
0010
,  // measure 23
1000
0001
0010
0200
0000
2300
0000
3002
,  // measure 24
0000
1003
0100
2000
0000
3001
0010
0100
,  // measure 25
0000
0001
1000
0002
0000
0023
0000
0130
,  // measure 26
1000
0000
0000
0010
0000
0000
1000
0000
0001
0000
0000
0000
0001
0000
0100
0000
,  // measure 27
0010
2000
0000
3001
0000
0200
0000
0000
,  // measure 28
0301
0000
0000
1000
0000
0000
0100
0000
0000
0000
2000
0000
0000
0000
3001
0000
,  // measure 29
0200
0000
0000
0301
0000
0000
2000
0000
0000
0000
3001
0000
1000
0000
0000
0000
,  // measure 30
0010
0000
0000
1000
0000
0000
0010
0000
0000
0000
0020
0000
0000
2030
0000
0000
,  // measure 31
3100
0000
0000
1000
0000
0010
0000
0000
0000
0000
0020
0000
0000
0130
0000
0000
,  // measure 32
0002
0000
0000
1003
0000
0000
1000
0000
0000
0000
0002
0000
0000
0023
0000
0000
,  // measure 33
2030
0000
3000
0010
0000
0000
0001
0000
1000
0000
0000
0000
0001
0000
1000
0000
,  // measure 34
0001
0000
0000
0100
0000
0000
0001
0000
0200
0000
0000
0000
2300
0000
0000
0000
,  // measure 35
3010
0000
0000
1000
0000
0000
0001
0000
1000
0000
0001
0000
0000
0000
0000
0000
,  // measure 36
0001
0000
0000
1000
0000
0000
1001
0000
0000
0000
0001
0000
0000
0000
1000
0000
,  // measure 37
0001
0000
0000
0100
0000
0000
0020
0000
0000
0000
1030
0000
0100
0000
0000
0000
,  // measure 38
1000
0000
0000
0100
0000
0000
0010
0000
0000
0000
0001
0000
0000
1000
0000
0000
,  // measure 39
0001
0000
0000
0010
0000
0000
0100
0000
0000
0000
1000
0000
0000
1000
0000
0000
,  // measure 40
1000
0000
0000
0010
0000
0000
1000
0000
0000
0000
0001
0000
0000
0100
0000
0000
,  // measure 41
0001
0000
0000
1000
0000
0000
0020
0000
0000
0000
0130
0000
0000
0000
0001
0000
,  // measure 42
0100
0000
0000
0001
0000
0000
0001
0000
0001
0000
0000
0010
0000
0000
1000
0000
,  // measure 43
0001
0000
0000
0000
0200
0000
0000
0000
0301
0000
0000
0001
0000
0000
1000
0000
,  // measure 44
0100
0000
0000
0010
0000
0000
0002
0000
0000
0000
0203
0000
0000
0000
0301
0000
,  // measure 45
2000
0000
0000
0000
3001
0000
0000
0000
2000
0000
0000
3010
0000
0000
0100
0000
,  // measure 46
0020
0000
0000
2030
0000
0000
3001
0000
0002
0000
0000
0203
0000
0000
0301
0000
,  // measure 47
1000
0000
0000
0001
0000
0000
0100
0000
0001
0000
0000
1000
0000
0000
1000
0000
,  // measure 48
0002
0000
0000
2003
0000
0000
3010
0000
0000
0000
1000
0000
0001
0000
0000
0000
,  // measure 49
0100
0000
0000
0001
0000
0000
0010
0000
0000
0000
0001
0000
0000
0000
0100
0000
,  // measure 50
0001
0000
0000
0100
0000
0000
0001
0000
0000
0100
0000
0000
1000
0000
0000
0000
,  // measure 51
2000
0000
0000
3200
0000
0000
0301
0000
0020
0000
0000
2030
0000
0000
3001
0000
;

//---------------dance-single - [LEGGENDARIA]----------------
#NOTES:
     dance-single:
     [LEGGENDARIA]:
     Challenge:
     17:
     0.993,0.904,0.866,0.422,1.000: // measure 1
0000
0000
0000
0000
,  // measure 2
0000
0000
0000
0000
,  // measure 3
0011
0000
1000
0100
0000
0001
0100
0000
0010
0000
0000
0001
1000
0000
1100
0000
,  // measure 4
0011
0000
0000
0000
0000
0000
0001
0000
0000
1000
0000
0000
0000
0000
0000
1000
0000
0000
0100
0000
0000
0010
0000
0000
0001
0000
0000
0000
0000
0000
0001
0000
0000
0000
0000
0000
0001
0000
0100
0000
0001
0000
0100
0000
0001
0000
0100
0000
,  // measure 5
0001
0000
1000
0100
0000
0100
1000
0000
0001
0000
0000
0010
0001
0010
0001
0000
,  // measure 6
1020
0000
0000
0130
0000
0000
1001
0000
0000
0102
0000
0000
0013
0000
0000
0100
0000
0000
1000
0010
1000
0010
1000
0010
,  // measure 7
1000
0000
1000
0100
0000
0100
0010
0000
0001
0001
0100
0001
0001
0000
0001
0000
,  // measure 8
1001
0000
0000
0000
0000
0000
0001
0000
0000
1000
0000
0000
0000
0000
0000
0100
0000
0000
0010
0000
0000
0001
0000
0000
1000
0000
0000
0000
0000
0000
0000
0000
0000
1000
0000
0000
0001
0000
0100
0000
0001
0000
0100
0000
0001
0000
0100
0000
,  // measure 9
0001
0000
1000
0010
0000
0100
0001
0000
0100
0000
0000
0010
0100
0000
0001
0000
,  // measure 10
1001
0000
0000
0000
0000
0000
0101
0000
0000
0000
0000
0000
1010
0000
0000
0000
0000
0000
0011
0000
0000
0000
0000
0000
0001
0000
0000
0010
0000
0000
0100
0000
0000
1000
0000
0000
0100
0000
0010
0000
0100
0000
0010
0000
0100
0000
0010
0000
,  // measure 11
0100
0000
0001
1000
0010
0000
1000
0000
0010
0000
0001
0000
0100
0001
1000
0000
,  // measure 12
0100
0000
1000
0100
0001
0000
0100
0000
1000
0000
0001
0000
0100
0010
0001
0010
,  // measure 13
0100
0000
0010
0100
1000
0000
0100
0000
0010
0000
1000
0001
1000
0001
0100
0000
,  // measure 14
0100
0000
0010
1000
0010
0000
1010
0000
1001
0000
0101
0000
1000
1000
0100
0100
,  // measure 15
0010
0000
1001
0100
0000
0110
0001
0000
1100
0010
0000
0011
0100
0000
1100
0000
,  // measure 16
0011
0000
1001
0010
0000
0110
1000
0000
1010
0100
0000
0101
0010
0000
1000
0000
,  // measure 17
0101
0000
0110
1000
0000
0110
0001
0000
1100
1000
0000
0011
0001
0000
1000
0000
,  // measure 18
1200
1000
0310
0120
0100
0031
1001
1100
,  // measure 19
0001
0000
0100
0010
0000
0100
0010
0000
1000
0001
1000
0001
0000
0000
1000
0000
,  // measure 20
0101
0000
0001
0100
0000
0001
0100
0000
0010
1000
0000
0010
1000
0000
1010
0000
,  // measure 21
1000
0000
0100
0010
0000
0001
1000
0000
0001
0100
0001
0010
1000
0000
0010
0000
,  // measure 22
1001
0000
1001
0000
0110
0000
0110
0000
1000
1000
0100
0100
0010
0010
0001
0001
,  // measure 23
1000
0000
0001
1000
0100
0000
1020
0000
1030
0000
2001
0000
3001
0000
1002
0000
,  // measure 24
1000
0000
0103
0000
0010
1000
2000
0000
0001
0000
3001
0000
0100
0000
0110
0000
,  // measure 25
0000
0001
1000
2000
0100
3200
0010
0310
,  // measure 26
1001
0000
0001
2000
0001
0000
3001
0000
0101
0000
0001
0000
1000
1000
0001
0001
,  // measure 27
0100
0010
1000
0001
1000
1000
0001
1000
0000
1010
0200
0000
0000
0000
0000
0300
,  // measure 28
0011
0100
0010
0100
0001
0100
0001
0000
0000
0000
2100
0001
0000
3001
0100
0000
,  // measure 29
0010
0100
0001
1000
0001
0000
1010
0002
0000
0000
1003
0000
1100
0001
0000
0000
,  // measure 30
1000
0100
0100
1000
1000
0001
0001
0000
0000
0000
0020
0001
0000
0032
1000
0000
,  // measure 31
1003
0001
1000
0001
0010
0100
1000
0000
0000
0001
2000
0000
3100
0010
0000
1000
,  // measure 32
0002
0000
0013
0100
0000
0100
0001
0000
0000
0000
2000
0000
0010
3020
0000
0001
,  // measure 33
0032
0000
0003
0010
0100
1000
0001
1000
0001
0000
0000
0000
1000
0000
0001
0000
,  // measure 34
0011
0000
0011
0000
1001
0000
1010
0000
0001
0010
0100
1000
0100
0100
1000
1000
,  // measure 35
0101
0010
0000
1010
0100
0000
1000
0100
0001
0200
1000
0000
1300
0101
0000
0000
,  // measure 36
1001
0010
0000
0100
0001
0100
0001
0010
0000
0000
2010
0000
3100
0000
0210
0000
,  // measure 37
0301
0010
0001
0010
0000
0010
0002
0000
2003
0000
3001
0000
1001
0100
0000
0000
,  // measure 38
0110
0001
0000
0100
0001
0010
0002
0000
1000
0000
0100
0000
0000
1000
0003
0000
,  // measure 39
1001
0100
0000
0100
0010
0100
0020
0000
0000
0000
1000
0000
0000
0001
0000
1030
,  // measure 40
0001
0000
0010
0100
0010
1000
0001
0000
0000
0000
0011
0000
1000
0001
0000
1000
,  // measure 41
0100
0000
0010
0001
1000
0001
0200
0000
0001
0000
0301
0000
0000
0000
1000
0000
,  // measure 42
1001
0000
0101
0000
0110
0000
1100
0000
0001
1000
0001
0100
0001
0001
1000
1000
,  // measure 43
0100
0000
0000
0000
2001
0000
0000
0000
3001
1000
0001
0001
0000
0010
0001
1000
,  // measure 44
0001
0000
1000
0100
0000
0010
2000
0000
0001
0000
3020
0000
0100
0000
0031
0000
,  // measure 45
2000
0001
3001
0000
1001
0000
0000
0000
1002
0100
0000
0103
0000
0100
0010
0000
,  // measure 46
0100
0010
0000
0010
1000
0100
0001
0000
0001
0100
0000
1000
0001
1000
0100
1000
,  // measure 47
0001
1000
0000
0101
0000
0010
1000
0010
1000
0000
0010
1001
0000
1000
0001
0000
,  // measure 48
2000
0000
0000
3002
0100
0100
0103
0000
0000
0000
0001
0000
1000
0000
0100
0000
,  // measure 49
1010
0000
1000
0001
0010
0000
0101
0000
0010
1000
0001
0000
0110
0000
1001
0000
,  // measure 50
1000
0100
0000
0010
0001
0000
0010
1000
0001
0100
0100
0010
0010
1000
1000
0001
,  // measure 51
0002
0000
1000
1000
0000
0100
0100
0000
2003
0000
0001
0001
0000
3010
0110
0000
;
