#TITLE:Take Your Way;
#SUBTITLE:デビルサバイバー2 THE ANIMATION OP;
#ARTIST:livetune adding Fukase (from SEKAI NO OWARI);
#TITLETRANSLIT:Take Your Way;
#SUBTITLETRANSLIT:Devil Survivor 2 The Animation OP;
#ARTISTTRANSLIT:livetune adding Fukase (from SEKAI NO OWARI);
#GENRE:SURVIVOR TRANCE;
#CREDIT:;
#BANNER:Take Your Way.png;
#BACKGROUND:Take Your Way-bg.png;
#LYRICSPATH:;
#CDTITLE:cdtitle.png;
#MUSIC:Take Your Way.mp3;
#METERTYPE:DDR X;
#MENUCOLOR:0,0,1,1;
#OFFSET:-0.033;
#SAMPLESTART:50.192;
#SAMPLELENGTH:12.000;
#SELECTABLE:YES;
#BPMS:0.000=134.000;
#STOPS:;
#BGCHANGES:;

//---------------dance-single - ----------------
#NOTES:
     dance-single:
     :
     Hard:
     11:
     0.484,0.592,0.112,0.213,0.191:
0000
0000
0000
0000
,
0000
0000
0000
0000
,
0000
0000
0000
0000
,
0000
0000
0000
0000
,
1000
0000
0000
0010
0100
0000
0000
0000
0010
0000
1000
0000
0010
0000
0000
0000
,
0100
0000
0000
0001
0010
0000
0000
0000
1000
0000
0001
0000
1000
0000
0000
0000
,
0100
0000
0000
1000
0010
0000
0100
0000
0010
0000
0100
0000
0010
0000
0000
0000
,
1000
0000
0000
0001
0100
0000
0010
0000
0100
0000
1000
0000
0100
0000
0000
0000
,
0100
0000
0000
1000
0100
0000
0010
0000
1000
0000
0100
0000
0010
0000
0000
0000
,
0001
0000
0000
0100
0001
0000
1000
0000
0100
0000
0010
0000
0001
0000
0000
0000
,
0100
0000
0000
0001
0010
0000
1000
0000
0100
0000
0010
0000
0001
0000
0000
0000
,
1000
0000
0100
0010
0000
0000
0010
0000
0001
0000
1000
0000
0010
0000
0001
0000
,
0000
2000
0000
0000
0000
0000
0000
0000
0000
0000
0000
0000
0000
0000
0000
0000
0000
0000
0000
0000
0000
0000
0000
0000
0000
0000
0000
0000
0000
0000
0000
0000
0000
0000
0000
0000
0000
0000
0000
0000
0000
0000
0000
0000
0000
0000
0000
0000
0000
0000
0000
0000
0000
0000
0000
0000
0000
0000
0000
0000
0000
0000
0000
0000
0000
0000
0000
0000
0000
0000
0000
0000
0000
0000
0000
0000
0000
0000
0000
0000
0000
0000
0000
0000
0000
0000
0000
0000
0000
0000
0000
0000
0000
0000
0000
0000
0000
0000
0000
0000
0000
0000
0000
0000
0000
0000
0000
0000
0000
0000
0000
0000
0000
0000
0000
0000
0000
0000
0000
0000
0100
0000
0000
0000
0000
0000
0000
0000
0000
0000
0000
0000
0000
0000
0000
0000
0000
0000
0000
0000
0000
0000
0000
0000
0100
0000
0000
0000
0000
0000
0000
0000
0000
0000
0000
0000
0000
0000
0000
0000
0000
0000
0000
0000
0000
0000
0000
0000
0200
0000
0000
0000
0000
0000
0000
0000
0000
0000
0000
0000
0000
0000
0000
0000
0000
0000
0000
0000
0000
0000
0000
0000
,
3000
0000
0000
0010
0000
0010
0010
0020
,
0300
0000
0001
0001
0000
0001
0000
0002
,
0030
0000
1000
1000
1000
1000
1000
2000
,
0003
0000
0000
3100
0010
0100
1000
0200
,
0000
0000
0000
0301
1000
0001
0100
0020
,
0000
0031
0100
0020
0000
0130
1000
0200
,
0000
0310
0100
0000
0000
0001
0010
1000
,
1000
0000
0010
0001
0100
0000
0000
0000
0100
0000
0010
0000
0110
0000
1000
0000
,
0100
0000
0000
1000
0010
0000
0000
0000
0001
0000
0100
0000
0000
0001
0100
0000
,
0010
0000
0000
1000
0002
0000
0000
0000
1003
0000
0010
0000
0110
0000
0000
0000
,
0100
0000
0000
0001
0010
0000
0100
0000
0000
0000
0100
0000
0100
0010
0000
0000
,
1001
0000
0000
0100
0001
0000
0001
1000
0000
1000
0001
0000
1001
0000
0001
0000
,
0110
0000
0000
0100
0010
0000
1000
0001
0000
0100
0010
0000
0000
0010
0000
0000
,
0110
0000
0000
1000
0010
0000
0010
1000
0001
1000
0002
0000
1000
0000
0000
0000
,
1003
0000
0000
0100
0010
0000
0002
0000
,
1003
0010
0100
1000
0100
0000
0001
0100
,
1000
0100
0010
1000
0020
0000
1030
0000
,
0000
0100
1000
0100
0010
0000
0001
0100
,
1000
0100
0010
0100
0010
0000
0110
0000
,
0100
0000
0000
0000
0000
0000
0100
0000
0010
0000
1000
0001
0000
0001
0100
0000
,
1000
0000
0001
1000
0000
1000
0010
0000
0100
0000
0000
0000
0100
0000
0001
0000
,
2000
3002
0100
0103
,
0010
1000
0100
0010
0001
0100
0100
0000
,
0000
0010
0100
1000
0100
0000
0001
0100
,
1000
0100
0010
0100
0001
0001
0001
0000
,
0000
0100
0010
0100
1000
0100
0010
0100
,
0010
0010
0100
0010
0100
0000
0110
0000
,
1001
0000
0000
0000
0000
0000
0100
0000
1000
0000
1000
0001
1000
0000
1000
0000
,
0001
0000
0100
0001
1000
0000
0010
0000
0100
0000
0001
1000
0010
0000
0001
0000
,
1000
0000
0000
0000
0002
0000
0000
0000
0103
0000
0000
0001
1000
0000
0100
0000
,
0001
0000
0000
0000
0200
0000
0000
0000
0310
0000
0000
0001
1000
0000
0100
0000
,
0010
0000
1000
0000
1000
0000
0100
0001
,
0100
0010
0100
1000
0100
0010
0100
0000
,
1002
0000
0000
0000
,
0203
0000
0000
0000
,
0310
0000
0000
0000
;

//---------------dance-single - ----------------
#NOTES:
     dance-single:
     :
     Beginner:
     1:
     0.066,0.108,0.011,0.034,0.000:
0000
0000
0000
0000
,
0000
0000
0000
0000
,
0000
0000
0000
0000
,
0000
0000
0000
0000
,
0001
0000
0000
0000
,
0001
0000
0000
0000
,
1000
0000
0000
0000
,
1000
0000
0000
0000
,
0100
0000
0000
0000
,
0100
0000
0000
0000
,
0010
0000
0000
0000
,
0001
0000
0000
0000
,
2000
0000
0000
0000
,
0000
0000
0000
0000
,
0000
0000
0000
0000
,
3000
0000
0000
0000
,
0002
0000
0000
0000
,
0000
0000
0000
0000
,
0000
0000
0000
0000
,
0003
0000
0000
0000
,
0100
0000
0000
0000
,
0010
0000
0000
0000
,
0010
0000
0000
0000
,
0100
0000
0000
0000
,
1000
0000
0000
0000
,
1000
0000
0000
0000
,
0001
0000
0000
0000
,
0001
0000
0000
0000
,
0001
0000
0000
0000
,
1000
0000
0000
0000
,
0010
0000
0000
0000
,
0100
0000
0000
0000
,
0010
0000
0000
0000
,
0010
0000
0000
0000
,
0001
0000
0000
0000
,
1000
0000
0000
0000
,
0001
0000
0000
0000
,
0001
0000
0000
0000
,
0010
0000
0000
0000
,
0100
0000
0000
0000
,
1000
0000
0000
0000
,
0001
0000
0000
0000
,
0010
0000
0000
0000
,
0001
0000
0000
0000
,
0100
0000
0000
0000
,
0010
0000
0000
0000
,
2001
0000
0000
0000
,
0000
0000
0000
0000
,
3000
0000
0000
0000
;

//---------------dance-single - ----------------
#NOTES:
     dance-single:
     :
     Easy:
     4:
     0.199,0.242,0.011,0.202,0.000:
0000
0000
0000
0000
,
0000
0000
0000
0000
,
0000
0000
0000
0000
,
0000
0000
0000
0000
,
2000
0000
0000
0000
,
3200
0000
0000
0000
,
0310
0000
0000
0000
,
0001
0000
0001
0000
,
0002
0000
0000
0000
,
0023
0000
0000
0000
,
0130
0000
0100
0000
,
1000
0000
0010
0010
,
0020
0000
0000
0000
,
1030
0000
0000
0000
,
0200
0000
0000
0000
,
0301
0001
0001
1000
,
0200
0000
0000
0000
,
0310
0000
0010
0000
,
2000
0000
0000
0000
,
3001
0000
0001
1000
,
1000
1000
0000
0100
,
0010
0001
0001
0010
,
0100
2000
0000
0000
,
3000
0000
0100
0010
,
0001
0000
0000
0001
0000
0000
0100
0000
,
0100
0000
0000
0100
0000
0000
0010
0000
,
2000
0000
0000
0000
,
3001
0000
0000
0100
0100
0000
0100
0000
,
0000
0010
1000
0010
,
0100
0010
0001
1000
,
0000
0100
0010
0001
,
0100
0010
0001
1000
,
0002
0000
1003
0010
,
0200
0000
0310
1000
,
0200
0000
0000
0000
,
0310
1000
0010
1000
,
0000
0100
0100
0010
,
0001
0010
0100
0100
,
0000
1000
0001
0001
,
1000
0010
0100
0100
,
0010
0000
1000
1000
,
0001
0001
1000
1000
,
0010
0200
0000
0310
,
0000
0020
0000
0130
,
0000
0200
0000
0000
,
0310
1000
0100
0010
,
2002
0000
0000
0000
,
0000
0000
0000
0000
,
3003
0000
0000
0000
;

//---------------dance-single - ----------------
#NOTES:
     dance-single:
     :
     Medium:
     8:
     0.351,0.377,0.090,0.213,0.000:
0000
0000
0000
0000
,
0000
0000
0000
0000
,
0000
0000
0000
0000
,
0000
0000
0000
0000
,
1000
1000
0100
0100
,
0010
0010
0001
0001
,
1000
1000
0010
0010
,
0100
0100
0001
0001
,
1000
0100
0010
0001
,
1000
0010
0100
0001
,
0001
0010
0100
1000
,
0001
0000
1000
0001
0000
1000
0001
2000
,
0000
0000
0000
0000
0000
3010
0100
0020
,
0000
0000
0000
0230
0000
0000
0301
0200
,
0000
0000
0000
0320
0000
2030
0000
3020
,
0000
0000
0130
0000
0010
0001
0100
0020
,
0000
0000
0000
0000
0000
1030
0001
2000
,
0000
0000
0000
0000
3001
0000
0100
0010
,
0000
1000
0100
0010
0000
0010
0001
0010
,
0000
0100
0010
0000
0000
1000
0100
0000
,
1010
0000
0100
0000
0010
0100
0010
0000
,
0101
0000
0001
0000
0100
0010
0100
0000
,
1000
0000
0110
0000
1000
0100
1000
0000
,
0011
0000
0100
0010
,
1001
1000
0000
0001
0000
0100
0010
0000
,
0110
0000
0100
0010
0000
1000
0100
0000
,
0010
0000
0001
0000
1000
0001
1000
0000
,
0002
0000
2003
3001
,
0000
0100
0010
0100
0010
0000
1000
0100
,
1000
0100
1000
0100
1000
0000
0010
0000
,
0000
0001
0010
0001
0010
0000
0100
0010
,
0100
0010
0100
0010
0100
0000
0010
0000
,
1010
0000
0100
0010
0100
0000
0100
0010
,
0100
0000
0001
0010
0001
0000
1000
0001
,
1000
0020
0000
0230
,
0310
0000
1000
0000
0100
1000
0100
0000
,
0000
1000
0001
1000
0002
0000
0103
0010
,
0100
0000
1000
0010
1000
0000
0010
0000
,
0000
0100
0010
0100
0010
0000
0010
0001
,
0010
0100
1000
0100
,
1000
0000
0001
1000
0001
0000
0100
0010
,
0100
0000
0010
1000
0010
0000
0100
0010
,
0001
2000
0000
3001
,
0010
0002
0000
1003
,
0100
2000
0000
3010
,
0100
0000
0010
0000
1000
0001
1000
0000
,
2002
0000
0000
0000
,
0000
0000
0000
0000
,
3003
0000
0000
0000
;

//---------------dance-single - ----------------
#NOTES:
     dance-single:
     :
     Challenge:
     13:
     0.726,0.727,0.751,0.336,0.404: // measure 1
0000
0000
0000
0000
,  // measure 2
0000
0000
0000
0000
,  // measure 3
0000
0000
0000
0000
,  // measure 4
0000
0000
0000
0000
,  // measure 5
1001
0000
0001
0100
0010
0000
0001
0000
0110
0000
0001
0000
1100
0000
1000
0000
,  // measure 6
0110
0000
0001
1000
0100
0000
0010
0000
0101
0000
1000
0000
0011
0000
0010
0000
,  // measure 7
1010
0000
1000
0001
0100
0000
0010
0000
0101
0000
0010
0000
1100
0000
0001
0000
,  // measure 8
0101
0000
0001
1000
0010
0000
0100
0000
0110
0000
0001
0000
1010
0000
0010
0000
,  // measure 9
0110
0000
1000
0001
0010
0000
0100
0000
0011
0000
0010
0000
0110
0000
0100
0000
,  // measure 10
1100
0000
1000
0010
1000
0000
0010
0000
0011
0000
0100
0000
1001
0000
0100
0000
,  // measure 11
0110
0000
0100
1000
0100
0000
0001
0000
0110
0000
0010
0000
1001
0000
0100
0000
,  // measure 12
0001
0000
0010
0100
0000
0000
0101
0000
1100
0000
0011
0000
0101
0000
1001
0000
,  // measure 13
0000
0002
0000
0000
0000
0000
0000
0000
0000
0000
0000
0000
0000
0000
0000
0000
0000
0000
0000
0000
0000
0000
0000
0000
0000
0000
0000
0000
0000
0000
0000
0000
0000
0000
0000
0000
0000
0000
0000
0000
0000
0000
0000
0000
0000
0000
0000
0000
0000
0000
0000
0000
0000
0000
0000
0000
0000
0000
0000
0000
0000
0000
0000
0000
0000
0000
0000
0000
0000
0000
0000
0000
0000
0000
0000
0000
0000
0000
0000
0000
0000
0000
0000
0000
0000
0000
0000
0000
0000
0000
0000
0000
0000
0000
0000
0000
0000
0000
0000
0000
0000
0000
0000
0000
0000
0000
0000
0000
0000
0000
0000
0000
0000
0000
0000
0000
0000
0000
0000
0000
0010
0000
0000
0000
0000
0000
0000
0000
0000
0000
0000
0000
0000
0000
0000
0000
0000
0000
0000
0000
0000
0000
0000
0000
0010
0000
0000
0000
0000
0000
0000
0000
0000
0000
0000
0000
0000
0000
0000
0000
0000
0000
0000
0000
0000
0000
0000
0000
0020
0000
0000
0000
0000
0000
0000
0000
0000
0000
0000
0000
0000
0000
0000
0000
0000
0000
0000
0000
0000
0000
0000
0000
,  // measure 14
0003
0000
0000
0100
0100
0100
0100
0230
,  // measure 15
0010
0000
1000
1000
0000
1000
0000
2000
,  // measure 16
0300
0000
0001
0001
0001
0001
0001
3002
,  // measure 17
1000
0000
0000
0013
0100
0010
0001
0020
,  // measure 18
0001
0000
0000
1030
0001
1000
0010
0200
,  // measure 19
0001
1300
0010
0200
1000
0310
0001
0020
,  // measure 20
0001
0130
0010
0000
0000
1000
0100
0001
,  // measure 21
0011
0000
0100
1000
0010
0000
0110
0000
0000
0000
1100
0000
0110
0000
0001
0000
,  // measure 22
0010
0000
1000
0001
0100
0000
0110
0000
0000
0000
0110
0000
0000
0101
0000
0000
,  // measure 23
0120
0000
1030
0001
1000
0000
0110
0000
0001
0000
0101
0000
0110
0000
0000
0000
,  // measure 24
0011
0000
0001
1000
0100
0000
0110
0000
0000
0000
1010
0000
0000
0110
0000
0000
,  // measure 25
1001
0000
1000
0010
1000
0000
1000
0001
0000
0001
1000
0000
1001
0000
1000
0000
,  // measure 26
0110
0000
1000
0010
0100
0000
0001
1000
0000
0010
0100
0000
0000
0101
0000
0000
,  // measure 27
0110
0000
0000
0001
0100
0000
0100
0001
1000
0001
2000
0000
0001
0000
0000
0000
,  // measure 28
3001
0000
0000
0012
0023
0000
2030
3000
,  // measure 29
0101
0000
0100
0000
0010
0000
0001
1000
0020
0000
0100
0000
1030
0000
0010
0000
,  // measure 30
0001
0000
0010
0001
0100
0000
0001
1000
0200
0000
0000
0000
0302
0000
0000
0000
,  // measure 31
1003
0000
0010
0000
0001
1000
0010
1000
0200
0000
0000
0000
1300
0001
0010
0001
,  // measure 32
1000
0010
1100
0011
0110
0000
0210
0000
,  // measure 33
0310
0000
0000
0000
1100
0000
0010
0000
0100
0000
0001
1000
0100
1000
0010
0000
,  // measure 34
0001
0000
1000
0001
0010
0001
0100
0000
1010
0000
0000
0000
0012
0000
2003
0000
,  // measure 35
3002
2003
0010
3010
,  // measure 36
1100
0001
0011
0110
1010
0110
1010
0000
,  // measure 37
0011
0000
0100
0000
0010
0000
0001
1000
0200
0000
0001
0000
1300
0000
0010
1000
,  // measure 38
0001
0000
0010
0000
0100
0000
0010
0001
1000
0000
0010
0001
1000
0000
0000
0000
,  // measure 39
0110
0000
0010
0000
0100
1000
0010
1000
0001
0000
0010
0000
0100
0001
0010
0001
,  // measure 40
0100
0000
0100
0000
0010
1000
0100
1000
0010
0000
0000
0000
0110
0000
0000
0000
,  // measure 41
1001
0000
0000
0000
0001
0000
0010
1000
0001
1000
0001
1000
0001
0000
0001
0000
,  // measure 42
1000
0100
0010
1000
0010
1000
0100
0000
0010
0001
1000
0001
0100
0001
1000
0000
,  // measure 43
0012
0000
0000
0000
2003
0000
0000
0000
3001
0010
0001
1000
0001
0100
0010
0000
,  // measure 44
1000
0000
0000
0000
0020
0000
0000
0000
0130
0001
0010
0100
1000
0010
0100
0001
,  // measure 45
0200
0000
0001
0000
0001
0000
0310
1000
,  // measure 46
0010
0001
0100
0010
1000
0100
0010
0001
0010
0100
0001
0100
1000
0000
0001
0000
,  // measure 47
2001
0000
0000
0010
0000
0000
0010
0000
0000
0010
0000
0000
0010
0000
0010
0000
,  // measure 48
3020
0000
0000
0100
0000
0000
0100
0000
0000
0100
0000
0000
0100
0000
0100
0000
,  // measure 49
0130
0000
0000
0000
;
