#TITLE:STUDYxSTUDY;
#SUBTITLE:ハイスクールD×D ED;
#ARTIST:StylipS;
#TITLETRANSLIT:STUDYxSTUDY;
#SUBTITLETRANSLIT:High School DxD ED;
#ARTISTTRANSLIT:StylipS;
#CREDIT:;
#GENRE:DEVIL POP;
#BANNER:STUDYxSTUDY.png;
#BACKGROUND:STUDYxSTUDY-bg.png;
#LYRICSPATH:;
#CDTITLE:cdtitle.png;
#MUSIC:STUDYxSTUDY.mp3;
#OFFSET:2.196;
#SAMPLESTART:55.347;
#SAMPLELENGTH:12.000;
#SELECTABLE:YES;
#BPMS:0.000=170.000,10.000=340.000,12.000=170.000,194.000=340.000,196.000=170.000;
#DISPLAYBPM:170;
#STOPS:10.000=0.044
,10.250=0.044
,10.500=0.044
,10.750=0.044
,11.000=0.044
,11.250=0.044
,11.500=0.044
,11.750=0.044
,194.000=0.044
,194.250=0.044
,194.500=0.044
,194.750=0.044
,195.000=0.044
,195.250=0.044
,195.500=0.044
,195.750=0.044
;
#BGCHANGES:;

//---------------dance-single - ----------------
#NOTES:
     dance-single:
     :
     Hard:
     15:
     0.709,0.760,0.449,0.150,0.160: // measure 1
0000
0000
0000
0000
,  // measure 2
0000
0000
0000
0000
,  // measure 3
0000
0000
0000
0000
0000
0000
0000
0000
1000
0100
1000
0100
0010
0100
0010
0001
,  // measure 4
0010
0000
0010
0000
0010
0000
1000
0100
,  // measure 5
0000
0010
0000
0010
0000
0001
0010
0100
,  // measure 6
0000
1000
0100
0010
0001
0000
0001
0010
,  // measure 7
0000
0100
1000
0100
0010
0001
0010
0100
,  // measure 8
0010
0000
0010
0000
1000
0100
1000
0100
,  // measure 9
0000
0010
0001
0010
0010
0001
0000
0100
,  // measure 10
0000
1000
0000
0100
0100
0100
0010
0010
,  // measure 11
0000
0000
0001
0000
0001
0000
0010
0000
0010
0000
0100
0000
0100
0000
1000
0100
,  // measure 12
0000
0000
0100
0000
1000
0000
0010
0100
0000
0000
0010
0000
0001
0000
0010
0100
,  // measure 13
0000
0000
0010
0000
0100
0000
1000
0000
0100
0000
0010
1000
0000
0000
2000
0000
,  // measure 14
0000
0001
0000
0001
0000
3001
1000
0001
,  // measure 15
0000
1000
0100
0011
0000
1001
0000
1100
,  // measure 16
0000
0000
0010
0000
0100
0000
1000
0000
0100
0001
0010
0000
0001
1000
0010
0000
,  // measure 17
0010
0000
0010
0001
0010
0100
1000
0100
,  // measure 18
0000
0001
0010
0100
0000
0010
0000
2100
,  // measure 19
0000
3010
0000
0102
0000
0013
0000
1001
,  // measure 20
0100
0000
0010
0000
0100
0000
0001
0000
0010
1000
0000
0000
0001
0000
0010
0000
,  // measure 21
0000
0000
0100
0000
0000
0000
0010
0000
0000
0000
1000
0000
0100
0001
0020
0000
,  // measure 22
0000
0000
0031
0010
0000
1000
0100
1100
,  // measure 23
0000
0110
0000
0011
0000
0100
0100
0110
,  // measure 24
0000
0000
0100
0000
1000
0000
0100
0000
0010
0100
0010
0000
0001
1000
0001
0000
,  // measure 25
0010
0100
1000
0100
0010
0010
1000
0010
,  // measure 26
0000
0001
0100
0010
0000
0100
0000
1002
,  // measure 27
0000
0103
0000
2010
0000
3001
0000
0100
,  // measure 28
0010
0000
0100
0000
0010
0000
1000
0000
0100
0010
0100
0000
0010
0100
0010
0000
,  // measure 29
0001
1000
0001
0000
0010
0100
0010
0000
0100
0000
1000
0000
0100
0000
0020
0000
,  // measure 30
0000
0032
0000
0023
0000
2030
0001
3200
,  // measure 31
0000
0000
0300
0010
1000
0010
0100
0010
,  // measure 32
0110
0000
0100
0010
0100
0000
0100
1000
,  // measure 33
0000
1000
0000
1000
0100
0010
0001
0001
,  // measure 34
0010
0000
0100
1000
0100
0010
0000
0100
,  // measure 35
0000
0100
0000
1000
0100
0010
0001
0101
,  // measure 36
0000
0100
1000
0010
0010
0010
0001
0010
,  // measure 37
0000
0100
1000
0200
0000
0000
0310
1000
,  // measure 38
0010
1000
1000
0100
0010
0001
0010
0100
,  // measure 39
0110
0001
0010
0001
0011
0100
0010
0100
,  // measure 40
1100
0100
0010
0100
0010
0100
0010
0110
,  // measure 41
0000
1000
1000
1000
0000
0000
0001
0010
,  // measure 42
0011
0000
0110
0000
1100
0000
0100
0010
,  // measure 43
0000
0000
0100
0000
1000
0000
0100
0000
0010
1000
0001
0000
0010
0000
0000
0000
,  // measure 44
0110
0000
0011
0000
0110
0000
1000
0100
,  // measure 45
0000
0000
0010
0000
0001
0000
0010
0000
0100
0001
0010
0000
0000
0000
0100
0000
,  // measure 46
0000
1000
0100
1000
0100
0010
0000
0010
,  // measure 47
0000
0010
0001
0010
0100
0010
0000
0100
,  // measure 48
0000
1000
0100
0010
0001
0100
0010
0100
,  // measure 49
0001
0010
0100
1000
0100
0010
0001
0010
0001
1000
0001
1000
0001
1000
0001
1000
,  // measure 50
0001
0000
0001
1000
0100
0000
0010
0001
,  // measure 51
0000
1000
0100
0010
0001
0100
0010
0000
,  // measure 52
0110
0000
1100
0000
0110
0000
0001
0011
,  // measure 53
0000
1000
0100
1010
0000
0001
0001
0001
,  // measure 54
0011
0000
0100
0000
1000
0000
0100
0000
0010
1000
0001
0000
0100
0000
0000
0000
,  // measure 55
0100
0000
0010
0000
0001
0000
0010
0000
0100
0001
0010
0000
0100
0000
2100
0000
,  // measure 56
0000
3100
0000
0012
0000
0013
0000
0100
,  // measure 57
0010
0100
0010
1000
0100
0010
0010
0001
,  // measure 58
0101
0000
1000
0100
0010
0000
0010
0001
,  // measure 59
0000
0100
1000
0100
0010
0000
0010
0001
,  // measure 60
0010
0000
1100
0000
0110
0000
0010
0001
,  // measure 61
0000
0001
0010
0100
1000
0100
0010
0001
,  // measure 62
0100
0000
0011
0000
0110
0000
1000
0100
,  // measure 63
0000
1000
0100
0010
0001
0100
0010
0100
,  // measure 64
0010
0000
1100
0000
0110
0000
0011
0011
,  // measure 65
0000
0100
0010
0100
0000
1100
0000
0000
;

//---------------dance-single - ----------------
#NOTES:
     dance-single:
     :
     Medium:
     9:
     0.611,0.518,0.257,0.235,0.000:
0000
0000
0000
0000
,
0000
0000
0000
0000
,
0000
0000
2000
0000
,
3001
0000
0001
0000
0001
0000
0001
1000
,
0000
1000
0000
1000
0000
0001
0100
0001
,
0000
0010
0100
0010
0100
0000
1000
0100
,
0000
0100
0010
0001
1000
0010
0100
0001
,
0001
0000
0010
0000
0010
1000
0010
0001
,
0000
1000
0100
0001
0100
1000
0000
0001
,
0000
0010
0000
1000
0010
0100
0001
0100
,
0000
0010
0001
1000
0010
0100
0001
1000
,
0000
0100
0010
1000
0000
1000
0010
0100
,
0000
1000
0100
0010
0100
0001
0000
2000
,
0100
0000
0001
0000
0100
3100
1000
0010
,
0000
0010
0000
2000
0000
0001
0000
3001
,
0000
0010
0001
1000
0001
0100
0010
1000
,
0100
0000
1000
0100
0010
1000
0010
0100
,
0000
0010
0001
0010
0000
1000
0000
2002
,
0000
3003
0000
0220
0000
0330
0000
1001
,
0000
1000
0100
0010
0001
0000
0001
0010
,
0000
0100
0000
1000
0000
1000
0001
0200
,
0000
0000
0301
1000
0000
0010
0100
0001
,
0000
0101
0000
1100
0000
0001
1000
0001
,
0000
0100
0010
0100
0001
0010
1000
0010
,
0100
0001
0100
0010
1000
0010
0100
0010
,
0000
1000
0000
0001
0000
0010
0000
2200
,
0000
3300
0000
0220
0000
0330
0000
0011
,
0000
0001
0010
0001
0010
0100
0010
0100
,
1000
0100
1000
0000
0010
0100
0000
0020
,
0000
2030
0000
3020
0000
0230
0000
0302
,
0000
0003
0000
1000
0001
0100
0001
1000
,
1100
0000
0010
0001
1000
0000
0100
1000
,
0000
0001
0000
0010
0100
0001
0000
0100
,
0010
0000
0010
0100
0000
0010
0000
1000
,
0000
0010
0000
0100
1000
0010
0000
1001
,
0000
0001
1000
0100
0001
0100
0010
0100
,
0000
1000
0100
0010
0000
0010
0001
0010
,
0000
1000
0001
0010
0001
0100
0001
1000
,
0000
1000
0010
1000
0100
0000
1000
0001
,
1000
0010
0001
0010
0100
0100
1000
1000
,
0000
0001
0001
0001
0000
0000
0010
0100
,
0110
0000
1001
0000
0110
0000
0001
0010
,
0000
0100
1000
0100
0010
0001
0100
0000
,
0011
0000
0110
0000
1100
0000
1000
0100
,
0000
1000
0100
0010
0001
0100
0000
0000
,
0010
1000
0010
1000
0100
1000
0000
0001
,
0000
0010
0001
0010
0001
0100
0000
0001
,
0000
1000
0100
1000
0100
0010
0001
0010
,
0001
1000
0100
0010
0001
0000
0100
0001
,
0100
0000
0100
0010
0100
0000
1000
0100
,
0000
0010
0001
0010
0100
0010
0100
0000
,
1100
0000
0110
0000
0011
0000
0100
0010
,
0000
0001
0010
0100
0000
0100
0001
0100
,
0000
0001
0010
0100
1000
0100
0000
0100
,
0000
0010
0010
0100
0100
1000
0000
0110
,
0000
0001
0000
0101
0000
1000
0000
0200
,
0000
0320
0000
2030
0000
3001
0010
0001
,
0100
0000
0010
1000
0100
0000
0100
1000
,
0000
1000
0100
0010
0002
0000
1003
0010
,
0100
0000
0010
0001
0010
0000
0010
0100
,
0000
0010
0100
0010
0001
0010
0100
0010
,
0001
0000
2000
0000
3100
0000
0100
0010
,
0000
1000
0001
0010
0100
0010
1000
0001
,
0100
0000
1100
0000
0110
0000
0001
0010
,
0000
1000
0001
1000
0000
1001
0000
0000
;

//---------------dance-single - ----------------
#NOTES:
     dance-single:
     :
     Easy:
     6:
     0.339,0.380,0.043,0.053,0.000:
0000
0000
0000
0000
,
0000
0000
0000
0000
,
0000
0000
1000
0000
,
0001
0001
0001
0000
,
1000
0000
0000
0000
0000
0000
0000
0010
,
0000
0010
0000
0000
0010
0000
0000
0000
,
1000
0100
0010
0001
,
1000
1000
0001
0001
,
1000
0100
0010
0000
,
0001
1000
0100
0001
,
0010
0100
0010
0001
,
0000
1000
0000
0010
,
0000
0100
0010
0001
,
1000
0100
0010
0100
,
1000
0000
0100
0010
0000
0000
0000
0100
,
0000
0001
0100
1000
,
0001
0100
0010
0100
,
1000
0000
0010
0000
0001
0000
0000
2000
,
0000
0000
0000
3002
0000
0000
0000
1003
,
0000
0100
0010
0100
,
1000
0100
0010
0001
,
1000
0000
0100
0000
0010
0000
0000
0100
,
0000
0010
0000
0100
0000
0000
0000
0010
,
0000
1000
0001
0010
,
1000
1000
0001
0001
,
0000
0100
0000
0010
0000
0100
0000
0020
,
0000
0000
0000
0032
0000
0000
0000
1003
,
0000
0100
0010
0010
,
0001
0001
1000
0100
,
0001
1000
0010
0100
,
0010
0000
1000
0010
,
1000
0001
0001
0000
,
0100
0100
0010
0000
,
1000
0000
1000
0000
0001
0000
0000
0100
,
0000
0100
0000
0100
0000
0000
0000
0010
,
0000
0100
1000
0100
,
0010
0001
0100
0010
,
1010
0100
0010
1000
,
0101
0010
1100
0010
,
0110
1000
0100
0010
,
0000
0001
0000
0001
0000
0000
1000
0000
,
0001
0010
0010
0100
,
0100
0010
0001
0000
,
1000
0001
1000
1000
,
0010
0100
0010
0000
,
1000
0001
1000
0000
,
0010
0001
0010
0000
,
0100
1000
0100
0010
,
1000
0001
2000
0000
,
3001
0010
0001
0100
,
1000
0100
0010
0010
,
1000
0100
0010
1000
,
0001
0001
0000
0000
,
1000
0100
0010
0001
,
0100
0000
1000
0000
0010
0000
0000
1000
,
0000
0001
0000
0100
0000
0010
0000
1000
,
0000
1000
0000
0001
0000
0001
0000
1000
,
0000
0010
0100
0010
,
0000
1000
0000
1000
0000
0010
0000
0010
,
0000
0100
0010
1000
,
0000
0001
0000
0001
0000
0100
0000
0100
,
0000
0010
1000
0010
,
0000
0100
0000
0100
0000
0010
0000
0010
,
0000
1000
1000
0001
,
0000
0001
0000
0001
0000
0001
0000
0000
;

//---------------dance-single - ----------------
#NOTES:
     dance-single:
     :
     Beginner:
     2:
     0.139,0.240,0.000,0.021,0.000:
0000
0000
0000
0000
,
0000
0000
0000
0000
,
0000
0000
0000
0000
,
0001
0000
0000
0000
,
0001
0000
0000
0000
,
0000
0000
0000
0000
,
1000
0000
0000
0000
,
1000
1000
1000
0000
,
0001
0001
0001
0000
,
0100
0100
0100
0000
,
0010
0010
0010
0000
,
0100
0000
0100
0000
,
0001
0000
0001
0000
,
0010
0000
0000
0000
,
0100
0000
0000
0000
,
0000
1000
1000
0000
,
0000
0001
0001
0000
,
0000
0000
0000
0000
,
0100
0000
0000
0000
,
0100
0000
0000
0000
,
0010
0000
0000
0000
,
0010
0000
0000
0000
,
0000
0000
0000
0000
,
0100
0000
0001
0000
,
0001
0000
0000
0000
,
0010
0000
1000
0000
,
1000
0000
0000
0000
,
0010
0000
0010
0000
,
0010
0000
0100
0000
,
0100
0000
0010
0000
,
0010
0000
0000
0000
,
0001
0000
0000
0000
,
1000
0000
0000
0000
,
0010
0000
0000
0000
,
0100
0000
0000
0000
,
0001
0000
0000
0000
,
0001
0000
0000
0000
,
2000
0000
0000
0000
,
0000
0000
0000
0000
,
0000
0000
0000
0000
,
0000
0000
3000
0000
,
0001
0000
0001
0000
,
0010
0000
0010
0000
,
0000
0010
0000
0010
,
0000
0010
0000
0000
,
0100
0000
0100
0000
,
1000
0000
1000
0000
,
0001
0000
1000
0000
,
0001
0000
0002
0000
,
0003
0000
0001
0000
,
1000
0000
1000
0000
,
0010
0000
0010
0000
,
0100
0000
0000
0000
,
0100
0000
0100
0000
,
0010
0000
0010
0000
,
0000
0000
1000
0000
,
0000
0000
0001
0000
,
0001
0000
0010
0000
,
0010
0000
0000
0000
,
0100
0000
0100
0000
,
1000
0000
1000
0000
,
1000
0000
0000
0000
,
0010
0000
0010
0000
,
0010
0000
0100
0000
,
0100
0000
0000
0000
;
