#TITLE:SABLE;
#SUBTITLE:M3~ソノ黒キ鋼~ ED2;
#ARTIST:ナノ;
#TITLETRANSLIT:SABLE;
#SUBTITLETRANSLIT:M3 ~The Dark Metal~ ED2;
#ARTISTTRANSLIT:nano;
#CREDIT:;
#GENRE:DARK METAL ROCK;
#BANNER:SABLE.png;
#BACKGROUND:SABLE-bg.png;
#LYRICSPATH:;
#CDTITLE:cdtitle.png;
#MUSIC:SABLE.mp3;
#METERTYPE:DDR X;
#MENUCOLOR:0,0,1,1;
#OFFSET:-0.461;
#SAMPLESTART:60.001;
#SAMPLELENGTH:12.000;
#SELECTABLE:YES;
#BPMS:0.000=200.000,32.000=400.000,96.000=200.000,104.000=400.000,344.000=100.000,348.000=400.000,444.000=200.000,460.000=400.000;
#STOPS:;
#BGCHANGES:;

//---------------dance-single - ----------------
#NOTES:
     dance-single:
     :
     Hard:
     14:
     0.755,1.000,0.777,0.189,0.033:
0000
0000
0000
0000
,
0000
0000
0000
0000
,
0000
0000
0000
0000
,
0000
0000
0000
0000
,
0000
0000
0000
0000
,
0000
0000
0000
0000
,
0000
0000
0000
0000
,
0000
0000
0000
0010
,
1001
0001
1000
0001
,
0000
0100
0010
0100
,
0001
0100
1000
0100
,
0000
0100
0000
0010
,
1000
1000
0010
0001
,
0000
0010
1000
0001
,
1000
0100
0001
1000
,
0010
0001
1000
0001
,
0100
0100
0011
0100
,
0000
1000
0100
0001
,
1000
0001
0010
0100
,
0000
0010
0100
0001
,
1000
0010
0100
1000
,
0001
0100
0010
1000
,
0001
1000
0100
0010
,
0100
0010
0100
0010
0100
0000
1000
0000
,
0001
0001
0001
0001
0000
0200
0000
0301
,
0001
0000
0100
0000
0100
0000
0010
0000
1000
0000
1000
0001
1000
0000
1000
0000
,
0100
0000
0011
0100
,
0010
0000
1100
1000
,
0100
0000
0010
0100
,
0010
0100
0000
0200
,
0000
0010
0010
0010
,
0000
0000
0010
0000
,
1300
0000
0001
0000
,
1001
0100
0000
0102
,
0100
0100
0000
0100
,
1000
0000
0003
1000
,
0110
0000
0000
0100
,
0110
1000
0000
0100
,
0000
1000
0100
0000
,
0010
1000
0001
0000
,
0100
0000
1000
1000
,
0100
0010
0100
0000
0100
0000
1100
0000
,
0100
0010
0011
1000
,
0010
0000
0100
0010
,
1001
0000
0010
1000
,
0100
0010
0000
0100
,
0000
0010
0110
0000
,
0100
0001
0100
0000
,
1000
0000
0110
0000
,
0100
0101
0000
0120
,
0100
0100
0030
1000
,
0110
0000
0000
0001
,
0110
0000
0000
1000
,
0100
0001
0100
0110
,
0000
0000
1000
0000
1000
0001
1000
0000
,
0100
0000
0010
1000
0010
0000
0110
0000
,
0000
0100
0001
0100
,
0001
0000
0100
0001
1000
0000
0100
0000
,
1100
1100
0200
0000
,
0000
0000
1000
0000
,
0000
0000
0010
0000
,
0000
0001
0000
0310
,
0011
0011
0020
0000
,
0000
0000
0100
0000
,
0000
0000
1000
0000
,
0000
0001
0000
0031
,
0101
0101
0002
0000
,
0000
0000
1000
0000
,
0000
0000
0010
0000
,
0000
1000
0000
1003
,
1010
1010
2000
0000
,
0200
0000
0300
0100
,
0000
0000
0010
0000
,
0000
0001
0000
3001
,
1001
1001
0101
0000
,
0100
0000
0110
0000
,
1000
0000
1100
0000
,
0100
0110
0000
0100
,
0101
0100
1100
0000
,
1000
0000
0110
0000
,
0100
0000
1001
0000
,
0001
0011
0000
0100
,
0000
0000
0100
0100
,
0100
0100
0100
0110
,
0000
0000
0001
0001
,
0001
0001
0001
1001
,
0000
1000
0100
0000
0010
0000
0001
0100
1000
0000
1000
1000
0000
0000
0001
0000
,
1001
0000
0101
0000
,
1000
0000
0101
1000
,
0000
1000
0100
0010
,
0100
0001
0100
1000
,
0000
0000
2000
0000
,
0000
3200
0000
0000
,
0320
0001
0000
0032
,
0000
0000
1003
0000
,
1100
0000
0001
0000
,
1100
0000
0010
0101
,
0000
0100
0000
1000
,
0100
0010
0100
0110
,
0000
0000
2100
0000
,
0000
3200
0000
0000
,
0320
0000
0000
0032
,
0000
0000
1003
0000
,
1001
0000
0110
0000
,
1000
0000
0100
0110
,
0000
1000
0100
0010
,
0001
0100
0010
0110
,
0000
0000
1000
0000
,
0100
0010
0000
0001
,
0100
0000
0000
0000
1000
0000
0100
1000
,
0100
0100
0010
1000
,
1100
0000
0100
0010
0110
0000
0001
0010
,
0011
0000
0100
0010
0110
0000
1000
1100
,
0000
0100
0010
0100
0010
0100
0010
0001
,
0000
0000
1000
0000
0100
0000
0010
0000
0001
0010
0100
0010
0001
0000
0010
0000
,
0100
0100
1100
0000
,
0100
0000
0110
0010
,
0000
0001
0100
0000
,
0001
0100
0001
0100
,
0100
0100
0110
0010
,
0000
0000
0110
0000
,
1000
0100
0010
0001
,
0100
0010
0001
0010
0100
0010
1000
0000
,
1100
0100
0100
0110
,
0100
0100
0110
0010
,
0010
0011
0010
0010
,
0110
0010
1010
0010
,
0100
1000
0100
0010
0100
1000
0001
0100
,
0010
0001
0010
1000
0010
0001
0010
0000
,
0000
1100
0000
1100
,
0000
1100
0000
0000
;

//---------------dance-single - ----------------
#NOTES:
     dance-single:
     :
     Beginner:
     3:
     0.087,0.353,0.044,0.000,0.000: // measure 1
0000
0000
0000
0000
,  // measure 2
0000
0000
0000
0000
,  // measure 3
0000
0000
0000
0000
,  // measure 4
0000
0000
0000
0000
,  // measure 5
0000
0000
0000
0000
,  // measure 6
0000
0000
0000
0000
,  // measure 7
0000
0000
0000
0000
,  // measure 8
0000
0000
0000
0000
,  // measure 9
1001
0000
0000
0000
,  // measure 10
0000
0000
0000
0000
,  // measure 11
0000
0000
0000
0000
,  // measure 12
0000
0000
0000
0000
,  // measure 13
0001
0000
0000
0000
,  // measure 14
0000
0000
0000
0000
,  // measure 15
0000
0000
0000
0000
,  // measure 16
0000
0000
0000
0000
,  // measure 17
1000
0000
0000
0000
,  // measure 18
0000
0000
0000
0000
,  // measure 19
0000
0000
0000
0000
,  // measure 20
0000
0000
0000
0000
,  // measure 21
0010
0000
0000
0000
,  // measure 22
0000
0000
0000
0000
,  // measure 23
0000
0000
0000
0000
,  // measure 24
0000
0000
0000
0000
,  // measure 25
0100
0000
0000
0000
,  // measure 26
0000
0000
0000
0000
,  // measure 27
0001
0000
0000
0000
,  // measure 28
0000
0000
0000
0000
,  // measure 29
0001
0000
0000
0000
,  // measure 30
0000
0000
0000
0000
,  // measure 31
0000
0000
0000
0000
,  // measure 32
0000
0000
0000
0000
,  // measure 33
0000
0000
0000
0000
,  // measure 34
0000
0000
0000
0000
,  // measure 35
1000
0000
0000
0000
,  // measure 36
0000
0000
0000
0000
,  // measure 37
1000
0000
0000
0000
,  // measure 38
0000
0000
0000
0000
,  // measure 39
0000
0000
0000
0000
,  // measure 40
0000
0000
0000
0000
,  // measure 41
0000
0000
0000
0000
,  // measure 42
0000
0000
0000
0000
,  // measure 43
0010
0000
0000
0000
,  // measure 44
0000
0000
0000
0000
,  // measure 45
0010
0000
0000
0000
,  // measure 46
0000
0000
0000
0000
,  // measure 47
0000
0000
0000
0000
,  // measure 48
0000
0000
0000
0000
,  // measure 49
0000
0000
0000
0000
,  // measure 50
0000
0000
0000
0000
,  // measure 51
0100
0000
0000
0000
,  // measure 52
0000
0000
0000
0000
,  // measure 53
0100
0000
0000
0000
,  // measure 54
0000
0000
0000
0000
,  // measure 55
0000
0000
0000
0000
,  // measure 56
0000
0000
0000
0000
,  // measure 57
0000
0000
0000
0000
,  // measure 58
0000
0000
0000
0000
,  // measure 59
0001
0000
0000
0000
,  // measure 60
0001
0000
0000
0000
,  // measure 61
0001
0000
0000
0000
,  // measure 62
0000
0000
0000
0000
,  // measure 63
1000
0000
0000
0000
,  // measure 64
1000
0000
0000
0000
,  // measure 65
1000
0000
0000
0000
,  // measure 66
0000
0000
0000
0000
,  // measure 67
0100
0000
0000
0000
,  // measure 68
0100
0000
0000
0000
,  // measure 69
0100
0000
0000
0000
,  // measure 70
0000
0000
0000
0000
,  // measure 71
0010
0000
0000
0000
,  // measure 72
0010
0000
0000
0000
,  // measure 73
0010
0000
0000
0000
,  // measure 74
0000
0000
0000
0000
,  // measure 75
0001
0000
0000
0000
,  // measure 76
0000
0000
0000
0000
,  // measure 77
0001
0000
0000
0000
,  // measure 78
0000
0000
0000
0000
,  // measure 79
1000
0000
0000
0000
,  // measure 80
0000
0000
0000
0000
,  // measure 81
1000
0000
0000
0000
,  // measure 82
0000
0000
0000
0000
,  // measure 83
0010
0000
0000
0000
,  // measure 84
0000
0000
0000
0000
,  // measure 85
0010
0000
0000
0000
,  // measure 86
0000
0000
0000
0000
,  // measure 87
0100
0000
0000
0000
,  // measure 88
0110
0000
0000
0000
,  // measure 89
0000
0000
0000
0000
,  // measure 90
0000
0000
0000
0000
,  // measure 91
0000
0000
0000
0000
,  // measure 92
0010
0000
0000
0000
,  // measure 93
0000
0000
0000
0000
,  // measure 94
0010
0000
0000
0000
,  // measure 95
0000
0000
0000
0000
,  // measure 96
0110
0000
0000
0000
,  // measure 97
0000
0000
0000
0000
,  // measure 98
0000
0000
0000
0000
,  // measure 99
0000
0000
0000
0000
,  // measure 100
0100
0000
0000
0000
,  // measure 101
0000
0000
0000
0000
,  // measure 102
0100
0000
0000
0000
,  // measure 103
0000
0000
0000
0000
,  // measure 104
1001
0000
0000
0000
,  // measure 105
0000
0000
0000
0000
,  // measure 106
0000
0000
0000
0000
,  // measure 107
0000
0000
0000
0000
,  // measure 108
0001
0000
0000
0000
,  // measure 109
0000
0000
0000
0000
,  // measure 110
0001
0000
0000
0000
,  // measure 111
0000
0000
0000
0000
,  // measure 112
1000
0000
1000
0000
,  // measure 113
1000
0000
1000
0000
,  // measure 114
0001
0000
0001
0000
,  // measure 115
0001
0000
0000
0000
,  // measure 116
0000
0000
0000
0000
,  // measure 117
0000
0000
0000
0000
,  // measure 118
0100
0000
0000
0000
,  // measure 119
0000
0000
0000
0000
,  // measure 120
0000
0000
0000
0000
,  // measure 121
0000
0000
0000
0000
,  // measure 122
0000
0000
0000
0000
,  // measure 123
0000
0000
0000
0000
,  // measure 124
0010
0000
0000
0000
,  // measure 125
0000
0000
0000
0000
,  // measure 126
0000
0000
0000
0000
,  // measure 127
0000
0000
0000
0000
,  // measure 128
0100
0000
0000
0000
;

//---------------dance-single - ----------------
#NOTES:
     dance-single:
     :
     Easy:
     5:
     0.160,0.579,0.100,0.100,0.000:
0000
0000
0000
0000
,
0000
0000
0000
0000
,
0000
0000
0000
0000
,
0000
0000
0000
0000
,
0000
0000
0000
0000
,
0000
0000
0000
0000
,
0000
0000
0000
0000
,
0000
0000
0000
0000
,
1001
0000
0000
0000
,
0000
0000
0001
0000
,
0000
0000
0001
0000
,
0000
0000
0000
0000
,
0000
0000
1000
0000
,
0000
0000
1000
0000
,
0000
0000
0000
0000
,
0000
0000
0000
0000
,
0000
0000
0010
0000
,
0000
0000
0010
0000
,
0000
0000
0000
0000
,
0000
0000
0000
0000
,
0000
0000
0100
0000
,
0000
0000
0100
0000
,
0000
0000
0000
0000
,
0000
0000
0000
0000
,
0002
0000
0000
0000
,
0000
0000
0000
0000
,
1003
0000
0000
0000
,
0000
0000
0000
0000
,
1000
0000
0000
0000
,
0000
0000
0000
0000
,
0100
0000
0000
0000
,
0000
0000
0000
0000
,
0000
0000
0000
0000
,
0000
0000
0000
0000
,
0010
0000
0000
0000
,
0000
0000
0000
0000
,
0010
0000
0000
0000
,
0000
0000
0000
0000
,
0001
0000
0000
0000
,
0000
0000
0000
0000
,
0000
0000
0000
0000
,
0000
0000
0000
0000
,
1000
0000
0000
0000
,
0000
0000
0000
0000
,
1000
0000
0000
0000
,
0000
0000
0000
0000
,
0001
0000
0000
0000
,
0000
0000
0000
0000
,
0000
0000
0000
0000
,
0000
0000
0000
0000
,
0100
0000
0000
0000
,
0100
0000
0000
0000
,
0010
0000
0000
0000
,
0000
0000
0000
0000
,
1000
0000
0000
0000
,
1000
0000
0000
0000
,
1000
0000
0000
0000
,
0000
0000
0000
0000
,
0002
0000
0000
0000
,
0000
0000
0000
0000
,
0000
0000
0000
0000
,
0000
0000
0000
0000
,
2003
0000
0000
0000
,
0000
0000
0000
0000
,
0000
0000
0000
0000
,
0000
0000
0000
0000
,
3020
0000
0000
0000
,
0000
0000
0000
0000
,
0000
0000
0000
0000
,
0000
0000
0000
0000
,
0230
0000
0000
0000
,
0000
0000
0000
0000
,
0000
0000
0000
0000
,
0000
0000
0000
0000
,
0301
0000
0000
0000
,
0001
0000
0000
0000
,
0001
0000
0000
0000
,
0001
0000
0000
0000
,
1000
0000
0000
0000
,
1000
0000
0000
0000
,
1000
0000
0000
0000
,
1000
0000
0000
0000
,
0010
0000
0000
0000
,
0010
0000
0000
0000
,
0010
0000
0000
0000
,
0100
0000
0000
0000
,
0001
2000
0000
0000
,
3001
0000
0000
0000
,
0001
0000
0000
0000
,
0001
0000
0000
0000
,
0100
0000
0000
0000
,
0100
0000
0000
0000
,
0010
0000
0000
0000
,
1000
0000
0000
0000
,
0001
0000
0000
0000
,
1001
0000
0000
0000
,
0001
0000
0000
0000
,
0001
0000
0000
0000
,
1000
0000
0000
0000
,
0001
0000
0000
0000
,
0100
0000
0000
0000
,
0001
0000
0000
0000
,
0100
0000
0000
0000
,
1001
0000
0000
0000
,
0001
0000
0000
0000
,
0010
0000
0000
0000
,
0001
0000
0000
0000
,
0010
0000
0000
0000
,
0001
0000
0000
0000
,
1000
0000
0000
0000
,
0010
0000
0000
0000
,
1001
0000
1001
0000
,
1001
0000
0000
0000
,
0110
0000
0110
0000
,
0110
0000
0000
0000
,
0100
0000
0000
0000
,
0001
0000
0000
0000
,
0100
0000
0000
0000
,
0000
0000
0000
0000
,
0010
0000
0000
0000
,
1000
0000
0000
0000
,
0010
0000
0000
0000
,
0000
0000
0000
0000
,
2000
0000
0000
0000
,
0000
0000
0000
0000
,
3001
0000
0000
0000
,
0000
0000
0000
0000
,
0002
0000
0000
0000
,
0000
0000
0000
0000
,
2000
0000
0000
0000
,
0000
0000
0000
3003
0000
0000
0000
0000
;

//---------------dance-single - ----------------
#NOTES:
     dance-single:
     :
     Medium:
     10:
     0.430,0.868,0.133,0.233,0.011:
0000
0000
0000
0000
,
0000
0000
0000
0000
,
0000
0000
0000
0000
,
0000
0000
0000
0000
,
0000
0000
0000
0000
,
0000
0000
0000
0000
,
0000
0000
0000
0000
,
0000
0000
0000
0000
,
1001
0000
0000
0000
,
0000
0000
0001
0000
,
0000
0000
1000
0000
,
0000
0010
0000
0010
,
1000
0000
0010
0000
,
0000
0000
0100
0000
,
0000
0000
0001
0000
,
0000
0100
0000
0100
,
0001
0000
0101
0000
,
0000
0000
0001
0000
,
0000
0000
1000
0000
,
0000
1000
0000
1000
,
0010
0000
0010
0000
,
0000
0000
0100
0000
,
0000
0000
0010
0000
,
1000
0001
1000
0000
,
0001
1000
0001
1000
0000
0001
0000
1000
,
0001
1000
0001
1000
,
1010
0000
0000
0000
,
0100
0000
0000
0100
,
0010
0000
0000
0010
,
0100
0010
0000
0100
,
0000
0002
0000
0000
,
0000
0000
0000
0000
,
0000
0000
1003
0000
,
0001
1000
0000
2000
,
0000
0000
0000
3010
,
0100
0000
0000
0100
,
0001
0000
0000
0100
,
0001
0100
0000
0010
,
0000
2000
0000
0000
,
0000
0000
0000
0000
,
0000
0000
3001
0000
,
1000
0001
0000
0002
,
0000
0000
0000
0103
,
0010
0000
0000
0100
,
0100
0000
0000
0010
,
0100
0010
0000
1000
,
0000
0020
0000
0000
,
0000
0000
0000
0000
,
0000
0000
0130
0000
,
0001
0100
0000
0002
,
0000
0000
0000
0013
,
0001
0000
0000
1000
,
0001
0000
0000
1000
,
0010
1000
0000
0010
,
0000
1000
0100
0010
,
0100
0010
0100
0010
,
0000
1000
0100
0010
,
0001
0100
0000
0010
,
0000
0000
2000
0000
,
0000
0000
0001
0000
,
0000
0000
0001
3000
,
0100
0001
0000
0100
,
0000
0000
0002
0000
,
0000
0000
0100
0000
,
0000
0000
0010
0000
,
0000
1003
0000
0010
,
1000
0000
0020
0000
,
0000
0000
0100
0000
,
0000
0000
1000
0000
,
0000
0001
0000
0130
,
0100
0000
0200
0000
,
0000
0000
0000
0000
,
0000
0000
0000
0000
,
0000
0000
0000
0000
,
0301
0000
1000
0000
,
0001
0000
1000
0000
,
0010
0000
0100
0000
,
0010
0100
0000
0010
,
0000
0000
0100
0000
,
0001
0000
1000
0000
,
0100
0000
0010
0000
,
0100
0010
0000
0100
,
0000
0000
0001
0000
,
0100
0000
1000
0000
,
0000
0000
1000
0001
,
1000
0000
0000
0001
,
0000
0000
0100
0000
0010
0000
1000
0010
1000
0000
0010
0100
0000
0000
0100
0000
,
1001
0000
0100
0000
,
0010
0000
0100
0010
,
0000
0100
0000
1000
,
0100
0010
0001
0100
,
0000
0000
0020
0000
,
0000
2030
0000
0000
,
3001
0100
0000
0001
,
0000
0000
1000
0000
,
0010
0000
0100
0000
,
0010
0000
1000
0100
,
0000
0010
0000
0100
,
0010
0100
0010
0001
,
0000
0000
0200
0000
,
0000
0320
0000
0000
,
0032
0000
0000
0010
,
0003
0000
1000
0000
,
0110
0000
1000
0000
,
0100
0000
0010
0100
,
0000
2000
0000
3100
,
0010
0100
0010
0100
,
0000
0000
0002
0000
,
0000
0023
0000
0000
,
0230
0000
0000
2300
,
0000
0000
3010
0000
,
0110
0000
0000
0010
0100
0000
0000
1000
,
0100
0000
0000
0010
0001
0000
0000
0100
,
0000
0010
0100
0010
0100
0000
1000
0100
,
0000
0010
0100
0010
0100
0001
0000
0100
,
0000
0000
0010
0000
,
1000
0000
0100
0010
,
0000
0002
0000
0000
,
0000
0000
0000
0000
,
0000
0000
1003
0000
,
0010
0000
1000
0010
,
0000
0100
0000
0010
,
0000
0100
0000
0000
,
1100
0000
0000
0110
,
0000
0000
0011
0000
,
0000
0110
0000
0000
,
1100
0000
1000
0000
,
0110
0000
0000
0100
,
0000
0000
0000
0001
,
0000
1000
0000
0001
,
0000
1000
0000
0000
;
