#TITLE:S・M・L☆;
#SUBTITLE:俺の脳内選択肢が、学園ラブコメを全力で邪魔している OP;
#ARTIST:アフィリア・サーガ;
#TITLETRANSLIT:S.M.L;
#SUBTITLETRANSLIT:Ore no Nounai Sentakushi ga, Gakuen Love Comedy wo Zenryoku de Jama Shiteiru OP;
#ARTISTTRANSLIT:Afilia Saga;
#GENRE:SWEET MELTY POP;
#CREDIT:;
#BANNER:S.M.L.png;
#BACKGROUND:S.M.L-bg.png;
#LYRICSPATH:;
#CDTITLE:cdtitle.png;
#MUSIC:S.M.L.mp3;
#OFFSET:-0.099;
#SAMPLESTART:38.464;
#SAMPLELENGTH:12.000;
#SELECTABLE:YES;
#BPMS:0.000=200.000;
#STOPS:;
#BGCHANGES:;

//---------------dance-single - ----------------
#NOTES:
     dance-single:
     :
     Hard:
     12:
     0.663,0.745,0.515,0.291,0.022: // measure 1
0000
0000
0000
0000
,  // measure 2
0000
0000
0000
0000
,  // measure 3
0000
0000
0000
0000
,  // measure 4
0000
0000
0000
0000
,  // measure 5
1000
0000
0100
0000
1000
0000
0001
0010
,  // measure 6
0000
0001
1000
0010
1000
0000
0010
0000
,  // measure 7
0100
0010
0100
0010
0000
1000
0001
1000
,  // measure 8
0000
0001
1000
0001
1000
0000
0110
0000
,  // measure 9
0020
1030
0200
0310
,  // measure 10
0002
0013
0200
1300
,  // measure 11
0002
0000
0100
0000
0000
0000
1003
0001
,  // measure 12
0100
0000
0001
0100
0000
0010
1000
0000
,  // measure 13
0001
0000
0010
0000
0001
1000
0100
0000
,  // measure 14
1000
0000
0001
0000
0100
0010
0100
0000
,  // measure 15
0001
0000
1000
0000
0010
0100
0010
1000
,  // measure 16
0001
1000
0001
1000
0000
0001
0100
0000
,  // measure 17
0001
0010
1000
0010
,  // measure 18
0001
0000
0100
0000
1000
0000
0100
0010
,  // measure 19
0100
0000
0001
0000
1000
0000
0010
1000
,  // measure 20
0100
0000
0010
0001
0000
0100
0010
0000
,  // measure 21
1000
0000
0100
0000
0001
1000
0100
0000
,  // measure 22
0020
0032
0203
0310
,  // measure 23
2100
3001
0012
1003
,  // measure 24
0101
1001
1100
1001
,  // measure 25
1000
0000
0001
0010
0001
0000
0100
0000
,  // measure 26
0011
0011
1100
1100
,  // measure 27
0001
0000
1000
0100
1000
0000
0010
0000
,  // measure 28
0101
0101
1010
1010
,  // measure 29
1000
1100
0000
0000
0010
0011
0000
0000
,  // measure 30
0001
0101
0000
0000
1000
1010
0000
0000
,  // measure 31
1000
0001
1000
0000
0010
0100
0010
0000
,  // measure 32
1100
0000
0100
0000
0010
0000
0011
0000
0000
1001
0000
0000
,  // measure 33
2100
0000
3001
0000
1000
0001
1000
0000
,  // measure 34
0010
0100
0010
1000
0001
1000
0001
1000
,  // measure 35
2000
0100
0001
0010
,  // measure 36
3002
0010
1000
0100
,  // measure 37
1003
0000
0001
0010
0001
0000
1000
0100
,  // measure 38
0000
0000
1000
0000
0010
0100
0001
0000
,  // measure 39
0001
0000
0010
0000
0001
0100
0010
0100
,  // measure 40
0101
0101
1010
1010
,  // measure 41
0012
0000
1003
0000
0001
1000
0001
0000
,  // measure 42
1000
0100
0010
0001
0010
0100
1000
0001
,  // measure 43
0002
0010
1000
0100
,  // measure 44
2003
0000
0010
0000
3001
0000
0100
0001
,  // measure 45
1000
0000
0010
0000
0100
0000
0010
0100
,  // measure 46
0000
0000
0010
0100
0010
0000
1000
0000
,  // measure 47
0001
1000
0001
0000
1000
0100
0010
0001
,  // measure 48
1000
0100
0010
0000
0001
0010
0100
0000
,  // measure 49
1100
0000
0110
0000
0011
0000
0001
1000
,  // measure 50
0000
0001
1000
0001
1000
0000
0001
0000
,  // measure 51
0011
0000
0110
0000
1100
0000
0100
0010
,  // measure 52
0100
1000
2000
3001
,  // measure 53
0100
0000
0010
0000
0100
0000
0001
0010
,  // measure 54
0000
0001
0100
0000
0010
0000
1000
0000
,  // measure 55
1000
0001
0010
0100
0010
0001
0010
0100
,  // measure 56
1000
0000
0000
0010
0000
0000
0100
0000
0000
0000
0000
0000
1000
0000
0000
0000
0100
0000
0000
0000
0010
0000
0000
0000
,  // measure 57
0100
0000
0001
0000
0010
0000
0100
1000
,  // measure 58
0000
0001
0010
0100
1000
0000
0100
0000
,  // measure 59
1000
0001
0100
0000
0001
1000
0000
0001
,  // measure 60
1000
1000
0100
0000
0010
0000
0100
0000
,  // measure 61
0012
0000
1000
1003
,  // measure 62
0002
0000
0013
0200
0000
0000
1300
0000
,  // measure 63
2100
3100
0012
0013
,  // measure 64
2010
3010
0102
0103
,  // measure 65
1100
0000
0011
0000
0100
0010
0100
0000
,  // measure 66
0001
0010
0100
1000
0000
1000
0100
0000
,  // measure 67
1000
0010
1000
0000
0001
0100
0001
0000
,  // measure 68
1000
0100
0010
0001
0000
0001
0010
0000
,  // measure 69
0011
0000
1100
0000
0010
1000
0010
0000
,  // measure 70
0100
0010
0001
0010
0000
0100
0010
0000
,  // measure 71
1100
0000
0011
0000
0001
0010
0001
0000
,  // measure 72
1000
0100
0010
0001
0000
1000
0010
0000
,  // measure 73
2002
0000
0000
0000
,  // measure 74
0000
0000
0000
0000
,  // measure 75
3003
0000
0000
0000
;

//---------------dance-single - ----------------
#NOTES:
     dance-single:
     :
     Challenge:
     18:
     1.000,1.000,1.000,0.403,0.397:
0000
0000
0000
0000
,
0000
0000
0000
0000
,
0000
0000
0000
0000
,
0000
0000
0000
0000
,
1100
0000
0011
0000
0102
1000
0010
1003
,
0000
2100
0001
0010
3001
0000
0001
0000
,
1100
0010
0100
0101
0000
0101
1010
0110
,
0000
0000
0001
1000
0100
1000
0001
0100
0001
0000
0000
0000
1001
0000
1000
0001
,
0100
0010
1000
0001
0100
1000
0010
0100
,
0001
0010
0100
1000
0010
0001
0001
0010
,
0002
0000
0000
0000
0100
0000
0000
0000
1000
0000
0000
0000
1003
0001
0010
0001
,
0100
0000
1000
0000
0010
0000
0001
0000
0100
0000
1000
0100
0010
0000
0100
0001
,
1000
0000
0001
0000
0100
0000
1000
0000
0010
0000
0100
0000
0001
0000
1000
0100
,
0010
0000
0001
0000
0100
0000
0010
0000
1000
0000
0010
0000
0100
0000
1000
0010
,
0001
0000
0010
0000
1000
0000
0001
0000
0010
0000
0100
0000
0010
0001
0100
0000
,
1001
1010
0110
0101
0000
0012
0010
0000
,
0103
0001
1100
0010
1000
0001
0011
0100
,
0001
1000
0110
1000
0010
0100
1100
0100
,
0001
1000
0110
0100
0010
0100
0101
1000
,
0100
0000
0001
0000
0110
0000
0010
0000
0010
0000
0001
0000
0110
0000
0001
0100
,
1000
0100
0101
1000
0100
1000
0101
0100
,
0001
0100
0110
0010
0100
0010
0110
0010
,
0100
0010
1100
0001
1000
0100
0101
0010
,
2000
0100
0000
0000
3200
0010
0000
0000
0320
0001
0000
0000
0032
0100
0000
0000
,
1003
0000
1000
0001
0110
1000
0010
0100
,
0001
1000
0001
0000
0100
0010
0100
0000
0010
0001
0010
1000
0010
1000
0010
0000
,
1001
0001
0100
1000
0110
0100
0001
0100
,
1100
0100
0110
0010
0110
0100
0101
0001
,
1001
1001
0001
0100
0101
0101
0001
0010
,
0110
0110
0100
1000
1100
1100
1001
0000
,
1000
0100
0010
0100
0010
0001
0010
0100
0010
0100
1000
0100
0010
0000
0000
0000
,
1100
0000
0011
0000
1100
0000
0101
0000
0000
1001
0000
0000
,
0102
0000
1003
1000
0011
0101
1010
0000
,
2100
0000
0000
0000
3100
0000
0100
0010
0001
0000
1000
0000
0101
0000
0010
0000
,
2100
0000
3200
0010
0320
0000
0032
1000
,
1003
0000
0001
0000
1000
0000
0010
0001
0100
0000
0001
1000
0100
0000
1000
0001
,
0100
0010
0110
1000
0010
0100
0101
1000
,
0010
0001
0110
0010
1000
0100
0011
1000
,
0002
0000
0100
0000
1000
0013
0100
0010
,
0002
0010
0000
0000
0023
0100
0000
0000
0230
1000
0000
0000
2300
0100
0000
0000
,
3100
0000
0001
0000
0100
0000
1000
0000
0001
0000
0010
0000
0100
0000
1000
0001
,
0200
0000
0310
0010
0101
1100
0011
0000
,
1020
0000
0000
0000
1030
0000
1000
0001
0100
0000
0010
0000
1100
0000
0001
0000
,
1020
0000
0000
0000
2030
0000
0001
0000
3002
0000
0000
0000
0013
0000
0100
0001
,
1000
0000
0100
0000
0010
0000
1000
0100
0001
0000
0010
0100
1000
0000
0100
1000
,
0020
1000
2030
0010
3020
0100
0130
0100
,
1000
0100
1000
0000
0010
0100
0010
0000
0100
0010
0100
0000
0001
0100
0001
0000
,
0110
0001
1100
0010
0101
0001
1010
0100
,
2100
0000
0000
0000
3002
0100
0000
0000
0013
0000
1000
0000
0001
0100
1000
0000
,
0000
0000
0001
0010
1000
0010
0100
0000
1010
0000
0101
0000
0110
0000
0000
0000
,
0011
0000
0001
0000
1100
0000
1000
0000
0110
0000
0001
0000
0010
1000
0001
0000
,
1000
0000
0001
0000
0100
0000
0010
0000
0100
0000
0001
0000
0001
0000
0010
0100
,
2000
0100
3200
0010
0320
0001
0032
0200
,
0003
0000
0301
0000
1000
0000
0100
0000
1000
0000
0001
0010
0100
0000
1000
0001
,
0010
1001
0100
0001
1000
0110
0001
1000
,
0010
0000
0000
1000
0000
0000
0001
0000
0000
0100
0000
0000
1000
0000
1000
0000
0100
0000
0010
0000
0010
0000
0001
0000
,
0100
0000
0010
0000
1000
0000
0100
0000
0110
0000
1000
0000
0001
0000
0100
1000
,
0010
0000
0001
0000
0100
0001
1000
0000
0101
0000
1000
0000
0010
0000
0100
0000
,
0101
0010
0100
1100
0110
0100
0001
0110
,
0001
0100
0001
1000
1100
1000
0110
0100
,
0101
1000
0100
0001
0011
0001
1000
0001
,
0110
0010
0001
0010
1100
0100
0010
0001
,
1100
0100
0010
1000
0101
0001
0100
0010
,
0101
0010
1000
0001
1010
0100
0010
0001
,
1100
0000
0011
0000
0110
1100
0110
0000
,
0011
1010
0101
1100
0000
1100
1010
0000
,
0110
1010
0110
0000
1001
0110
0011
0000
,
0101
0110
1001
1100
0000
1001
0011
0000
,
0001
1000
0001
0100
0010
0000
0000
0000
0110
0000
0101
0000
0110
0000
0000
0000
,
0100
0001
0010
0100
1000
0001
1000
0000
0000
0000
1100
0000
0101
0000
0000
0000
,
0001
1000
0001
1000
0001
0000
0000
0000
0010
0100
0010
0100
0010
0000
0000
0000
,
1100
0000
0100
0001
0010
0000
0011
0000
0000
0000
1001
0000
0110
0000
0000
0000
,
2002
0000
0000
0000
,
0000
0000
0000
0000
,
3003
0000
0000
0000
;

//---------------dance-single - ----------------
#NOTES:
     dance-single:
     :
     Beginner:
     5:
     0.237,0.322,0.011,0.045,0.000:
0000
0000
0000
0000
,
0000
0000
0000
0000
,
0000
0000
0000
0000
,
0000
0000
0000
0000
,
0001
0000
0001
0000
,
1000
0000
0001
0000
,
1000
0000
0000
0000
,
0001
0000
0000
0000
,
0100
0000
0100
0000
,
0100
0000
0010
0000
,
0010
0000
0000
0000
,
0001
0000
0001
0000
,
0001
0000
1000
0000
,
1000
0000
1000
0000
,
2000
0000
0000
0000
,
3001
0000
0000
0000
,
0001
0000
0001
0000
,
0001
0000
0001
0000
,
0001
0000
0000
0000
,
0100
0000
0100
0000
,
0100
0000
0010
0000
,
0010
0000
0010
0000
,
1000
0000
1000
0000
,
0001
1000
0001
1000
,
0001
0000
0001
0000
,
1000
1000
1000
1000
,
0001
0000
0001
0000
,
1000
1000
1000
1000
,
0001
0000
0001
0000
,
0001
0000
0001
0000
,
0200
0000
0000
0000
,
0310
0000
0000
0000
,
0010
0000
0010
0000
,
0100
0000
0100
0000
,
0001
0000
0001
0000
,
1000
0000
0010
0000
,
0100
0000
0001
0000
,
0001
0000
1000
0000
,
0002
0000
0000
0000
,
1003
0000
1000
0000
,
1000
0000
0001
0000
,
0100
0000
0001
0000
,
0100
0000
0010
0000
,
0001
0000
0010
0000
,
0100
0000
1000
0000
,
0001
0000
1000
0000
,
0001
0000
0001
0000
,
1000
1000
1000
1000
,
0001
0000
0001
0000
,
0001
0000
0001
0000
,
0010
0000
0010
0000
,
0010
0000
0010
0000
,
0100
0000
0100
0000
,
0100
0000
0100
0000
,
1000
0000
1000
0000
,
0001
0000
0002
0000
,
0003
0000
0001
0000
,
0001
0000
1000
0000
,
1000
0000
0001
0000
,
1000
0000
0001
0000
,
0100
0000
0010
0000
,
0100
0000
0010
0000
,
1000
0000
1000
0000
,
0001
0000
0001
0000
,
1000
1000
1000
0000
,
0001
0001
0001
0000
,
0100
0100
0100
0000
,
0001
0001
0001
0000
,
0010
0010
0010
0000
,
0001
0001
0001
0000
,
1000
1000
1000
0000
,
0010
0010
0010
0000
,
1001
0000
0000
0000
;

//---------------dance-single - ----------------
#NOTES:
     dance-single:
     :
     Easy:
     7:
     0.356,0.414,0.056,0.157,0.000:
0000
0000
0000
0000
,
0000
0000
0000
0000
,
0000
0000
0000
0000
,
0000
0000
0000
0000
,
1000
0100
1000
0100
,
0010
0001
0010
0001
,
1000
0000
0000
0001
0000
0000
0000
0001
,
0000
1000
0100
0000
,
0010
0001
1000
0100
,
1000
0100
0001
0010
,
0002
0000
1000
0000
,
1003
0000
0000
0001
0000
0000
1000
0000
,
0010
0000
1000
0001
,
0010
0100
0001
1000
,
0002
0000
1000
0000
,
1003
0000
0001
0000
0000
0100
0000
0000
,
0001
0010
0001
1000
,
0010
1000
0100
0010
,
0001
0000
0000
0001
,
0010
0000
0000
0010
0000
0000
0010
0000
,
0010
0000
0100
1000
,
0100
0010
0001
0001
,
2000
0000
3002
0000
,
0103
0010
0100
0010
,
0100
0000
1000
0000
,
0100
0001
0001
0001
,
0100
0000
0001
0000
,
1000
0100
1000
0001
,
1001
0000
1001
0000
,
0110
0000
0110
0000
,
2000
0000
0000
0000
,
3001
0000
1000
0000
,
0001
0000
1000
0000
,
1000
0100
0010
0001
,
0100
0000
1000
0100
,
0020
0000
2030
0000
,
3002
0000
1000
0000
,
1003
0000
1000
0000
,
2000
0000
0000
0000
,
3001
1000
0001
1000
,
0010
0000
0010
0000
,
0100
0001
0100
0001
,
2000
0000
3001
0000
,
0200
0000
0301
0000
,
2000
0000
3001
0000
,
0100
0000
1000
0000
,
0100
0000
0010
0000
,
1000
0001
0010
0001
,
1000
1000
0001
0000
,
0001
0001
0100
0010
,
1000
1000
0001
0000
,
0100
0000
0010
0001
,
0010
0001
0100
0000
,
1000
0100
1000
0000
,
0010
0001
0010
0100
,
1000
1000
0001
0000
,
1000
1000
0010
0000
,
0100
0010
0100
0000
,
0001
0010
0001
0000
,
1000
0100
1000
0000
,
0010
0000
0000
0000
,
0100
0000
0010
0000
,
1000
0010
1000
0100
,
0010
0001
0001
0000
,
1000
0100
1000
1000
,
0010
1000
0001
0100
,
0010
1000
1000
1000
,
0010
0100
0001
0001
,
0100
0010
0100
0001
,
0010
0010
0100
0001
,
0100
0100
0010
0010
,
0001
0010
1000
0010
,
2002
0000
0000
0000
,
0000
0000
0000
0000
,
0003
3000
0000
0000
0000
0000
0000
0000
0000
0000
0000
0000
0000
0000
0000
0000
0000
0000
0000
0000
0000
0000
0000
0000
0000
0000
0000
0000
0000
0000
0000
0000
0000
0000
0000
0000
0000
0000
0000
0000
0000
0000
0000
0000
0000
0000
0000
0000
0000
0000
0000
0000
0000
0000
0000
0000
0000
0000
0000
0000
0000
0000
0000
0000
0000
0000
0000
0000
0000
0000
0000
0000
0000
0000
0000
0000
0000
0000
0000
0000
0000
0000
0000
0000
0000
0000
0000
0000
0000
0000
0000
0000
0000
0000
0000
0000
0000
0000
0000
0000
0000
0000
0000
0000
0000
0000
0000
0000
0000
0000
0000
0000
0000
0000
0000
0000
0000
0000
0000
0000
0000
0000
0000
0000
0000
0000
0000
0000
0000
0000
0000
0000
0000
0000
0000
0000
0000
0000
0000
0000
0000
0000
0000
0000
0000
0000
0000
0000
0000
0000
0000
0000
0000
0000
0000
0000
0000
0000
0000
0000
0000
0000
0000
0000
0000
0000
0000
0000
0000
0000
0000
0000
0000
0000
0000
0000
0000
0000
0000
0000
0000
0000
0000
0000
0000
0000
0000
0000
0000
0000
0000
0000
;

//---------------dance-single - ----------------
#NOTES:
     dance-single:
     :
     Medium:
     10:
     0.475,0.579,0.101,0.313,0.011: // measure 1
0000
0000
0000
0000
,  // measure 2
0000
0000
0000
0000
,  // measure 3
0000
0000
0000
0000
,  // measure 4
0000
0000
0000
0000
,  // measure 5
1000
0000
0010
0000
1000
0000
0001
0100
,  // measure 6
0000
0100
0000
0100
0001
0000
0100
0000
,  // measure 7
0010
0100
0010
0100
0000
0001
0100
0001
,  // measure 8
0000
1000
0100
1000
0100
0000
0110
0000
,  // measure 9
0000
0100
0010
0001
,  // measure 10
1000
0001
0100
0010
,  // measure 11
0001
0000
0000
0000
0000
0000
1000
0001
,  // measure 12
0010
0000
0000
0010
0000
0000
0010
0000
,  // measure 13
0100
0000
1000
0100
,  // measure 14
0010
0001
0100
0010
,  // measure 15
2000
0000
0000
0000
3000
0001
1000
0002
,  // measure 16
0000
0000
0000
0003
0000
0000
0000
0000
,  // measure 17
1000
0100
0010
0001
,  // measure 18
0100
0000
0010
0000
0001
0000
1000
0200
,  // measure 19
0000
0000
0300
0001
,  // measure 20
0200
0000
0000
0320
0000
0000
1030
0000
,  // measure 21
0100
0000
0010
0001
,  // measure 22
1000
0001
0010
0001
,  // measure 23
0002
0000
2003
0000
,  // measure 24
3010
1000
1010
1001
,  // measure 25
0000
1000
0100
0010
,  // measure 26
0001
0001
0010
0101
,  // measure 27
0000
1000
0100
0010
,  // measure 28
1100
1100
0101
0101
,  // measure 29
0010
1000
0000
0000
1000
0010
0000
0000
,  // measure 30
0100
0001
0000
0000
0001
0100
0000
0000
,  // measure 31
0001
0100
0010
1000
,  // measure 32
1000
0000
0001
0000
1000
0000
0001
0000
0000
0001
0000
0000
,  // measure 33
0010
0000
1000
0000
,  // measure 34
0010
0001
0100
0001
,  // measure 35
0002
0000
1003
0010
,  // measure 36
0020
0000
2030
0000
,  // measure 37
3002
0000
0000
1003
0100
0000
0010
0001
,  // measure 38
0000
0000
1000
0100
,  // measure 39
0020
0000
0000
0000
0000
1030
0010
2000
,  // measure 40
0001
0001
0001
0100
,  // measure 41
3001
0000
0100
0000
,  // measure 42
0001
1000
0100
0010
,  // measure 43
0002
0000
0000
1003
,  // measure 44
0020
0000
0230
0000
,  // measure 45
0302
0000
0000
1003
0001
0000
1000
0001
,  // measure 46
0000
1000
0100
0010
,  // measure 47
0200
0000
0000
0000
0000
0301
0200
1000
,  // measure 48
1000
1000
1000
1000
,  // measure 49
1300
0000
0100
0000
0010
0000
0001
0010
,  // measure 50
0000
0010
0000
0010
0001
0000
0100
0000
,  // measure 51
0010
0000
1000
0000
0100
0000
0001
0100
,  // measure 52
0000
0000
0010
0010
,  // measure 53
1000
0000
0010
0000
0100
0000
0001
1000
,  // measure 54
0000
1000
0001
0100
,  // measure 55
0010
0000
1000
0000
0001
0000
0001
1000
,  // measure 56
0000
0001
2000
0000
,  // measure 57
3001
0000
0100
0000
0010
0000
1000
0001
,  // measure 58
0000
1000
0001
1000
0001
0000
0100
0000
,  // measure 59
0010
0000
0001
0000
0100
0000
0001
0100
,  // measure 60
0000
0001
0010
0100
,  // measure 61
1000
0000
0000
1000
,  // measure 62
0002
0000
0000
2003
0000
0000
3001
0000
,  // measure 63
0200
0000
0320
0000
,  // measure 64
2030
0000
0000
0000
3002
0000
0000
0003
,  // measure 65
1000
0000
0100
0000
1000
0100
1000
0000
,  // measure 66
0001
0010
0001
0010
0000
0100
1000
0000
,  // measure 67
0100
0010
0100
0000
1000
0100
1000
0000
,  // measure 68
0010
0100
0010
0100
0000
0001
0100
0000
,  // measure 69
0010
0001
0010
0000
0100
0010
0100
0000
,  // measure 70
0010
0001
0010
0001
0000
1000
0100
0000
,  // measure 71
0010
0001
0010
0000
1000
0100
1000
0000
,  // measure 72
0010
0001
0010
0001
0000
1000
0100
0000
,  // measure 73
2002
0000
0000
0000
,  // measure 74
0000
0000
0000
0000
,  // measure 75
3003
0000
0000
0000
;
