#TITLE:S・M・L☆ (GROOVE RADAR Special);
#SUBTITLE:俺の脳内選択肢が、学園ラブコメを全力で邪魔している OP;
#ARTIST:アフィリア・サーガ;
#TITLETRANSLIT:S.M.L. (GROOVE RADAR Special);
#SUBTITLETRANSLIT:Ore no Nounai Sentakushi ga, Gakuen Love Comedy wo Zenryoku de Jama Shiteiru OP;
#ARTISTTRANSLIT:Afilia Saga;
#GENRE:SWEET MELTY POP;
#CREDIT:;
#BANNER:S.M.L. (GROOVE RADAR Special).png;
#BACKGROUND:S.M.L. (GROOVE RADAR Special)-bg.png;
#LYRICSPATH:;
#CDTITLE:cdtitle.png;
#MUSIC:S.M.L. (GROOVE RADAR Special).mp3;
#MENUCOLOR:1,1,1,1;
#METERTYPE:DDR X;
#OFFSET:-0.099;
#SAMPLESTART:38.464;
#SAMPLELENGTH:12.000;
#SELECTABLE:YES;
#BPMS:0.000=200.000,112.500=100.000,113.000=200.000,114.000=100.000,114.500=200.000,115.500=100.000,116.000=200.000,117.000=100.000,117.500=200.000,122.000=300.000,126.500=200.000,223.000=50.000,227.000=200.000,242.000=100.000,242.250=200.000,242.750=400.000,306.750=100.000;
#STOPS:126.500=0.150
;
#BGCHANGES:;

//---------------dance-single - ----------------
#NOTES:
     dance-single:
     :
     Challenge:
     18:
     1.000,1.000,1.000,1.000,1.000: // measure 1
0000
0000
0000
0000
,  // measure 2
0000
0000
0000
0000
,  // measure 3
0000
0000
0000
0000
,  // measure 4
0000
0000
0000
0000
,  // measure 5
2200
0300
0002
3003
0102
1000
0010
2000
,  // measure 6
3003
2100
0001
0010
3001
1001
1001
0000
,  // measure 7
1100
0011
1010
0101
0000
0101
1010
0110
,  // measure 8
0000
0000
1000
0100
0010
0001
0010
0100
1000
0000
0000
0000
1001
0000
1000
0001
,  // measure 9
0100
0010
1000
0001
0100
1000
0100
0100
,  // measure 10
0001
0010
0100
1000
0010
0001
0010
1000
,  // measure 11
0002
0000
0000
0000
0100
0000
0000
0000
1000
0000
0000
0000
1003
0001
1000
0001
,  // measure 12
0010
0000
1000
0000
0010
0000
0001
0000
0100
0000
1000
0100
0010
0000
0100
0001
,  // measure 13
1000
0001
0100
1000
1020
0100
0230
0001
,  // measure 14
0302
0000
0100
0000
0103
0000
0010
0000
1000
0000
0010
0000
0100
0000
1000
0100
,  // measure 15
0001
0000
0010
0000
1000
0000
0001
0000
0100
0000
0100
0000
0010
0001
0100
0000
,  // measure 16
1001
1010
0110
0101
0000
0012
0020
0033
,  // measure 17
0000
0000
1100
0010
1000
0001
0011
0100
,  // measure 18
0001
1000
0110
1000
0010
0100
1100
0100
,  // measure 19
2100
0000
0010
0000
0010
3001
0101
1000
,  // measure 20
0100
0000
0001
0000
0110
0000
0010
0000
0010
0000
0001
0000
0110
0000
0001
0100
,  // measure 21
1000
0000
0000
0000
0110
1000
0101
0100
,  // measure 22
0011
0100
1100
0010
0101
0010
1010
0010
,  // measure 23
0210
0010
0002
0303
1002
0100
0200
0303
,  // measure 24
2000
0100
0000
0000
3200
0010
0000
0000
0320
0001
0000
0000
0032
0100
0000
0000
,  // measure 25
1003
0000
1000
0001
0110
1000
0010
0100
,  // measure 26
0001
1000
0001
0000
0100
0010
0100
0000
0010
0001
0010
1000
0010
1000
0010
0000
,  // measure 27
1001
0001
0100
1000
0110
0100
0001
0100
,  // measure 28
1100
0100
0110
0010
0110
0100
0101
0001
,  // measure 29
1001
2002
3003
0101
0202
0303
0110
0220
,  // measure 30
0330
0000
1100
0000
2200
0000
3300
0000
1000
0100
0001
0100
1000
0100
0001
0100
,  // measure 31
1000
0010
0001
0010
1000
0000
0000
0000
1100
0000
0000
0000
0011
0000
0000
0000
,  // measure 32
1100
0000
0101
0000
0000
1001
0102
0000
,  // measure 33
1003
0000
1000
0000
0001
0100
1000
0100
0020
0000
0000
0000
2030
0000
0000
0000
,  // measure 34
3010
0000
0100
0000
0001
0100
1000
0100
0001
0000
0100
0000
2100
0000
0100
0000
,  // measure 35
3200
0010
0320
0001
0032
0013
1000
0001
,  // measure 36
1000
0000
0010
0001
0100
0001
0010
0100
1000
0001
1000
0001
0200
0000
0000
0000
,  // measure 37
0010
0000
0010
0000
1000
0000
1000
0000
0301
0010
0100
0010
0001
0000
0001
0000
,  // measure 38
0110
0010
1001
0110
0011
1000
0002
0010
,  // measure 39
1000
0000
0100
0000
1000
0000
0013
0000
0100
0000
0010
0000
0002
0010
0000
0000
,  // measure 40
0023
0100
0000
0000
0230
1000
0000
0000
2300
0200
3300
0000
0102
0000
0000
0000
,  // measure 41
0103
0000
0001
0000
0001
1000
0010
0001
0010
0000
1000
0001
0200
0000
0000
0000
,  // measure 42
0310
0010
0101
1100
0011
0000
1020
0000
,  // measure 43
0130
0000
0100
0001
0010
0000
0010
0000
1100
0000
0001
0000
1002
0000
0000
0000
,  // measure 44
0023
0000
0031
0000
1002
0000
0000
0000
1003
0000
0100
1000
0100
0000
0100
0000
,  // measure 45
0010
0000
1000
0100
0001
0000
0010
0100
1000
0000
0100
1000
0020
0000
1000
0000
,  // measure 46
2030
0000
0010
0000
3020
0000
0100
0000
0130
0000
0100
0000
1000
0100
1000
0000
,  // measure 47
0100
0010
0100
0000
0001
0010
0100
0000
0010
0100
1000
0000
0220
0000
0330
0000
,  // measure 48
2200
3300
0202
0303
2002
3003
2100
0000
,  // measure 49
3002
0100
0000
0000
0013
0000
1000
0000
0001
0100
1000
0000
0100
0000
0001
0010
,  // measure 50
1000
0010
0100
0000
1010
0000
0101
0000
0110
0000
0000
0000
0011
0000
1001
0000
,  // measure 51
1100
0000
1000
0000
0110
0000
0001
1000
0010
1000
0001
0000
1000
0000
0001
0000
,  // measure 52
0100
0000
0010
0000
0100
0000
0101
0000
0101
0000
0010
0100
2000
0000
0100
0000
,  // measure 53
3200
0010
0320
0001
0032
0200
0003
0301
,  // measure 54
1000
0000
0100
0000
1000
0000
0001
0010
0100
0000
1000
0001
0010
0000
1001
0000
,  // measure 55
0100
0001
1001
0100
0001
1000
0010
1000
,  // measure 56
0001
0000
0000
0000
0000
0000
0100
0000
0000
0000
0000
0000
1100
0000
0000
0000
1000
0000
0000
0000
0100
0000
0000
0000
0011
0000
0000
0000
0010
0000
0000
0000
0001
0000
0000
0000
0110
0000
0000
0110
0000
0000
0110
0000
0000
0001
0000
0000
,  // measure 57
1100
0000
1100
0000
1100
0000
0010
0000
0101
0000
0110
0000
1100
0000
0001
0000
1001
0000
1001
0000
1100
0011
1001
0110
1000
0000
0100
0000
1000
0000
0000
0000
,  // measure 58
0001
0010
0001
0000
0001
0100
0001
0010
0100
1000
0100
0000
0010
0100
0010
0000
,  // measure 59
0100
0010
0100
0010
0001
0010
0100
0010
0100
0001
1000
0000
1000
0010
0100
0000
,  // measure 60
0010
0100
0001
0000
0001
1000
0001
0000
0100
0010
0100
0000
0001
0010
0001
0000
,  // measure 61
1000
0100
1000
0000
0010
1000
0100
0010
0002
0000
0003
2200
0000
0000
0000
3300
,  // measure 62
0000
0000
0000
0022
0000
0000
0000
0033
0000
0000
0000
1100
0000
1100
0000
2200
,  // measure 63
0000
3300
0000
0220
0000
0000
0000
0000
0000
0330
0000
0011
0000
0011
0000
0022
,  // measure 64
0000
0033
0000
0101
0000
0000
0000
2200
0000
0000
0000
3300
0000
0000
0000
1100
,  // measure 65
0000
0000
0000
2020
0000
0000
0000
3030
0000
0000
0000
0110
0000
0110
0000
0110
,  // measure 66
0000
0000
0000
0220
0000
0000
0000
0330
0000
0000
0000
1001
0000
1001
0000
1001
,  // measure 67
0000
0000
0000
2002
0000
0000
0000
0000
0000
3003
0000
0001
0000
0100
0000
1000
,  // measure 68
0000
0100
0000
0001
0000
0100
0000
1000
0000
0000
0000
0000
0000
0000
0000
1001
,  // measure 69
0000
0000
0000
0022
0000
0000
0000
0000
0000
0033
0000
0002
0000
0023
0000
2030
,  // measure 70
0000
3020
0000
0032
0000
0103
0000
1000
0000
0100
0000
0002
0000
0013
0000
0200
,  // measure 71
0000
0310
0000
0002
0000
0013
0000
0100
0000
1000
0000
0100
0000
0010
0000
0100
,  // measure 72
0000
1000
0000
0100
0000
0010
0000
1000
0000
0001
0000
0100
0000
1000
0000
0010
,  // measure 73
0000
0100
0000
0001
0000
0010
0000
0001
0000
0100
0000
0010
0000
2000
0000
3100
,  // measure 74
0000
2000
0000
3001
0000
0200
0000
1300
0000
0100
0000
0010
0000
0100
0000
0020
,  // measure 75
0000
0130
0000
0020
0000
0130
0000
0002
0000
0013
0000
1000
0000
0010
0000
0001
,  // measure 76
0000
0100
0000
1000
0000
0100
0000
0001
0000
0100
0000
0010
0000
0000
0000
0110
,  // measure 77
0000
0110
0000
0110
0000
0000
0000
0000
0000
0000
0000
2002
0000
0000
0000
0000
,  // measure 78
0000
0000
0000
0000
0000
0000
0000
0000
0000
0000
0000
3003
0000
0000
0000
0000
;
