#TITLE:Rising Hope;
#SUBTITLE:魔法科高校の劣等生 OP;
#ARTIST:LiSA;
#TITLETRANSLIT:Rising Hope;
#SUBTITLETRANSLIT:Mahouka Koukou no Rettousei OP;
#ARTISTTRANSLIT:LiSA;
#CREDIT:;
#BANNER:Rising Hope.png;
#BACKGROUND:Rising Hope-bg.png;
#LYRICSPATH:;
#CDTITLE:cdtitle.png;
#GENRE:IRREGULAR ROCK;
#MUSIC:Rising Hope.mp3;
#MENUCOLOR:0,0,1,1;
#METERTYPE:DDR X;
#OFFSET:-0.812494;
#SAMPLESTART:58.624;
#SAMPLELENGTH:12.000;
#SELECTABLE:YES;
#BPMS:0.000=190.000;
#STOPS:;
#BGCHANGES:;

//---------------dance-single - ----------------
#NOTES:
     dance-single:
     :
     Hard:
     14:
     0.830,1.000,0.746,0.879,0.167: // measure 1
0000
0000
0000
0000
,  // measure 2
0000
0000
0000
0000
,  // measure 3
2002
0000
0000
0000
,  // measure 4
0000
0000
0000
3003
,  // measure 5
0220
0000
0000
0000
,  // measure 6
0000
0000
0000
0000
0000
0000
0000
0330
1000
0000
0001
0000
1000
0000
0000
0000
,  // measure 7
1002
0023
0230
0320
0032
2003
3020
0230
,  // measure 8
0000
0320
2030
3002
0203
0302
2003
3020
,  // measure 9
2030
3002
0203
2300
3200
0302
0023
2030
,  // measure 10
0000
0000
3020
0000
0032
0000
0023
0000
0032
0000
0013
1000
0010
0000
0100
0000
,  // measure 11
1002
0000
0000
1003
0200
0000
0000
0310
,  // measure 12
1000
0000
0010
0100
0000
2000
0000
0010
,  // measure 13
3010
0000
0100
0010
0000
0001
0000
0010
,  // measure 14
0000
0000
0100
0000
0000
0000
1000
0000
0000
0000
0100
0010
0100
0000
0000
0000
,  // measure 15
0110
0000
0000
0000
1001
0000
0000
0000
0101
0000
0000
0000
1001
0000
0000
1000
,  // measure 16
0100
0000
0000
0001
0010
0000
0000
1000
0010
0000
0000
0100
0001
0000
0000
0001
,  // measure 17
1000
0000
0000
1000
0001
0000
0000
0100
0010
0000
0000
0010
0100
0000
2001
0000
,  // measure 18
0001
0000
0001
0000
0001
0000
0001
3000
0001
0000
0001
0000
1010
0000
1000
0000
,  // measure 19
0000
0001
0000
1000
0100
0000
0001
0100
,  // measure 20
1000
0000
0010
0001
0000
0010
0000
1000
,  // measure 21
0001
0000
0100
0010
0000
0100
0001
0010
,  // measure 22
0000
0000
0010
0000
0100
0000
1000
0000
0100
0000
0010
0000
0001
0000
1000
0001
,  // measure 23
1000
0010
0100
0001
,  // measure 24
1000
1000
1000
0010
0000
0001
0010
0100
,  // measure 25
0001
0000
0000
1000
0001
0000
0000
0100
0001
0000
0000
0010
0001
0000
0001
0000
,  // measure 26
1000
0000
0001
0000
1000
0000
0000
0100
0020
0000
0000
0000
0200
0000
0330
0000
,  // measure 27
1002
0000
0103
0000
1100
2000
0000
0000
,  // measure 28
3020
0000
0000
0230
0000
0000
0302
0000
0200
0000
0003
0000
0020
0000
0330
0000
,  // measure 29
2001
0000
3100
0100
0110
0020
0000
0031
,  // measure 30
1000
0000
0010
0000
0100
0000
0001
0010
0100
0000
0100
0000
0010
0000
0010
0000
,  // measure 31
0012
1000
2000
3000
0000
0103
0100
0100
,  // measure 32
0010
0000
0000
0010
0100
0000
0001
0000
0010
0000
0000
0010
0000
0000
0010
0000
,  // measure 33
0000
0001
0010
0010
0000
1000
0010
0010
,  // measure 34
0000
0000
0100
0000
1000
0000
1000
0100
0001
0000
0000
0000
0110
0000
0000
0000
,  // measure 35
1001
0000
0000
1000
0100
0000
0000
0010
,  // measure 36
0020
0000
0032
0000
0013
0000
0100
0100
,  // measure 37
2000
0000
0000
0100
3100
0000
0000
2000
,  // measure 38
3100
0000
0000
0100
0000
0000
1000
0001
0010
0001
1000
0010
,  // measure 39
1020
0000
0000
1030
0102
0000
0000
0103
,  // measure 40
0210
0000
0000
0000
0010
0000
0000
0000
0302
0000
0000
0000
2000
3003
0000
0000
,  // measure 41
1001
0101
1001
1100
,  // measure 42
0001
0001
0001
0001
0001
0001
0001
0001
,  // measure 43
0000
0000
0000
0000
0000
1000
0100
0010
,  // measure 44
0000
0000
0001
0000
0010
0000
0100
0000
1000
0000
0001
0000
0001
1000
0100
0010
,  // measure 45
0001
1000
1100
1001
0000
0011
0101
1100
,  // measure 46
0000
0010
0100
0100
1100
0000
0001
1000
,  // measure 47
1200
0000
0010
1000
1000
0000
0010
0010
,  // measure 48
0001
0000
0010
0010
0000
1000
0000
1300
,  // measure 49
0102
0000
0010
0010
0100
0000
1000
1000
,  // measure 50
0100
0000
0010
1000
0100
0100
0000
0013
,  // measure 51
1001
2000
3020
0230
,  // measure 52
0302
0000
0023
0000
0230
0000
1300
0101
,  // measure 53
0000
0000
0100
0000
0100
0000
0000
0000
0010
0000
0010
1000
0001
0000
0120
0000
,  // measure 54
0000
0000
0100
0000
2000
3030
0000
0000
0000
0000
0001
0000
0001
0000
1000
0001
,  // measure 55
2000
0000
0100
0010
0100
0000
0010
0010
,  // measure 56
0001
0000
0010
0100
0000
0010
0000
3100
,  // measure 57
1020
0000
0100
0001
0001
0000
0100
1000
,  // measure 58
0100
0000
1000
0100
0000
0130
0000
0100
,  // measure 59
1100
0100
0101
0100
1100
0000
0010
1010
,  // measure 60
0010
0000
0011
0000
0010
0000
1010
0000
0010
0000
0000
1000
0001
0000
0110
0000
,  // measure 61
0000
0000
0000
0000
0001
0000
0000
0000
1000
0000
0000
0000
2002
3000
0000
0000
,  // measure 62
0020
0033
0000
0000
1200
0000
0000
0000
0020
0030
0000
0000
2000
3300
0000
0000
,  // measure 63
1001
0110
0101
1010
,  // measure 64
0110
0101
1001
0110
,  // measure 65
0101
0000
0110
0000
1001
0000
0110
1002
,  // measure 66
0000
0100
0100
0200
0000
0303
0000
1000
,  // measure 67
0100
0000
0001
0100
1000
0000
1100
0000
0000
0000
1100
0000
0000
0000
1100
0000
,  // measure 68
0000
0010
0000
0001
0000
1000
0000
0000
,  // measure 69
2002
3003
0000
0000
1000
0000
1000
0000
1100
0000
0000
0000
0001
0000
0001
0000
,  // measure 70
0101
0000
0110
0000
1001
0001
0001
0101
;

//---------------dance-single - ----------------
#NOTES:
     dance-single:
     :
     Beginner:
     4:
     0.180,0.272,0.056,0.033,0.000:
0000
0000
0000
0000
,
0000
0000
0000
0000
,
1001
0000
0000
0000
,
0000
0000
0000
0000
,
0200
0000
0000
0000
,
0000
0000
0000
0000
,
0310
0000
0000
0000
,
0010
0000
0000
0000
,
1000
0000
0000
0000
,
1000
0000
0000
0000
,
0001
0000
0000
0000
,
0000
0000
0000
0000
,
0100
0000
0000
0000
,
0000
0000
0000
0000
,
0010
0000
0000
0000
,
0010
0000
0000
0000
,
1000
0000
0000
0000
,
0001
0000
0000
0000
,
0000
0000
1000
0000
,
1000
0000
0000
0000
,
0001
0000
0001
0000
,
0001
0000
0000
0000
,
0100
0000
0000
0000
,
0001
0000
0000
0000
,
1000
0000
1000
0000
,
1000
0000
0000
0000
,
1001
0000
0000
0000
,
0010
0000
0000
0000
,
0110
0000
0000
0000
,
0100
0000
0000
0000
,
1001
0000
0000
0000
,
0001
0000
0000
0000
,
1000
0000
0000
0000
,
0001
0000
0000
0000
,
2000
0000
0000
0000
,
0000
0000
0000
0000
,
3002
0000
0000
0000
,
0000
0000
0000
0000
,
0003
0000
0001
0000
,
1000
0000
1000
0000
,
0001
0000
0001
0000
,
1000
0000
0001
0000
,
1000
0000
0000
0000
,
0010
0000
0100
0000
,
0010
0000
0000
0000
,
1000
0000
0001
0000
,
1000
0000
0001
0000
,
1000
1000
1000
0000
,
0010
0000
0100
0000
,
0010
0010
0010
0000
,
0100
0001
1000
0000
,
1000
1000
0001
0000
,
1000
0001
1000
0000
,
0001
1000
0001
0000
,
0100
0100
0010
0000
,
0010
0010
0100
0000
,
0001
0000
1000
0000
,
0001
0000
1000
0000
,
1000
1000
0010
0000
,
0010
0010
0100
0000
,
0100
0000
0001
0000
,
1000
0001
1000
0001
,
1000
1000
1000
0000
,
0001
0001
0001
0000
,
0100
0100
0100
0000
,
0010
0000
0000
0000
,
1000
0000
0000
0000
,
0000
0000
0000
0000
,
1001
0000
0001
0000
,
0001
0000
1000
0001
;

//---------------dance-single - ----------------
#NOTES:
     dance-single:
     :
     Easy:
     6:
     0.337,0.389,0.134,0.145,0.000:
0000
0000
0000
0000
,
0000
0000
0000
0000
,
2002
0000
0000
0000
,
3003
0000
0000
0000
,
0200
0000
0000
0000
,
0000
0000
0310
0100
,
1000
0100
0010
0001
,
0001
1000
0100
0010
,
1000
1000
0001
0001
,
1000
0100
0010
0001
,
1000
0000
0100
0000
,
0010
0000
0001
0000
,
1000
1000
0100
0000
,
0001
0001
0100
0000
,
1000
0100
0010
0001
,
1000
0100
0010
0001
,
1000
0100
0010
0001
,
1001
0000
0000
0000
0000
0000
0000
1000
,
0000
0100
0100
0000
,
0010
0010
0100
0000
,
0001
0010
0100
1000
,
0100
0010
0001
0000
,
1000
0001
1000
0000
,
0001
1000
0001
0000
,
1000
1000
0001
0001
,
1001
0000
0000
0000
,
0210
0000
0010
0000
,
0302
0000
1000
0000
,
2003
0000
0100
0000
,
3020
0000
0100
0000
,
2030
0000
0100
0000
,
3002
0000
0010
0000
,
0203
0000
0010
0000
,
0302
0000
1003
0000
,
1001
0000
0000
0000
,
1000
0000
1000
0000
,
1001
0000
0000
0000
,
0001
0000
0002
0000
,
1003
0100
0010
0000
,
0010
0010
0001
0000
,
0001
0010
0100
1000
,
1000
0100
0010
0001
,
0000
0000
0000
0000
,
1000
0000
0001
0000
,
1000
0000
0000
0100
0000
0010
0000
0001
,
0000
0000
1001
0000
,
1000
0100
0010
0000
,
0010
0001
0010
0100
,
1000
0000
0100
0000
,
0010
0100
0001
0100
,
0000
1000
1000
1000
,
0001
0000
0001
0000
0001
0000
0000
1000
,
0000
0000
0100
0000
0010
0000
0000
0001
,
0000
0100
0000
1000
,
0100
0010
1000
0000
,
0001
0010
0100
1000
,
0001
0000
1000
0000
,
0100
0010
0001
0000
,
1000
1000
0001
0001
,
0100
0000
0100
0000
0010
0000
0000
1000
,
0000
0001
0100
0010
,
0010
0100
0100
0000
,
1100
0100
0100
0000
,
0011
0001
0001
0000
,
1001
0000
1000
0000
1000
0000
0000
1001
,
0000
0000
0000
0100
0000
0000
0000
0000
,
0001
0000
0000
0010
0000
0010
0000
0010
,
0000
0100
0000
1000
0000
0001
0000
0000
,
1001
1000
0100
0010
,
0001
0000
0001
0000
2000
0000
0000
3001
;

//---------------dance-single - ----------------
#NOTES:
     dance-single:
     :
     Medium:
     11:
     0.571,0.700,0.234,0.356,0.017: // measure 1
0000
0000
0000
0000
,  // measure 2
0000
0000
0000
0000
,  // measure 3
2002
0000
0000
0000
,  // measure 4
3000
0000
0000
0000
,  // measure 5
0023
0000
0000
0000
,  // measure 6
0000
0000
0100
0100
,  // measure 7
0130
0010
1000
0000
0010
0000
0100
0001
,  // measure 8
0000
1000
0010
0000
0010
0000
0001
0000
,  // measure 9
1000
0100
1000
0000
0100
0000
0100
0010
,  // measure 10
0000
0100
0001
0000
1000
0100
0010
0001
,  // measure 11
0100
0000
0000
0100
1000
0000
0000
1000
,  // measure 12
0100
0000
0100
0001
0000
0100
0000
0001
,  // measure 13
1000
0000
1000
0100
0000
0010
0000
0100
,  // measure 14
0000
1000
0000
0002
0000
0000
0000
1000
,  // measure 15
2003
0000
3010
0000
0100
0000
0001
1000
,  // measure 16
0000
0100
1000
0001
0000
1000
1000
0001
,  // measure 17
0001
0100
0100
0010
0010
0000
1000
0002
,  // measure 18
0000
0010
0000
0000
0000
1000
1000
1003
,  // measure 19
0000
0000
0000
0001
0001
0000
0000
1000
,  // measure 20
0100
0000
0010
0001
0000
0020
0000
0100
,  // measure 21
0130
0000
1000
0200
0000
0320
0000
0032
,  // measure 22
0000
1003
0000
0001
0000
0000
0000
0010
,  // measure 23
0001
1000
0010
1000
,  // measure 24
0001
0100
0001
1000
0000
0100
0100
0010
,  // measure 25
0001
0000
0100
1000
0000
0100
0000
0100
,  // measure 26
0010
1000
0100
0000
0020
0000
0031
0000
,  // measure 27
1100
0000
0100
0000
0010
0200
0000
0000
,  // measure 28
0310
0000
0000
0010
0000
0000
0100
0000
0010
0000
0000
0000
1001
0000
0000
0000
,  // measure 29
0110
0000
0001
0000
0100
0010
0000
0000
,  // measure 30
1000
0100
0000
0010
0100
1000
0010
0100
,  // measure 31
0010
1000
0100
0000
0000
0010
0001
0010
,  // measure 32
0001
0000
0000
0001
0000
0000
0100
0000
0010
0000
0000
0100
0000
0000
0001
0000
,  // measure 33
0000
1000
0100
0010
0000
0100
0010
0001
,  // measure 34
0000
0100
1000
0100
1000
0000
0100
0000
,  // measure 35
2001
0000
0000
3001
0100
0000
0000
0001
,  // measure 36
0200
0000
2300
0000
3200
0000
0310
1000
,  // measure 37
0002
0000
0000
1003
0001
0000
0000
1000
,  // measure 38
0100
0010
2000
0000
,  // measure 39
3010
0000
0000
0100
0001
0000
0000
1000
,  // measure 40
0100
0010
0001
0100
,  // measure 41
1001
0100
0010
0100
,  // measure 42
1000
1000
1000
0000
0100
0100
0100
0000
,  // measure 43
0000
0000
0000
0000
0000
1000
0001
0010
,  // measure 44
0000
0001
1000
0010
0000
0100
0010
0001
,  // measure 45
1000
1000
0000
0100
0000
0010
0100
0010
,  // measure 46
0000
1000
1000
0100
0010
0010
0100
0010
,  // measure 47
0100
0000
0000
0100
0010
0000
0000
0010
,  // measure 48
0100
0000
1000
0100
0000
0020
0000
0001
,  // measure 49
0031
0000
0000
0100
1000
0000
0000
1000
,  // measure 50
0100
0000
0010
0020
0000
0001
0000
0130
,  // measure 51
0001
2000
3020
0230
,  // measure 52
0302
0000
0203
0000
0320
0000
1030
0100
,  // measure 53
0000
0100
1000
0000
1000
0000
0001
0010
,  // measure 54
0000
0010
0001
0000
0000
0100
0010
0001
,  // measure 55
1000
0000
0000
0001
0010
0000
0000
0001
,  // measure 56
0020
0000
0130
1000
0000
1000
0000
0100
,  // measure 57
1000
0000
0000
0010
0001
0000
0000
0001
,  // measure 58
0010
0000
0100
1000
0000
0100
0000
1000
,  // measure 59
0100
1000
0100
1000
0100
0000
0010
0001
,  // measure 60
0010
0001
0010
0001
0010
0000
1000
0100
,  // measure 61
0000
0010
0001
0000
0000
0000
2000
0000
,  // measure 62
0100
3020
0230
0310
,  // measure 63
1100
1100
1100
1100
,  // measure 64
0011
0011
0011
0011
,  // measure 65
1001
0000
1001
0000
1001
0000
0000
0110
,  // measure 66
0000
0100
1000
0100
0000
0000
0000
0010
,  // measure 67
0001
0000
0010
0100
0000
1100
0000
1001
,  // measure 68
0000
0010
0000
0001
0000
0100
0000
0000
,  // measure 69
2002
0000
0000
0000
,  // measure 70
0000
0000
3003
0000
1000
1000
1000
1000
;
