#TITLE:Replica;
#SUBTITLE:M3~ソノ黒キ鋼~ OP2;
#ARTIST:坂本真綾;
#TITLETRANSLIT:Replica;
#SUBTITLETRANSLIT:M3 ~The Dark Metal~ OP2;
#ARTISTTRANSLIT:Maaya Sakamoto;
#GENRE:DARK METAL POP 3;
#CREDIT:;
#BANNER:Replica.png;
#BACKGROUND:Replica-bg.png;
#LYRICSPATH:;
#CDTITLE:cdtitle.png;
#MUSIC:Replica.mp3;
#METERTYPE:DDR X;
#MENUCOLOR:0,0,1,1;
#OFFSET:-1.017;
#DISPLAYBPM:190:380;
#SAMPLESTART:45.518;
#SAMPLELENGTH:12.000;
#SELECTABLE:YES;
#BPMS:0.000=380.000,64.000=190.000,128.000=380.000,160.000=190.000,166.000=380.000,170.000=190.000,176.000=380.000,180.000=190.000,196.000=380.000,452.000=47.500;
#STOPS:;
#BGCHANGES:;

//---------------dance-single - ----------------
#NOTES:
     dance-single:
     :
     Hard:
     13:
     0.627,0.889,0.348,0.427,0.118: // measure 1
0000
0000
0000
0000
,  // measure 2
0000
0000
0000
0000
,  // measure 3
0000
0000
0000
0000
,  // measure 4
0000
0000
0000
0000
,  // measure 5
0000
0000
0000
0000
,  // measure 6
0000
0000
0000
0000
,  // measure 7
0000
0000
0000
0000
,  // measure 8
0000
0000
0000
0000
,  // measure 9
0000
0000
0000
0000
,  // measure 10
0000
0000
0000
0000
,  // measure 11
0000
0000
0000
0000
,  // measure 12
0000
0000
0000
0000
,  // measure 13
0000
0000
0000
0000
,  // measure 14
0000
0000
0000
0000
,  // measure 15
0000
0000
0000
0000
,  // measure 16
0000
0000
0000
0000
,  // measure 17
2000
0100
0100
0100
,  // measure 18
0020
0030
0001
0000
0200
0300
0001
0000
,  // measure 19
3002
0100
1000
0010
,  // measure 20
0010
0100
1000
0100
,  // measure 21
2003
0100
0010
0001
,  // measure 22
3002
1000
2003
0001
,  // measure 23
3010
0100
0010
1000
,  // measure 24
1000
0100
0010
0100
,  // measure 25
1100
0100
0010
0001
,  // measure 26
0020
0100
2030
0010
,  // measure 27
3010
0100
1000
0010
,  // measure 28
0100
0010
0100
0001
,  // measure 29
1000
0100
0100
0010
,  // measure 30
0001
1000
0100
0010
,  // measure 31
0002
1000
0000
0000
1000
0000
0000
0000
0203
0010
0000
0000
0010
0000
0000
0000
,  // measure 32
1300
0100
0010
0100
,  // measure 33
1001
0100
0000
0000
,  // measure 34
0110
0000
0000
0010
,  // measure 35
0100
0010
0100
0000
,  // measure 36
0110
0000
0001
0100
,  // measure 37
0101
0100
0001
0000
,  // measure 38
0101
0000
0010
1000
,  // measure 39
0010
0000
0000
0000
0100
0000
0000
0010
,  // measure 40
0001
0100
1000
0010
,  // measure 41
1100
0000
0010
0000
0100
0000
0110
0000
0001
0000
0100
0000
,  // measure 42
0101
0000
1000
0000
0010
0000
0110
0000
0000
0000
0000
0000
,  // measure 43
0000
0000
0000
0000
0000
0000
0101
0000
0100
0000
0010
0000
,  // measure 44
0110
0000
1000
0000
0001
0000
0101
0000
1000
0000
0010
0000
,  // measure 45
0110
0000
0000
0000
,  // measure 46
0110
0000
1000
0000
0010
0000
0110
0000
1000
0000
0001
0000
,  // measure 47
0101
0000
1000
0000
0010
0000
0110
0000
0000
1000
0000
0000
,  // measure 48
2200
0000
0000
0000
0000
3300
0001
0011
,  // measure 49
0000
0000
0000
0000
0000
0000
0000
0000
2000
0000
0000
0000
3001
0100
0000
0000
,  // measure 50
1001
0000
0000
0000
0100
0000
0000
0010
,  // measure 51
0100
0100
0010
0000
,  // measure 52
0100
0000
0000
0000
1000
0000
0001
0100
,  // measure 53
0010
0000
0100
0000
,  // measure 54
0101
0000
0000
0000
0010
0000
0000
1000
,  // measure 55
0010
0100
0120
0000
,  // measure 56
2030
0000
3200
0000
,  // measure 57
1300
0100
0100
0010
,  // measure 58
2001
0000
0010
0000
,  // measure 59
3002
0000
0100
0000
,  // measure 60
0023
0000
0032
0000
,  // measure 61
0203
0000
0320
0000
,  // measure 62
2030
0000
3200
0000
,  // measure 63
0310
0000
0001
0000
,  // measure 64
0101
0000
0100
0000
,  // measure 65
1001
0000
0000
0000
0100
0010
0100
0010
,  // measure 66
0100
0000
0000
0000
1000
0000
0000
0001
,  // measure 67
0100
0010
0110
0000
,  // measure 68
0100
0000
2000
0000
,  // measure 69
3100
0000
0020
0000
,  // measure 70
0031
0000
0000
0000
0010
0000
0000
1000
,  // measure 71
0010
0010
0100
0000
,  // measure 72
0100
0000
1000
0100
,  // measure 73
0100
0100
1000
0100
,  // measure 74
0010
0000
0100
0000
,  // measure 75
1001
0001
0100
0001
,  // measure 76
0100
0100
0100
0000
,  // measure 77
0100
0000
1001
0100
,  // measure 78
0000
0000
1001
0010
,  // measure 79
0000
0000
0010
1001
,  // measure 80
0100
0000
0100
0000
,  // measure 81
0010
1000
0001
1000
0001
1000
0100
0010
,  // measure 82
0001
0000
0000
0000
2000
0001
0000
0000
,  // measure 83
3100
0001
0000
0000
0100
0000
1000
0000
,  // measure 84
0010
0100
0010
0000
,  // measure 85
0100
0001
0000
0000
0100
0000
0000
0000
,  // measure 86
0010
0000
0100
0000
0020
1000
0000
0000
,  // measure 87
1030
0001
0100
0000
0010
0000
0000
0000
,  // measure 88
1000
0100
0001
0000
,  // measure 89
0100
0000
0020
0000
,  // measure 90
1000
0000
0100
0000
,  // measure 91
0001
0000
0100
0000
,  // measure 92
1000
0000
0100
0000
,  // measure 93
0001
0000
0130
0000
,  // measure 94
2000
0000
0100
0000
,  // measure 95
0001
0000
0010
0000
,  // measure 96
3200
0000
0001
0000
,  // measure 97
0320
0000
1000
0000
,  // measure 98
0031
0000
0000
0000
0100
1000
0100
0000
,  // measure 99
0100
1000
0100
0000
0001
0000
0010
0000
,  // measure 100
0100
0000
0010
0100
,  // measure 101
0010
1000
0100
0000
0010
0000
0001
0000
,  // measure 102
1000
0000
0000
0000
0100
0010
0100
0000
,  // measure 103
0001
0100
1000
0000
1000
0000
0010
0000
,  // measure 104
0200
0000
0010
0000
,  // measure 105
0320
0000
0100
0000
,  // measure 106
0031
0000
0000
0000
0010
0100
0010
0000
,  // measure 107
0100
0001
1000
0000
0100
0000
0000
0000
,  // measure 108
0010
0000
0000
0000
2000
0010
0000
0000
,  // measure 109
3001
0100
0010
0000
0001
0000
0000
0000
,  // measure 110
1000
0000
0000
1000
0100
0000
0001
0000
,  // measure 111
0100
1000
0001
0001
,  // measure 112
2000
0100
0010
0001
,  // measure 113
3200
0010
0001
0010
,  // measure 114
1300
0000
0000
0000
;

//---------------dance-single - ----------------
#NOTES:
     dance-single:
     :
     Beginner:
     4:
     0.149,0.381,0.056,0.022,0.000:
0000
0000
0000
0000
,
0000
0000
0000
0000
,
0000
0000
0000
0000
,
0000
0000
0000
0000
,
0000
0000
0000
0000
,
0000
0000
0000
0000
,
0000
0000
0000
0000
,
0000
0000
0000
0000
,
0000
0000
0000
0000
,
0000
0000
0000
0000
,
0000
0000
0000
0000
,
0000
0000
0000
0000
,
0000
0000
0000
0000
,
0000
0000
0000
0000
,
0000
0000
0000
0000
,
0000
0000
0000
0000
,
1000
0000
0000
0000
,
1000
0000
1000
0000
,
1000
0000
0000
0000
,
0001
0000
0001
0000
,
0001
0000
0000
0000
,
0100
0000
0100
0000
,
0100
0000
0000
0000
,
0010
0000
0000
0000
,
0010
0000
0000
0000
,
0010
0000
0010
0000
,
0010
0000
0000
0000
,
1000
0000
0001
0000
,
1000
0000
0000
0000
,
0001
0000
0000
0000
,
0001
0000
1000
0000
,
0001
0000
0100
0000
,
0110
0000
0000
0000
,
0000
0000
0000
0000
,
0100
0000
0000
0000
,
0000
0000
0000
0000
,
0100
0000
0000
0000
,
0000
0000
0000
0000
,
0001
0000
0000
0000
,
0000
0000
0000
0000
,
1001
0000
0000
0000
,
0001
0000
0000
0000
,
0000
0000
1001
0000
,
0000
0000
1000
0000
,
0000
0000
0000
0000
,
0001
0000
0001
0000
,
0001
0000
1000
0000
,
2000
0000
0000
0000
,
3000
0000
0000
0000
,
1000
0000
0000
0000
,
0001
0000
0000
0000
,
0001
0000
0000
0000
,
0100
0000
0000
0000
,
0100
0000
0000
0000
,
0010
0000
0000
0000
,
0010
0000
0000
0000
,
0000
0000
0000
0000
,
0100
0000
0000
0000
,
0001
0000
0000
0000
,
0100
0000
0000
0000
,
0001
0000
0000
0000
,
0001
0000
0000
0000
,
1000
0000
0000
0000
,
1001
0000
0000
0000
,
0000
0000
0000
0000
,
0001
0000
0000
0000
,
0001
0000
0000
0000
,
0001
0000
0000
0000
,
1000
0000
0000
0000
,
0010
0000
0000
0000
,
0100
0000
0000
0000
,
0001
0000
0000
0000
,
1000
0000
0000
0000
,
0001
0000
0000
0000
,
1000
0000
0000
0000
,
1000
0000
0000
0000
,
0000
0000
0000
0000
,
0001
0000
0000
0000
,
1000
0000
0000
0000
,
1000
0000
0000
0000
,
0000
0000
0000
0000
,
0110
0000
0000
0000
,
0000
0000
0000
0000
,
0010
0000
0000
0000
,
0000
0000
0000
0000
,
0010
0000
0000
0000
,
0000
0000
0000
0000
,
0100
0000
0000
0000
,
0001
0000
0000
0000
,
0002
0000
0000
0000
,
0000
0000
0000
0000
,
0000
0000
0000
0000
,
0000
0000
0000
0000
,
1003
0000
0000
0000
,
1000
0000
0000
0000
,
0001
0000
0000
0000
,
0001
0000
0000
0000
,
1000
0000
0000
0000
,
0000
0000
0000
0000
,
1000
0000
0000
0000
,
0000
0000
0000
0000
,
0001
0000
0000
0000
,
0000
0000
0000
0000
,
0001
0000
0000
0000
,
0001
0000
0000
0000
,
1000
0000
0000
0000
,
0000
0000
0000
0000
,
0010
0000
0000
0000
,
0100
0000
0000
0000
,
0100
0000
0000
0000
,
0000
0000
0000
0000
,
0010
0000
0000
0000
,
0010
0000
0000
0000
,
0010
0000
0000
0000
;

//---------------dance-single - ----------------
#NOTES:
     dance-single:
     :
     Easy:
     6:
     0.281,0.635,0.101,0.157,0.000: // measure 1
0000
0000
0000
0000
,  // measure 2
0000
0000
0000
0000
,  // measure 3
0000
0000
0000
0000
,  // measure 4
0000
0000
0000
0000
,  // measure 5
0000
0000
0000
0000
,  // measure 6
0000
0000
0000
0000
,  // measure 7
0000
0000
0000
0000
,  // measure 8
0000
0000
0000
0000
,  // measure 9
0000
0000
0000
0000
,  // measure 10
0000
0000
0000
0000
,  // measure 11
0000
0000
0000
0000
,  // measure 12
0000
0000
0000
0000
,  // measure 13
0000
0000
0000
0000
,  // measure 14
0000
0000
0000
0000
,  // measure 15
0000
0000
0000
0000
,  // measure 16
0000
0000
0000
0000
,  // measure 17
1000
0000
0000
0001
,  // measure 18
2000
0000
3002
0000
,  // measure 19
0103
0000
0000
0010
,  // measure 20
0100
0010
1000
0010
,  // measure 21
0100
0000
0000
0001
,  // measure 22
0020
0000
0031
0000
,  // measure 23
0001
0000
0000
1000
,  // measure 24
0100
1000
0100
1000
,  // measure 25
0001
0000
0000
0001
,  // measure 26
0200
0000
0301
0000
,  // measure 27
0001
0000
0000
0001
,  // measure 28
0010
0001
1000
0001
,  // measure 29
1000
0000
0000
1000
,  // measure 30
0001
0000
0000
1000
,  // measure 31
0200
0000
0320
0000
,  // measure 32
0031
0001
1000
0001
,  // measure 33
1001
0000
0000
0000
,  // measure 34
0000
0000
0000
0000
,  // measure 35
0110
0000
0000
0000
,  // measure 36
0000
0000
0000
0000
,  // measure 37
0110
0000
0000
0000
,  // measure 38
0000
0000
0000
0000
,  // measure 39
1000
0000
0100
0000
,  // measure 40
1000
0000
0100
0000
,  // measure 41
1001
0000
0001
0000
,  // measure 42
1001
0000
1000
0000
,  // measure 43
0000
0000
1001
0000
,  // measure 44
0001
0000
1001
0000
,  // measure 45
1000
0000
0000
0000
,  // measure 46
0110
0000
0010
0000
,  // measure 47
0110
0000
0100
0000
,  // measure 48
0020
0000
0000
0130
,  // measure 49
0001
0000
0000
0000
,  // measure 50
1000
0000
0001
0000
,  // measure 51
1000
0000
1000
0000
,  // measure 52
0000
0000
0001
0000
,  // measure 53
0100
0000
0001
0000
,  // measure 54
0010
0000
0001
0000
,  // measure 55
1000
0000
1000
0000
,  // measure 56
0000
0000
0000
0000
,  // measure 57
1000
0000
0010
0000
,  // measure 58
1000
0000
1000
0000
,  // measure 59
0010
0000
0010
0000
,  // measure 60
0100
0000
0100
0000
,  // measure 61
0001
0000
0010
0000
,  // measure 62
0001
0000
1000
0000
,  // measure 63
0001
0000
1000
0000
,  // measure 64
1000
0000
0000
0000
,  // measure 65
0001
0000
0001
0000
,  // measure 66
0001
0000
1000
0000
,  // measure 67
0001
0000
1000
0000
,  // measure 68
0000
0000
0010
0000
,  // measure 69
0010
0000
0100
0000
,  // measure 70
0010
0000
0100
0000
,  // measure 71
0001
0000
0001
0000
,  // measure 72
0000
0000
0000
0000
,  // measure 73
1000
0000
0100
0000
,  // measure 74
1000
0000
0010
0000
,  // measure 75
0100
0000
0100
0000
,  // measure 76
0001
0000
1000
0000
,  // measure 77
0000
0000
0001
0000
,  // measure 78
0000
0000
1000
0000
,  // measure 79
0000
0000
0001
0000
,  // measure 80
1000
0000
0001
0000
,  // measure 81
1000
0000
0001
0000
,  // measure 82
0100
0000
0000
0000
,  // measure 83
0010
0000
0010
0000
,  // measure 84
0010
0000
0000
0000
,  // measure 85
0100
0000
0100
0000
,  // measure 86
0100
0000
0000
0000
,  // measure 87
0001
0000
0000
0000
,  // measure 88
1000
0000
0001
0000
,  // measure 89
1000
0000
0002
0000
,  // measure 90
0000
0000
0000
0000
,  // measure 91
1000
0000
0000
0000
,  // measure 92
1000
0000
0000
0000
,  // measure 93
1000
0000
0000
0000
,  // measure 94
1003
0000
0000
0000
,  // measure 95
0010
0000
0000
0000
,  // measure 96
0200
0000
0000
0000
,  // measure 97
0320
0000
0000
0000
,  // measure 98
1030
0000
0000
0000
,  // measure 99
0010
0000
0000
0000
,  // measure 100
0010
0000
0000
0000
,  // measure 101
0100
0000
0000
0000
,  // measure 102
0100
0000
0000
0000
,  // measure 103
0001
0000
0000
0000
,  // measure 104
0002
0000
0000
0000
,  // measure 105
0023
0000
0000
0000
,  // measure 106
0130
0000
0000
0000
,  // measure 107
0100
0000
0000
0000
,  // measure 108
1000
0000
0000
0000
,  // measure 109
1000
0000
0000
0000
,  // measure 110
0010
0000
0000
0000
,  // measure 111
0100
0000
0000
0000
,  // measure 112
0002
0000
0000
0000
,  // measure 113
2003
0000
0000
0000
,  // measure 114
3001
0000
0000
0000
;

//---------------dance-single - ----------------
#NOTES:
     dance-single:
     :
     Medium:
     9:
     0.427,0.762,0.180,0.180,0.101: // measure 1
0000
0000
0000
0000
,  // measure 2
0000
0000
0000
0000
,  // measure 3
0000
0000
0000
0000
,  // measure 4
0000
0000
0000
0000
,  // measure 5
0000
0000
0000
0000
,  // measure 6
0000
0000
0000
0000
,  // measure 7
0000
0000
0000
0000
,  // measure 8
0000
0000
0000
0000
,  // measure 9
0000
0000
0000
0000
,  // measure 10
0000
0000
0000
0000
,  // measure 11
0000
0000
0000
0000
,  // measure 12
0000
0000
0000
0000
,  // measure 13
0000
0000
0000
0000
,  // measure 14
0000
0000
0000
0000
,  // measure 15
0000
0000
0000
0000
,  // measure 16
0000
0000
0000
0000
,  // measure 17
1001
1000
1000
0100
,  // measure 18
0100
0010
0010
0001
,  // measure 19
0001
0100
0100
0010
,  // measure 20
0010
1000
0100
0010
,  // measure 21
0001
0010
0100
1000
,  // measure 22
0001
0100
0001
0100
,  // measure 23
0010
1000
0010
1000
,  // measure 24
0001
1000
0001
1000
,  // measure 25
1010
0100
0010
0100
,  // measure 26
0001
0010
0001
1000
,  // measure 27
0100
1000
0001
0100
,  // measure 28
0001
1000
0010
1000
,  // measure 29
1001
0100
0001
0010
,  // measure 30
0110
0001
1000
0010
,  // measure 31
1001
0100
0110
0001
,  // measure 32
1001
1000
0100
0010
,  // measure 33
0001
1000
0000
0000
,  // measure 34
1001
0000
0000
0000
,  // measure 35
1001
0000
0000
0000
,  // measure 36
0110
0000
0000
0000
,  // measure 37
0110
0000
0000
0000
,  // measure 38
0110
0000
0000
1000
,  // measure 39
0010
0000
0100
0000
,  // measure 40
0001
1000
0001
0000
,  // measure 41
1000
0000
0100
0000
1000
0000
0010
0000
0100
0000
0010
0000
,  // measure 42
1000
0000
0100
0000
0010
0000
0001
0000
0000
0000
0000
0000
,  // measure 43
0000
0000
0000
0000
0000
0000
0001
0000
0010
0000
0001
0000
,  // measure 44
0100
0000
0010
0000
0100
0000
0001
0000
0010
0000
0100
0000
,  // measure 45
1000
0000
0000
0000
,  // measure 46
1000
0000
0001
0000
0100
0000
0010
0000
1000
0000
0100
0000
,  // measure 47
0010
0000
0001
0000
1000
0000
0001
0000
0000
1000
0000
0000
,  // measure 48
0002
0000
0000
0000
0000
0000
1003
0001
,  // measure 49
0000
0000
1000
0001
,  // measure 50
1001
0000
0001
0000
,  // measure 51
0100
0000
0100
0000
,  // measure 52
0000
0000
0002
0000
,  // measure 53
1003
0000
0100
0000
,  // measure 54
0010
0000
0100
0000
,  // measure 55
1000
0000
0001
0000
,  // measure 56
0000
0000
0000
0000
,  // measure 57
1000
0001
1000
0001
,  // measure 58
2000
0000
3002
0000
,  // measure 59
0103
0000
0001
0000
,  // measure 60
0100
0000
0020
0000
,  // measure 61
0230
0000
0301
0000
,  // measure 62
1000
0000
0001
0000
,  // measure 63
1000
0000
0001
0000
,  // measure 64
0110
0000
0000
0000
,  // measure 65
1000
0000
0100
0000
,  // measure 66
0110
0000
0002
0000
,  // measure 67
0103
0000
0001
0000
,  // measure 68
0000
0000
1000
0000
,  // measure 69
0100
0000
0020
0000
,  // measure 70
0031
0000
1000
0000
,  // measure 71
0001
0000
0100
0000
,  // measure 72
0000
0000
0000
0001
,  // measure 73
0100
0001
0010
0100
,  // measure 74
1000
0000
0001
0000
,  // measure 75
1000
0010
1000
0100
,  // measure 76
0010
0000
0001
0000
,  // measure 77
0000
0000
0200
0010
,  // measure 78
0000
0000
0310
0100
,  // measure 79
0000
0000
0001
0000
,  // measure 80
1000
0000
0100
0000
,  // measure 81
0001
0000
0100
0000
,  // measure 82
1001
0000
0001
0000
,  // measure 83
0100
0000
0100
0000
,  // measure 84
0010
0000
1000
0000
,  // measure 85
0001
0000
0001
0000
,  // measure 86
1000
0000
0010
0000
,  // measure 87
0010
0000
0010
0000
,  // measure 88
0100
0000
0001
0000
,  // measure 89
0100
0000
0002
0000
,  // measure 90
1000
0000
0000
0000
,  // measure 91
0100
0000
0100
0000
,  // measure 92
1000
0000
0000
0000
,  // measure 93
1000
0000
1000
0000
,  // measure 94
0100
0000
0000
0000
,  // measure 95
1003
0000
0001
0000
,  // measure 96
2000
0000
0000
0000
,  // measure 97
3020
0000
0000
0000
,  // measure 98
0130
0000
0001
0000
,  // measure 99
0001
0000
0001
0000
,  // measure 100
0100
0000
0010
0000
,  // measure 101
0010
0000
0010
0000
,  // measure 102
1000
0000
0100
0000
,  // measure 103
0100
0000
0100
0000
,  // measure 104
0020
0000
0000
0000
,  // measure 105
0032
0000
0000
0000
,  // measure 106
1003
0000
1000
0000
,  // measure 107
1000
0000
1000
0000
,  // measure 108
0010
0000
0100
0000
,  // measure 109
0100
0000
0100
0000
,  // measure 110
0001
0000
0010
0000
,  // measure 111
0010
0000
0010
0000
,  // measure 112
0002
0000
0100
0000
,  // measure 113
2003
0000
0010
0000
,  // measure 114
3001
0000
0000
0000
;
