#TITLE:Re:REMEMBER;
#SUBTITLE:M3~ソノ黒キ鋼~ OP1;
#ARTIST:May'n;
#TITLETRANSLIT:Re-REMEMBER;
#SUBTITLETRANSLIT:M3 ~The Dark Metal~ OP1;
#ARTISTTRANSLIT:May'n;
#GENRE:DARK METAL BALLAD 1;
#CREDIT:;
#BANNER:Re-REMEMBER.png;
#BACKGROUND:Re-REMEMBER-bg.png;
#LYRICSPATH:;
#CDTITLE:cdtitle.png;
#MUSIC:Re-REMEMBER.mp3;
#METERTYPE:DDR X;
#MENUCOLOR:0,0,1,1;
#OFFSET:-0.108;
#SAMPLESTART:53.648;
#SAMPLELENGTH:12.000;
#SELECTABLE:YES;
#DISPLAYBPM:110.000;
#BPMS:0.000=55.000,8.000=110.000;
#STOPS:;
#BGCHANGES:;

//---------------dance-single - ----------------
#NOTES:
     dance-single:
     :
     Hard:
     10:
     0.543,0.578,0.434,0.847,0.784: // measure 1
0000
0000
0000
0000
,  // measure 2
0000
0000
0000
0000
,  // measure 3
0101
0000
0020
0000
1000
1030
0010
0000
0100
0001
0010
0001
,  // measure 4
1000
0000
1000
0000
0100
0010
0100
0000
1000
0001
0010
0001
,  // measure 5
1100
0000
0020
0000
0001
0031
0010
0000
0100
1000
0010
1000
,  // measure 6
0001
0000
0100
2000
3020
0230
0302
0000
0100
0103
0010
0010
,  // measure 7
1000
0000
0010
0100
0000
0002
0100
0000
2003
0000
0100
0000
,  // measure 8
3020
0000
1030
1000
0000
0020
0100
0000
0230
0000
0001
0000
,  // measure 9
0310
0000
0100
0001
0000
2000
0100
0000
3002
0000
0100
0000
,  // measure 10
1003
0000
1000
0001
0011
0100
2100
0000
0001
0000
3001
0000
,  // measure 11
2100
0000
0001
3001
0000
0200
0010
0000
0302
0000
0010
0000
,  // measure 12
0103
0000
0001
0001
0000
0020
0100
0000
0032
0000
1000
0000
,  // measure 13
1003
0000
0200
0010
0000
2300
0001
0000
3200
0000
0320
0000
,  // measure 14
0031
0000
0000
0001
0010
0100
1000
0000
1001
0000
0010
0000
,  // measure 15
1001
0000
0000
0010
0200
0000
0302
0000
1003
0110
0100
0000
,  // measure 16
0001
0000
0000
1001
0100
0000
0010
1001
0001
0110
0100
0000
,  // measure 17
0002
0000
0000
1000
0203
0000
0320
0000
2030
0000
3020
0000
,  // measure 18
0032
0000
0000
1000
1000
1003
0010
0000
0100
0100
0100
0000
,  // measure 19
1001
0000
0200
0300
0110
0000
0002
0000
2003
0000
0020
3030
,  // measure 20
1010
0000
1001
0000
0011
0000
0101
0000
1010
0001
0010
0000
,  // measure 21
0120
0000
0000
0000
1000
1030
0001
0000
0000
0000
0101
0000
,  // measure 22
0012
0000
0000
0000
1000
1000
1003
0001
0100
0000
0010
0000
,  // measure 23
2020
0000
0000
0000
0000
0030
3002
0000
2003
0000
0200
3300
,  // measure 24
0220
0000
0000
0030
0310
0000
0011
0000
0002
0000
0200
0303
,  // measure 25
2002
0000
0000
0003
3010
0000
1001
0000
0000
0000
0100
1000
,  // measure 26
0200
0000
0320
0000
0031
0000
0200
0000
0302
0000
0103
0000
,  // measure 27
0010
0000
0100
0000
0001
0001
0000
0000
2000
0000
0020
3030
,  // measure 28
0202
0000
0000
0003
0301
0000
0101
0000
0200
0000
0002
0303
,  // measure 29
2020
0000
0000
0030
3100
0000
0101
0000
0000
0000
1000
0100
,  // measure 30
0020
0000
0230
0000
1300
0000
2000
0000
3100
0000
0010
0000
,  // measure 31
0002
0000
0103
0000
0001
1000
1000
0000
0000
0000
1000
0100
,  // measure 32
0020
0000
0032
0000
0203
0000
0320
0000
2030
0000
3010
0000
,  // measure 33
0100
0100
0010
0000
1000
0000
0001
1000
0001
0000
0100
0010
,  // measure 34
0200
0000
0010
0000
0301
0000
1000
0100
0001
0000
0100
0000
,  // measure 35
1100
0000
0110
0000
0011
0000
2020
3030
0220
0330
0202
0303
,  // measure 36
1002
0000
0100
0000
0013
0000
1001
0000
0100
0000
0010
0000
,  // measure 37
0200
0000
0010
0000
0310
0000
0110
0000
0100
0000
0110
0000
,  // measure 38
0000
0202
0000
0000
0000
0000
0000
0000
0000
0000
0000
0000
,  // measure 39
0000
0000
0000
0000
,  // measure 40
0303
0000
0000
0000
;

//---------------dance-single - ----------------
#NOTES:
     dance-single:
     :
     Beginner:
     1:
     0.068,0.098,0.032,0.106,0.000:
0000
0000
0000
0000
,
0000
0000
0000
0000
,
1001
0000
0000
0000
,
0010
0000
0000
0000
,
0110
0000
0000
0000
,
0100
0000
0000
0000
,
1000
0000
0000
0000
,
0001
0000
0000
0000
,
0001
0000
0000
0000
,
0100
0000
0000
0000
,
0010
0000
0000
0000
,
0010
0000
0000
0000
,
1000
0000
0000
0000
,
0001
0000
0000
0000
,
0002
0000
0000
0000
,
0003
0000
0000
0000
,
2000
0000
0000
0000
,
3000
0000
0000
0000
,
0020
0000
0000
0000
,
0030
0000
0000
0000
,
0200
0000
0000
0000
,
0300
0000
0000
0000
,
0000
0000
0000
0000
,
0002
0000
0003
0000
,
0002
0000
0003
0000
,
1000
0000
1000
0000
,
1000
0000
0000
0000
,
0020
0000
0030
0000
,
0020
0000
0030
0000
,
0100
0000
0100
0000
,
0100
0000
0000
0000
,
0001
0000
0000
0000
,
1000
0000
0000
0000
,
0001
0000
0000
0000
,
1000
0000
0001
0000
,
2002
0000
0000
0000
,
0000
0000
0000
0000
,
0000
3003
0000
0000
0000
0000
0000
0000
0000
0000
0000
0000
;

//---------------dance-single - ----------------
#NOTES:
     dance-single:
     :
     Easy:
     3:
     0.139,0.165,0.064,0.191,0.000:
0000
0000
0000
0000
,
0000
0000
0000
0000
,
1001
0000
1000
0000
,
1000
0000
0001
0000
,
0110
0000
0010
0000
,
0100
0000
0100
0000
,
1001
0000
0001
0000
,
1000
0000
1000
0000
,
0001
0000
0001
0000
,
1000
0000
0001
0000
,
1000
0000
1000
0000
,
0100
0000
0100
0000
,
0010
0000
0010
0000
,
0001
0000
0001
0000
,
2000
0000
3001
0000
,
0002
0000
1003
0000
,
1000
0000
0100
0000
,
0010
0000
0001
0000
,
0002
0000
0103
0000
,
0020
0000
1030
0000
,
1000
0000
0100
0000
,
0020
0000
0031
0000
,
2002
0000
3003
0000
,
2000
0000
3001
0000
,
0002
0000
1003
0000
,
0010
0000
0010
0000
,
0100
0000
0001
0000
,
0200
0000
0310
0000
,
0020
0000
0130
0000
,
0001
0000
0100
0000
,
0001
0000
0100
0000
,
0020
0000
2030
0000
,
3001
0000
0000
0000
,
0200
0000
0302
0000
,
1003
0000
0001
0000
,
2001
0000
0001
0000
,
3001
0000
2002
0000
,
0000
0000
0000
0000
,
0000
0000
0000
0000
,
0003
3000
0000
0000
0000
0000
0000
0000
0000
0000
0000
0000
0000
0000
0000
0000
0000
0000
0000
0000
0000
0000
0000
0000
0000
0000
0000
0000
0000
0000
0000
0000
0000
0000
0000
0000
0000
0000
0000
0000
0000
0000
0000
0000
0000
0000
0000
0000
0000
0000
0000
0000
0000
0000
0000
0000
0000
0000
0000
0000
0000
0000
0000
0000
0000
0000
0000
0000
0000
0000
0000
0000
0000
0000
0000
0000
0000
0000
0000
0000
0000
0000
0000
0000
0000
0000
0000
0000
0000
0000
0000
0000
0000
0000
0000
0000
0000
0000
0000
0000
0000
0000
0000
0000
0000
0000
0000
0000
0000
0000
0000
0000
0000
0000
0000
0000
0000
0000
0000
0000
0000
0000
0000
0000
0000
0000
0000
0000
0000
0000
0000
0000
0000
0000
0000
0000
0000
0000
0000
0000
0000
0000
0000
0000
0000
0000
0000
0000
0000
0000
0000
0000
0000
0000
0000
0000
0000
0000
0000
0000
0000
0000
0000
0000
0000
0000
0000
0000
0000
0000
0000
0000
0000
0000
0000
0000
0000
0000
0000
0000
0000
0000
0000
0000
0000
0000
0000
0000
0000
0000
0000
0000
;

//---------------dance-single - ----------------
#NOTES:
     dance-single:
     :
     Medium:
     6:
     0.349,0.434,0.032,0.614,0.498:
0000
0000
0000
0000
,
0000
0000
0000
0000
,
1002
0000
0000
0000
1003
0001
1000
0000
0000
0000
0000
0000
,
0020
0000
0130
0000
,
0120
0000
0000
0000
0130
0010
0100
0000
0000
0000
0000
0000
,
0002
0000
1003
0000
,
0200
0000
0310
0001
0000
0000
0020
0000
0130
0000
1000
0000
,
0002
0000
1003
0100
0000
0000
2000
0000
3001
0000
0100
0000
,
0020
0000
0130
0010
0000
0000
2000
0000
3010
0000
0100
0000
,
0001
0000
0000
1000
0100
0010
0001
0000
0000
0000
0000
0000
,
0200
0000
0301
0100
0000
0000
0010
0000
0010
0000
0010
0000
,
2000
0000
3100
1000
0000
0000
0100
0000
0100
0000
0100
0000
,
0020
0000
1030
0010
0000
0000
0001
0000
0001
0000
0001
0000
,
2000
0000
0000
3001
0100
0010
1000
0000
0000
0000
0000
0000
,
0020
0000
0000
0000
1000
0000
2030
0000
0000
0000
0001
0000
,
3001
0000
0000
0000
0000
0000
0001
0000
0000
0000
0100
0000
,
0002
0000
0000
0000
1000
0000
2003
0000
0000
0000
0010
0000
,
3020
0000
0000
0000
0130
0001
0100
0000
0000
0000
0000
0000
,
0002
0000
0000
0000
0000
0000
2003
0000
0010
0000
0010
0000
,
3020
0000
0100
0000
0100
0000
0230
0000
0000
0000
0001
0000
,
0302
0000
1003
0000
,
0002
0000
0023
0000
,
0130
0000
0000
0000
0000
0000
0100
0000
1000
0000
0001
0000
,
0200
0000
0000
0000
0310
0000
1000
0000
0100
0000
0010
0000
,
0200
0000
0000
0000
0310
0000
0001
0000
0000
0000
1000
0001
,
2000
0000
3020
0000
0230
0000
0302
0000
0023
0000
0230
0000
,
2300
0000
3200
0000
0310
0001
0000
0000
0100
0000
0010
0000
,
2000
0000
0000
0000
3001
0000
0100
0000
0001
0000
1000
0000
,
0200
0000
0000
0000
0310
0000
0010
0000
0000
0000
0001
1000
,
0002
0000
2003
0000
3001
0000
0200
0000
0320
0000
0032
0000
,
0023
0000
0230
0000
0310
1000
0010
0000
0000
0000
0100
0010
,
2000
0000
3100
0000
0020
0000
0032
0000
0023
0000
0230
0000
,
0310
1000
0010
0000
0000
0000
0000
0000
0000
0000
0001
1000
,
0002
0000
0013
0000
0200
0000
0320
0000
0130
0000
0000
0000
,
2000
0000
0010
0000
3010
0000
0200
0000
0010
0000
0001
0000
,
0302
0000
1000
0000
1000
0000
1000
0000
1000
0000
1000
0000
,
1003
0000
0100
0000
0010
0000
0001
0000
1000
0000
0001
0000
,
0000
2002
0000
0000
0000
0000
0000
0000
0000
0000
0000
0000
,
0000
0000
0000
0000
,
0003
3000
0000
0000
0000
0000
0000
0000
0000
0000
0000
0000
0000
0000
0000
0000
0000
0000
0000
0000
0000
0000
0000
0000
0000
0000
0000
0000
0000
0000
0000
0000
0000
0000
0000
0000
0000
0000
0000
0000
0000
0000
0000
0000
0000
0000
0000
0000
0000
0000
0000
0000
0000
0000
0000
0000
0000
0000
0000
0000
0000
0000
0000
0000
0000
0000
0000
0000
0000
0000
0000
0000
0000
0000
0000
0000
0000
0000
0000
0000
0000
0000
0000
0000
0000
0000
0000
0000
0000
0000
0000
0000
0000
0000
0000
0000
0000
0000
0000
0000
0000
0000
0000
0000
0000
0000
0000
0000
0000
0000
0000
0000
0000
0000
0000
0000
0000
0000
0000
0000
0000
0000
0000
0000
0000
0000
0000
0000
0000
0000
0000
0000
0000
0000
0000
0000
0000
0000
0000
0000
0000
0000
0000
0000
0000
0000
0000
0000
0000
0000
0000
0000
0000
0000
0000
0000
0000
0000
0000
0000
0000
0000
0000
0000
0000
0000
0000
0000
0000
0000
0000
0000
0000
0000
0000
0000
0000
0000
0000
0000
0000
0000
0000
0000
0000
0000
0000
0000
0000
0000
0000
0000
;
