#TITLE:REASON;
#SUBTITLE:カーニヴァル ED;
#ARTIST:こだま さおり;
#TITLETRANSLIT:;
#SUBTITLETRANSLIT:Karneval ED;
#ARTISTTRANSLIT:Saori Kodama;
#CREDIT:;
#GENRE:CARNIVAL POP;
#BANNER:REASON.png;
#BACKGROUND:REASON-bg.png;
#LYRICSPATH:;
#CDTITLE:cdtitle.png;
#MUSIC:REASON.mp3;
#METERTYPE:DDR X;
#MENUCOLOR:0,0,1,1;
#OFFSET:-1.054;
#SAMPLESTART:62.702;
#SAMPLELENGTH:12.000;
#SELECTABLE:YES;
#BPMS:0.000=126.000;
#STOPS:;
#BGCHANGES:;

//---------------dance-single - ----------------
#NOTES:
     dance-single:
     :
     Challenge:
     13:
     0.584,0.663,0.478,0.222,0.334: // measure 1
0000
0000
0000
0000
,  // measure 2
0000
0000
0000
0000
,  // measure 3
0000
0000
0000
0000
,  // measure 4
0000
0000
0000
0000
,  // measure 5
1000
0000
0010
0000
1000
0000
0100
0010
0000
0000
0001
0000
0001
0000
0100
0000
,  // measure 6
1000
0100
0010
0001
0000
0000
0100
1000
,  // measure 7
0100
0000
0010
0000
0001
0000
0100
0010
0000
0000
0110
0000
1000
0000
0100
0000
,  // measure 8
0110
0110
0110
0000
0001
1001
1000
0000
,  // measure 9
0100
0000
1000
0000
0100
0010
0000
1000
0000
0000
0010
0000
0000
0000
0100
0001
,  // measure 10
1000
0000
0100
1000
0000
0010
0000
0002
0000
0000
0000
0000
0000
0000
0000
0000
,  // measure 11
0003
0000
1000
0000
0010
1000
0000
0200
0000
0000
0310
0000
0000
0000
0100
0001
,  // measure 12
1000
0000
0100
0010
0000
1000
0000
0020
0000
0000
1000
0000
1000
0000
0000
0000
,  // measure 13
1030
0000
1000
0000
0010
1000
0000
0100
0000
0000
0010
0000
0000
0000
0001
1000
,  // measure 14
0010
0000
0100
1000
0000
0010
0000
0001
0000
1000
0001
0000
0010
0100
0010
0100
,  // measure 15
0010
0100
1000
0000
1001
0010
0100
0000
,  // measure 16
1100
0001
0010
0100
1100
0000
1001
0000
,  // measure 17
0220
0000
0330
0000
1000
0000
0100
0000
0010
1000
0001
0000
0100
0001
1000
0000
,  // measure 18
0202
0000
0000
0300
0003
0000
1000
0000
0010
1000
0100
0000
0010
0001
1000
0000
,  // measure 19
2020
3030
0022
0033
2200
3300
0202
0303
,  // measure 20
1001
0000
0000
0101
0000
0000
0012
0000
0000
0000
1000
0000
1000
0000
0000
0000
,  // measure 21
1003
0000
0100
1000
0000
0010
0000
0001
0000
0000
0110
0000
0000
0000
1000
0000
,  // measure 22
0100
0000
1000
0010
0000
0100
0000
0010
0000
0000
0110
0000
0000
0000
0001
0000
,  // measure 23
0100
0000
1000
0000
0100
0000
0010
0000
1000
0001
0100
0000
0010
0000
0100
0000
,  // measure 24
0110
0000
0001
1000
0100
0000
0110
0000
0000
0000
0110
0000
0010
0100
0010
0000
,  // measure 25
2002
0000
0000
0000
0000
3003
0001
1000
,  // measure 26
1001
0000
0000
0000
0100
0000
1000
0001
0100
0000
0010
0000
0100
0000
0001
0000
,  // measure 27
1001
0000
0000
0100
1000
0001
1000
0100
,  // measure 28
1010
0000
0000
1000
0010
0000
0000
0100
0010
0000
0000
0010
0001
0000
0010
0000
,  // measure 29
0100
0000
0001
0100
0000
0100
0001
0000
0000
0000
0100
0000
0100
0000
0010
0000
,  // measure 30
0100
0000
1000
0001
0100
0000
0010
0000
0100
0000
0100
0000
0100
0000
0000
0000
,  // measure 31
0001
0000
0010
0000
0100
0000
0010
1000
0001
0000
0010
0000
0010
0000
0100
0000
,  // measure 32
0100
1000
0100
0010
0001
0100
0010
0100
,  // measure 33
0110
0000
1010
0000
1001
0000
0000
0000
0100
0000
0011
0000
0100
1000
0010
0000
,  // measure 34
0110
0000
0000
0000
0100
0000
1000
0000
0100
0010
0001
0000
0100
0000
0001
0000
,  // measure 35
0101
0000
0000
1000
0100
1000
0100
0010
,  // measure 36
1000
0000
0000
1000
0010
0000
0000
0100
0010
0000
0000
0010
0001
0000
0000
0000
,  // measure 37
0100
0000
0001
0000
0100
0001
0100
0001
0100
0000
0000
0000
0001
0000
0100
0000
,  // measure 38
0101
0000
1000
0100
1000
0000
0010
0000
0100
0000
0010
0001
0010
0000
0100
0000
,  // measure 39
0010
0000
0100
0001
0100
0000
0010
0000
0101
0000
0100
0000
1010
0000
0000
0000
,  // measure 40
0100
0000
0010
0001
1000
0000
0100
0010
0100
0000
0010
0000
0200
0000
0000
0000
,  // measure 41
0020
0000
0000
0000
0330
1000
0001
0000
,  // measure 42
1001
0000
0100
0000
0001
0000
0100
1000
0000
0000
0010
0000
0100
0000
0010
0000
,  // measure 43
0001
0010
0010
0010
0000
0000
0100
1000
,  // measure 44
0010
0000
0100
0000
0001
0000
0100
0001
0000
0000
0010
0000
0100
0000
1000
0000
,  // measure 45
0110
0011
1010
0000
0100
0010
0100
0000
,  // measure 46
1010
0000
0000
0000
0100
0010
0100
0000
0001
0000
1001
0000
0000
0000
0110
0000
;

//---------------dance-single - ----------------
#NOTES:
     dance-single:
     :
     Hard:
     11:
     0.448,0.459,0.322,0.033,0.122:
0000
0000
0000
0000
,
0000
0000
0000
0000
,
0000
0000
0000
0000
,
0000
0000
0000
0000
,
1000
0100
1000
0100
0010
0001
0000
0001
,
0100
1000
0100
0001
0000
0000
1000
0010
,
0001
0010
1000
0010
0001
0001
0000
0000
,
0101
1001
1001
0000
0000
1001
1000
0000
,
0001
0000
0100
0000
0000
0001
0000
0001
0000
0000
0100
0000
0000
0000
0010
0000
,
0001
0000
0000
0001
0000
0100
0000
0010
0000
0000
0100
0000
0100
0000
0000
0000
,
0000
0000
0010
0000
0000
1000
0000
0100
0000
0000
0100
0000
0000
0000
0010
0000
,
0001
0000
1000
0000
0000
0100
0000
0010
0000
1000
0000
0000
1000
0000
0000
0000
,
1001
0000
0001
0000
0000
0100
0000
0010
0000
0000
0010
0000
0000
0000
0100
0000
,
0001
0000
0100
0000
0000
1000
0000
0100
0000
0000
0010
0000
0001
0000
0000
0000
,
1000
0001
0100
0000
0100
0010
0001
0000
,
0100
0001
1000
0100
0110
0000
1001
0000
,
1000
0100
0100
1000
0100
0100
1000
0000
,
0001
0010
0010
0001
0010
0010
0001
0000
,
0100
1000
0100
0000
0010
0001
0010
0000
,
1010
0000
0000
0110
0000
0000
1001
0000
0000
0000
0000
0000
0000
0000
0001
0000
,
1000
0000
0100
0000
0000
0010
0000
0100
0000
0000
0100
0000
0010
0000
0000
0000
,
0001
0000
0010
0000
0000
0100
0000
0010
0000
0000
0010
0000
0100
0000
0000
0000
,
1000
0100
0001
0100
1000
0100
0010
0100
,
1000
0010
0100
0001
0100
1000
0100
0010
,
2002
0000
0000
3003
,
1001
0000
0100
0010
1000
0010
0001
0100
,
0101
0000
0000
0100
1000
0100
0010
0100
,
0110
0000
0101
0000
0110
0000
1010
1000
,
1000
0000
0000
0100
0000
0000
0100
0000
0000
0000
0100
0000
0100
0000
0000
0000
,
0001
0010
0100
0010
0001
0000
0000
1000
,
0100
0010
0100
1000
0010
0000
0000
0100
,
1000
0100
1000
0100
1000
0100
1000
0200
,
0010
0010
0310
0000
0100
0010
1000
0100
,
0110
0000
0000
0100
0010
0001
0100
0001
,
0011
0000
0000
0100
1000
0100
0010
0100
,
0110
1010
0110
0011
,
1000
0000
0001
0000
1000
0001
0000
1000
0001
0000
0000
0000
1001
0000
0100
0000
,
0001
0100
0001
0100
0100
0100
1000
0000
,
0100
0010
0100
0001
0001
0001
0010
0000
,
0100
0100
1000
0100
0010
0001
0100
0000
,
0110
0000
0000
0000
0000
0000
1000
0001
,
1000
0001
1000
0100
0010
0001
0000
0001
,
0100
1000
0100
0001
0000
0000
1000
1000
,
0010
0100
0001
0010
0100
0001
0000
0001
,
0001
0100
0101
0000
0000
0000
0000
0000
,
1000
0000
0010
0110
0000
0110
0000
1001
;

//---------------dance-single - ----------------
#NOTES:
     dance-single:
     :
     Medium:
     9:
     0.368,0.434,0.156,0.044,0.139:
0000
0000
0000
0000
,
0000
0000
0000
0000
,
0000
0000
0000
0000
,
0000
0000
0000
0000
,
1000
0100
0010
1000
0100
0001
0000
0000
,
1000
0010
1000
0010
0000
0000
0100
0010
,
0100
1000
0100
0010
0100
0000
0001
0000
,
1000
0001
1001
0000
0000
0100
0010
0000
,
0000
0000
1000
0000
0001
0000
0000
0001
0000
0000
0001
0000
0000
0000
1000
0000
,
0100
0000
0000
0100
0000
0000
0100
0000
0100
0000
0000
0000
0000
0000
0000
0000
,
0010
0000
0000
0000
1000
0000
0000
1000
0000
0000
1000
0000
0000
0000
0010
0000
,
1000
0000
0000
0001
0000
0001
0000
0001
0000
0000
0000
0000
0000
0000
0000
0000
,
0000
0000
0100
0000
0010
0000
0000
0100
0000
0000
0100
0000
0000
0000
1000
0000
,
0010
0000
0000
1000
0000
1000
0000
1000
0000
0000
0000
0000
0000
0000
0000
0000
,
0001
0100
0010
0000
1000
1000
0010
0000
,
0100
0001
0100
0000
0020
0000
1030
0000
,
0000
0000
0000
0100
0010
1000
0100
0010
,
0000
0000
0000
0001
1000
0001
1000
0001
,
1000
0100
0110
1000
,
0110
0000
0000
0101
0000
0000
0101
0000
0000
0000
0000
0000
0000
0000
0000
0000
,
1000
0000
0100
0000
0000
1000
0000
1000
0000
0000
0000
0000
0000
0000
0010
0000
,
0100
0000
0000
0001
0000
0010
0000
0010
0000
0000
0000
0000
0000
0000
0000
0000
,
0100
0001
1000
0000
1000
0100
1000
0010
,
1000
0000
0010
0000
0100
0000
0010
0000
0000
0000
0110
0000
0000
1001
0000
0000
,
1001
0000
0000
0002
0000
1003
0001
1000
,
0001
0000
0000
0100
0010
1000
0100
1000
,
0100
0000
0000
0001
0010
0001
0010
0100
,
1000
0012
0103
0010
,
1000
0000
0000
1000
0000
0000
1000
0000
0000
0000
0000
0000
0000
0000
0010
0000
,
0100
0000
0010
0001
0001
0001
0001
0000
,
0010
0100
0010
0100
0100
0100
0100
0000
,
1000
0100
1000
0100
0010
0100
0001
1000
,
1000
1000
1000
0000
0000
0010
1000
0010
,
1000
0000
0000
0001
0010
0001
0010
0100
,
0010
0000
0000
0100
0010
0100
0010
0000
,
1100
0100
0011
0001
,
0000
0000
0100
0000
0000
0100
0000
0000
0110
0000
0000
0000
0000
0000
0010
0000
,
1000
0000
0000
1000
0000
0000
1000
0000
0010
0000
0000
0010
0000
0000
0010
0000
,
0001
0000
0000
0001
0000
0000
0001
0000
1000
0000
0000
0000
0000
0000
0000
0000
,
1000
0001
1000
0000
0100
0010
0100
0000
,
0020
0000
0000
0000
,
0031
0000
1000
0000
0001
0000
0000
0001
0000
0000
0001
0000
0000
0000
0100
0000
,
0010
0000
1000
1000
0000
0000
0100
0010
,
0100
0000
0000
0000
1000
0000
0000
1000
0000
1000
0000
0000
0000
0000
0100
0000
,
0010
0100
1000
0000
0100
0000
0001
0000
,
0001
0000
1000
0010
0000
0110
0000
1001
;

//---------------dance-single - ----------------
#NOTES:
     dance-single:
     :
     Easy:
     5:
     0.262,0.281,0.122,0.156,0.000:
0000
0000
0000
0000
,
0000
0000
0000
0000
,
0000
0000
0000
0000
,
0000
0000
0000
0000
,
1000
0001
0001
0001
,
1000
1000
0001
0000
,
0100
0010
0010
0100
,
0010
1000
0000
0000
,
1000
0001
0100
0100
,
0010
0001
1000
0000
,
1000
0100
0001
1000
,
0001
1000
0001
0000
,
1000
0010
0100
0001
,
0010
0100
1000
0000
,
0100
1000
0100
0010
,
0001
0010
1000
1001
,
0002
0000
1003
1000
,
2000
0000
3001
0001
,
0100
0100
0010
0010
,
1000
0001
1000
0001
,
0100
0100
0010
0010
,
1000
1000
0001
0000
,
0100
0100
0010
0010
,
1000
0000
0000
1000
0000
1000
0000
1000
,
2000
0000
0000
0000
,
3001
0100
0010
0010
,
2000
0000
3001
0100
,
0020
0031
0001
0010
,
0001
0001
1000
0000
,
0002
0000
2003
0000
,
3020
0000
0230
0000
,
0302
0000
0023
0000
,
1030
0001
0000
1000
,
0001
0100
0010
1000
,
0100
0010
0001
1000
,
2000
3100
0010
0001
,
1000
0001
1001
0000
,
1001
0001
1001
0000
,
1001
1000
1001
0000
,
0100
0100
0010
0001
,
2002
0000
0000
3003
,
1001
0100
0010
0001
,
1000
1000
0001
0100
,
0010
0001
1000
0100
,
0010
0010
0000
1000
,
1001
0000
0001
0000
0000
1001
0000
1001
;

//---------------dance-single - ----------------
#NOTES:
     dance-single:
     :
     Beginner:
     2:
     0.100,0.150,0.033,0.000,0.000:
0000
0000
0000
0000
,
0000
0000
0000
0000
,
0000
0000
0000
0000
,
0000
0000
0000
0000
,
1000
0000
0000
0000
,
0100
0000
0000
0000
,
0010
0000
0000
0000
,
0001
0000
0000
0000
,
1000
0000
0000
0000
,
0100
0000
0000
0000
,
0010
0000
0000
0000
,
0010
0000
0000
0000
,
0001
0000
0000
0000
,
0100
0000
0000
0000
,
0010
0000
0000
0000
,
0010
0000
0000
0000
,
0100
0000
0000
0000
,
0001
0000
0000
0000
,
1000
0000
0000
0000
,
0010
0000
0000
0000
,
0010
0000
0000
0000
,
0100
0000
0000
0000
,
0010
0000
0000
0000
,
1000
0000
0000
0000
,
1001
0000
0000
0000
,
0110
0000
0000
0000
,
1000
0000
0000
0000
,
0001
0001
0001
0000
,
1000
1000
1000
0000
,
0010
0000
0000
0000
,
0100
0000
0000
0000
,
0001
0001
0001
0001
,
0001
0000
0000
0000
,
1000
0000
0000
1000
,
1000
0000
0000
0000
,
0010
0000
0010
0000
,
0010
0000
0010
0000
,
0010
0000
0000
0000
,
0001
0001
0001
0000
,
0100
0000
0000
0000
,
0000
1000
0000
0000
,
1000
1000
1000
0000
,
0010
0010
0010
0000
,
0001
0000
0001
0000
,
0001
1000
0000
0000
,
1001
0000
0000
0000
;
