#TITLE:Palette;
#SUBTITLE:うーさーのその日暮らし Theme Song Single;
#ARTIST:Tia produced by ryo (supercell);
#TITLETRANSLIT:Palette;
#SUBTITLETRANSLIT:Wooser no Sono-hi-gurashi Theme Song Single;
#ARTISTTRANSLIT:Tia produced by ryo (supercell);
#CREDIT:;
#GENRE:SLOW ROCK;
#BANNER:Palette.png;
#BACKGROUND:Palette-bg.png;
#LYRICSPATH:;
#CDTITLE:cdtitle.png;
#MUSIC:Palette.mp3;
#METERTYPE:DDR X;
#MENUCOLOR:0,0,1,1;
#OFFSET:-0.572;
#SAMPLESTART:65.440;
#SAMPLELENGTH:12.000;
#SELECTABLE:YES;
#BPMS:0.000=148.000;
#STOPS:;
#BGCHANGES:;

//---------------dance-single - ----------------
#NOTES:
     dance-single:
     :
     Hard:
     9:
     0.402,0.443,0.070,0.278,0.009: // measure 1
0000
0000
0000
0000
,  // measure 2
0000
0000
0000
0000
,  // measure 3
0000
0000
0000
0000
,  // measure 4
0000
0000
0000
0000
,  // measure 5
1000
0100
0010
0001
,  // measure 6
0100
0010
1000
0100
,  // measure 7
0010
0001
1000
0001
,  // measure 8
1000
0000
0000
0000
,  // measure 9
1000
0000
0100
0010
1000
0001
0100
0010
,  // measure 10
0000
0100
0000
0010
1000
0000
0100
0010
,  // measure 11
0001
0000
0100
0001
2000
0000
3001
0100
,  // measure 12
0010
0000
0000
0100
0010
0000
0100
0010
,  // measure 13
0200
0001
2300
3100
,  // measure 14
0200
0000
0000
0310
0000
0000
0002
0000
0000
0000
0000
0000
0013
0000
0000
0000
,  // measure 15
0200
0000
0310
1000
0020
0000
0130
0020
,  // measure 16
0000
0000
0000
0000
0130
0000
0000
0001
,  // measure 17
0020
0000
0130
0010
0002
0000
0013
0002
,  // measure 18
0000
0000
0013
1000
0010
0000
0100
0010
,  // measure 19
0000
0000
0200
1000
0000
0000
0310
1000
,  // measure 20
0010
0000
0100
0001
0100
0100
0010
0100
,  // measure 21
0020
0000
0100
0000
1000
0000
1030
1000
,  // measure 22
0001
0000
0100
0010
1000
0100
0010
0001
,  // measure 23
0100
0000
0100
0002
1000
0000
0103
0010
,  // measure 24
1000
0000
0100
0000
0001
1000
0001
0000
,  // measure 25
1001
0000
0100
0000
0010
0000
0100
0010
,  // measure 26
1000
0000
0200
0000
0310
0000
0001
0100
,  // measure 27
0010
0100
0100
0002
,  // measure 28
1003
0000
0010
0000
0100
0010
0100
0000
,  // measure 29
0100
0000
0000
0000
0001
0000
0000
0000
2000
0000
0000
0001
0000
0000
0001
0000
,  // measure 30
3000
0000
1000
0000
0001
0000
1000
0100
,  // measure 31
0010
0000
0100
1000
0010
0000
0001
0010
,  // measure 32
0001
0000
1000
0000
0100
1000
0100
0000
,  // measure 33
1000
0000
0001
0000
0100
0000
0100
0020
,  // measure 34
0100
0000
0130
0000
0010
1000
0010
0000
,  // measure 35
0100
0010
0200
0301
,  // measure 36
0100
0000
0100
0000
0010
0001
1000
0000
,  // measure 37
2010
0100
0010
0010
,  // measure 38
0010
0000
3001
0000
1000
0001
1000
0000
,  // measure 39
1001
0000
0100
0000
0010
0000
0100
0010
,  // measure 40
0100
0010
1000
0000
1001
0001
0000
0000
,  // measure 41
1001
0100
0020
0001
,  // measure 42
1030
0001
1000
0000
0010
0000
0100
0001
,  // measure 43
0100
0000
0010
1000
0020
0000
1030
0010
,  // measure 44
0200
0000
0301
0010
0001
0100
0010
0001
,  // measure 45
0002
0000
1003
0100
1000
0010
0100
1000
,  // measure 46
0200
0000
0310
0100
1000
0100
0000
0100
,  // measure 47
0010
0000
0100
0000
0100
0000
0010
1000
,  // measure 48
0100
0010
0000
0000
1000
0100
0010
0000
,  // measure 49
0120
0000
0130
0000
1002
0000
0103
0001
,  // measure 50
0100
1000
0100
0000
0010
0000
1000
0010
,  // measure 51
0001
0010
1000
0010
0200
0010
0310
1000
,  // measure 52
0100
0010
0200
0000
0301
0000
1000
0001
,  // measure 53
0020
0000
1000
0000
0100
0000
0031
0001
,  // measure 54
2000
0000
0001
0000
3100
0000
0010
1000
,  // measure 55
0010
0000
0010
0100
0020
0000
1000
0000
,  // measure 56
0130
0000
0100
0000
1000
0001
1000
0000
,  // measure 57
1001
0000
0100
0000
0010
0000
0001
1000
,  // measure 58
0000
1000
0001
0000
0100
0010
0000
0000
,  // measure 59
0010
0000
1000
0000
0100
0000
0010
0001
,  // measure 60
0000
1000
0001
0000
0100
0010
0000
0000
,  // measure 61
0010
0000
0000
0000
;

//---------------dance-couple - ----------------
#NOTES:
     dance-couple:
     :
     Challenge:
     1:
     0.001,0.028,0.000,0.000,0.000:
00000000
00000000
00000000
00000000
,
00000000
00000000
00000000
00000000
,
00000000
00000000
00000000
00000000
,
00000000
00000000
00000000
00000000
,
00000000
00000000
00000000
00000000
,
00000000
00000000
00000000
00000000
,
00000000
00000000
00000000
00000000
,
00000000
00000000
00000000
00000000
,
00000000
00000000
00000000
00000000
,
00000000
00000000
00000000
00000000
,
00000000
00000000
00000000
00000000
,
00000000
00000000
00000000
00000000
,
00000000
00000000
00000000
00000000
,
00000000
00000000
00000000
00000000
,
00000000
00000000
00000000
00000000
,
00000000
00000000
00000000
00000000
,
00000000
00000000
00000000
00000000
,
00000000
00000000
00000000
00000000
,
00000000
00000000
00000000
00000000
,
00000000
00000000
00000000
00000000
,
00000000
00000000
00000000
00000000
,
00000000
00000000
00000000
00000000
,
00000000
00000000
00000000
00000000
,
00000000
00000000
00000000
00000000
,
00000000
00000000
00000000
00000000
,
00000000
00000000
00000000
00000000
,
00000000
00000000
00000000
00000000
,
00000000
00000000
00000000
00000000
,
00000000
00000000
00000000
00000000
,
00000000
00000000
00000000
00000000
,
00000000
00000000
00000000
00000000
,
00000000
00000000
00000000
00000000
,
00000000
00000000
00000000
00000000
,
00000000
00000000
00000000
00000000
,
00000000
00000000
00000000
00000000
,
00000000
00000000
00000000
00000000
,
00000000
00000000
00000000
00000000
,
00000000
00000000
00000000
00000000
,
00000000
00000000
00000000
00000000
,
00000000
00000000
00000000
00000000
,
00000000
00000000
00000000
00000000
,
00000000
00000000
00000000
00000000
,
00000000
00000000
00000000
00000000
,
00000000
00000000
00000000
00000000
,
00000000
00000000
00000000
00000000
,
00000000
00000000
00000000
00000000
,
00000000
00000000
00000000
00000000
,
00000000
00000000
00000000
00000000
,
00000000
00000000
00000000
00000000
,
00000000
00000000
00000000
00000000
,
00000000
00000000
00000000
00000000
,
00000000
00000000
00000000
00000000
,
00000000
00000000
00000000
00000000
,
00000000
00000000
00000000
00000000
,
00000000
00000000
00000000
00000000
,
00000000
00000000
00000000
00000000
,
00000000
00000000
00000000
00000000
,
00000000
00000000
00000000
00000000
,
00000000
00000000
00000000
00000000
,
00000000
00000000
00000000
00000000
,
00000000
00000000
00000000
00000000
,
00000000
00000000
00000000
00000000
,
00000000
00000000
00000000
00000000
,
00000000
00000000
00000000
00000000
,
10000000
00000000
00000000
00000000
;

//---------------dance-single - ----------------
#NOTES:
     dance-single:
     :
     Medium:
     6:
     0.256,0.313,0.043,0.182,0.000:
0000
0000
0000
0000
,
0000
0000
0000
0000
,
0000
0000
0000
0000
,
0000
0000
0000
0000
,
1000
0100
0100
0000
,
0001
0010
0010
0000
,
1000
0010
0010
0000
,
0001
0000
0000
0000
,
1000
0000
0010
0100
0000
0000
0010
0001
,
0000
0000
0100
0000
0010
0000
1000
0100
,
0000
0000
0010
0001
0000
0000
1000
0002
,
0000
0000
1003
0100
,
0010
0000
0200
0000
,
0310
0000
1000
0010
0000
0000
0100
0000
,
0010
0000
1000
0020
0000
0000
0130
0002
,
0000
0000
0000
0003
0000
0000
0000
0100
,
0010
0000
1000
0100
0000
0000
0010
0001
,
0000
0000
0100
0000
0001
0000
0100
0010
,
0000
0000
0010
0002
0000
0000
1003
0001
,
0000
0000
0000
0100
0020
0000
1030
0000
,
0010
0000
0100
0000
0100
0000
0010
1000
,
0000
0000
0100
0010
,
1000
0000
0001
0100
0000
0000
0010
0002
,
0000
0000
0000
0000
1003
0001
1000
0000
,
1001
0001
0100
0010
,
1000
0100
0010
0100
,
0000
0010
1000
0020
,
0000
1030
0100
0010
,
0100
0000
0002
0000
,
1003
0000
0000
0000
0100
0000
0010
1000
,
0020
0000
0000
0000
0130
0000
0010
0200
,
0000
0000
0000
0000
0301
1000
0001
0000
,
0000
0100
0010
0002
,
0000
0000
1003
0000
,
0000
0100
0010
1000
,
0000
0100
0010
0001
,
1001
0000
0000
0000
,
0000
0000
0000
0000
,
1000
0001
0100
0010
,
0001
0000
1000
0000
0001
1000
0000
0000
,
1001
0100
0010
0001
,
1000
0001
1000
0000
0010
0000
0001
0010
,
0001
0000
0100
0000
1000
0000
1000
0001
,
1000
0000
0100
0000
0010
0000
0100
0010
,
2000
0000
0000
0000
,
3002
0000
0203
0000
,
0310
0000
1000
0020
0000
0000
0000
0000
,
0130
0000
0000
0000
0100
0010
0000
0000
,
0110
0010
0010
0000
,
0100
0000
0100
0000
0100
0000
1000
0100
,
2000
0000
3002
0000
,
1003
0100
0010
0001
,
0020
0000
0230
0000
,
0301
0000
0100
0010
,
2000
0000
0000
0000
,
3001
0100
0010
0001
,
1000
0000
0100
0010
,
0000
1000
0100
0100
,
0010
0000
1000
0001
,
0001
0100
0010
0000
,
1001
0000
0000
0000
;

//---------------dance-single - ----------------
#NOTES:
     dance-single:
     :
     Easy:
     3:
     0.201,0.235,0.035,0.235,0.000:
0000
0000
0000
0000
,
0000
0000
0000
0000
,
0000
0000
0000
0000
,
0000
0000
0000
0000
,
1000
0000
0100
0000
,
0010
0000
0001
0000
,
0100
0000
0010
0000
,
1000
0000
0000
0000
,
0001
0000
0001
0000
,
1000
0000
0100
0000
,
0100
0000
0010
0000
,
0001
0000
1000
1000
,
2000
0000
3002
0000
,
0103
0100
0100
0000
,
2000
0000
3002
0000
,
0103
0000
0000
0000
,
0020
0000
2030
0000
,
3001
0100
0001
0000
,
0020
0000
0230
0000
,
0310
1000
0010
0100
,
0020
0000
0000
0000
,
0230
0000
0000
0000
,
1300
1000
1000
0001
,
1000
1000
0001
0000
,
1001
0000
0010
0010
,
0000
0100
0100
0100
,
0000
1000
1000
0002
,
0000
1003
1000
0010
,
0010
0000
0200
0000
,
0320
0000
0130
0000
,
1000
0100
0010
0100
,
0010
0000
1000
0001
,
0000
0010
0010
0200
,
0000
0310
0010
0000
,
0001
0000
2000
0000
,
3002
0000
1003
0000
,
0110
0000
0000
0000
,
0010
0000
0000
0000
,
1000
1000
1000
0000
,
0001
0001
0001
0000
,
1001
0001
0001
0000
,
0100
0100
0100
0000
,
0020
0000
0230
0000
,
0310
0000
1000
1000
,
2000
0000
3001
0001
,
0002
0000
0103
0000
,
0020
0000
0230
0000
,
0310
0000
1000
0000
,
1001
0000
0001
0000
,
0001
0001
0000
0100
,
0200
0300
0100
0200
,
0300
0010
0010
0000
,
2000
0000
3000
0001
,
0002
0000
0000
0000
,
2003
0000
0000
0000
,
0000
0000
0000
0000
,
3001
0100
0010
0000
,
1000
0100
0010
0000
,
0001
0010
0100
0000
,
1000
0010
0100
0000
,
0001
0000
0000
0000
;

//---------------dance-single - ----------------
#NOTES:
     dance-single:
     :
     Beginner:
     1:
     0.073,0.104,0.026,0.009,0.000:
0000
0000
0000
0000
,
0000
0000
0000
0000
,
0000
0000
0000
0000
,
0000
0000
0000
0000
,
1000
0000
0000
0000
,
0100
0000
0000
0000
,
0010
0000
0000
0000
,
0001
0000
0000
0000
,
1000
0000
0000
0000
,
0001
0000
0000
0000
,
0100
0000
0000
0000
,
0010
0000
0000
0000
,
0001
0000
0000
0000
,
1000
0000
0000
0000
,
0100
0000
0000
0000
,
0010
0000
0000
0000
,
0001
0000
0000
0000
,
1000
0000
0000
0000
,
0100
0000
0000
0000
,
0001
0000
0000
0000
,
0020
0000
0000
0000
,
0030
0000
0000
0000
,
0100
0000
0000
0000
,
0100
0000
0000
0000
,
1000
0000
0000
0000
,
1000
0000
0000
0000
,
0001
0000
0000
0000
,
0001
0000
0000
0000
,
0100
0000
0000
0000
,
0010
0000
0000
0000
,
1000
0000
0000
0000
,
0001
0000
0000
0000
,
0001
0000
0000
0000
,
0010
0000
0000
0000
,
0100
0000
0000
0000
,
1000
0000
0000
0000
,
0001
0000
0000
0000
,
0000
0000
0000
0000
,
1000
0000
0000
0000
,
1000
0000
0000
0000
,
1001
0000
0000
0000
,
0001
0000
0000
0000
,
0001
0000
0000
0000
,
0010
0000
0000
0000
,
0100
0000
0000
0000
,
1000
0000
0000
0000
,
0001
0000
0000
0000
,
0001
0000
0000
0000
,
1001
0000
0000
0000
,
0010
0000
0000
0000
,
0010
0000
0000
0000
,
0010
0000
0000
0000
,
1000
0000
0000
0000
,
1000
0000
0000
0000
,
0001
0000
0000
0000
,
1000
0000
0000
0000
,
0110
0000
0000
0000
,
0010
0000
0000
0000
,
0001
0000
0000
0000
,
1000
0000
0000
0000
,
0001
0000
0000
0000
;
