#VERSION:0.81;
#TITLE:ネプチューヌ☆サガして;
#SUBTITLE:超次元ゲイム ネプテューヌ THE ANIMATION ED1;
#ARTIST:アフィリア・サーガ;
#TITLETRANSLIT:Neptune*Sagashite;
#SUBTITLETRANSLIT:Choujigen Game Neptune THE ANIMATION ED1;
#ARTISTTRANSLIT:Afilia Saga;
#GENRE:NEPTUNE POP;
#CREDIT:;
#BANNER:Neptune Sagashite.png;
#BACKGROUND:Neptune Sagashite-bg.png;
#LYRICSPATH:;
#CDTITLE:cdtitle.png;
#MUSIC:Neptune Sagashite.mp3;
#METERTYPE:DDR X;
#MENUCOLOR:0,0,1,1;
#OFFSET:-0.049667;
#SAMPLESTART:26.299;
#SAMPLELENGTH:12.000000;
#SELECTABLE:YES;
#BPMS:0.000000=145.000000
;
#STOPS:
;
#BGCHANGES:;
#KEYSOUNDS:;
#ATTACKS:;

//---------------dance-single - ----------------
#NOTES:
     dance-single:
     :
     Beginner:
     1:
     0.074524,0.090158,0.011341,0.056703,0.000000,40.000000,1.000000,5.000000,0.000000,0.000000,0.000000,0.074524,0.090158,0.011341,0.056703,0.000000,40.000000,1.000000,5.000000,0.000000,0.000000,0.000000:
0000
0000
0000
0000
,
0000
0000
0000
0000
,
0000
0000
0000
0000
,
0000
0000
0000
0000
,
0001
0000
0000
0000
,
0000
0000
0000
0000
,
1000
0000
0000
0000
,
0000
0000
0000
0000
,
0001
0000
0000
0000
,
0001
0000
0000
0000
,
0100
0000
0000
0000
,
0010
0000
0000
0000
,
0010
0000
0000
0000
,
0010
0000
0000
0000
,
0100
0000
0000
0000
,
0100
0000
0000
0000
,
0110
0000
0000
0000
,
0010
0000
0000
0000
,
0010
0000
0000
0000
,
0100
0000
0000
0000
,
0001
0000
0000
0000
,
1000
0000
0000
0000
,
0010
0000
0000
0000
,
0010
0000
0000
0000
,
0100
0000
0000
0000
,
0001
0000
0000
0000
,
1000
0000
0000
0000
,
0001
0000
0000
0000
,
0001
0000
0000
0000
,
1000
0000
0000
0000
,
2000
0000
0000
0000
,
3000
0000
0000
0000
,
2000
0000
0000
0000
,
0000
0000
0000
0000
,
3000
0000
0000
0000
,
0001
0000
0000
0000
,
0002
0000
0000
0000
,
0003
0000
0000
0000
,
0001
0000
0000
0000
,
0001
0000
0000
0000
,
0100
0000
0000
0000
,
0100
0000
0000
0000
,
0010
0000
0000
0000
,
0010
0000
0000
0000
,
1000
0000
0000
0000
,
1000
0000
0000
0000
,
0001
0000
0000
0000
,
0002
0000
0000
0000
,
0003
0000
0000
0000
,
0001
0000
0000
0000
,
0002
0000
0000
0000
,
0000
0000
0000
0000
,
0000
0000
0000
0000
,
0003
0000
0000
0000
;

//---------------dance-single - ----------------
#NOTES:
     dance-single:
     :
     Easy:
     3:
     0.123126,0.150263,0.000000,0.056703,0.000000,71.000000,0.000000,5.000000,0.000000,0.000000,0.000000,0.123126,0.150263,0.000000,0.056703,0.000000,71.000000,0.000000,5.000000,0.000000,0.000000,0.000000:
0000
0000
0000
0000
,
0000
0000
0000
0000
,
0000
0000
0000
0000
,
0000
0000
0000
0000
,
0001
0000
0000
0000
,
0001
0000
0000
0000
,
2000
0000
0000
0000
,
3000
0000
0000
0000
,
1000
0000
1000
0000
,
1000
0000
0000
0000
,
0010
0000
0010
0000
,
0010
0000
0100
0000
,
0100
0000
0001
0000
,
0001
0000
0001
0000
,
1000
1000
1000
0000
,
0001
0001
0000
0000
,
1000
0000
1000
0000
,
0001
0000
0000
0000
,
0100
0000
0100
0000
,
0100
0000
0000
0000
,
0010
0000
0010
0000
,
0010
0000
0000
0000
,
1000
0000
1000
0000
,
1000
0000
0000
0000
,
0001
0000
0001
0000
,
0001
0000
0000
0000
,
0100
0000
0100
0000
,
0100
0000
0000
0000
,
0010
0000
0010
0000
,
0010
0000
0000
0000
,
1000
0000
0000
0000
,
0001
0000
0001
0000
,
0002
0000
0000
0000
,
0000
0000
0000
0000
,
0003
0000
0000
0000
,
1000
0000
1000
0000
,
2000
0000
0000
0000
,
0000
0000
0000
0000
,
3000
0000
0001
0000
,
0001
0000
0000
0000
,
0100
0000
0010
0000
,
1000
1000
1000
0000
,
0001
0000
0100
0000
,
0010
0000
0010
0000
,
1000
0000
0001
0000
,
0100
0100
0100
0000
,
0001
0000
0010
0000
,
0001
0000
0001
0000
,
0001
0000
0000
0000
,
1000
0000
0000
0000
,
0020
0000
0000
0000
,
0200
0000
0000
0000
,
0000
0000
0000
0000
,
0330
0000
0000
0000
;

//---------------dance-single - ----------------
#NOTES:
     dance-single:
     :
     Medium:
     6:
     0.191170,0.270473,0.102065,0.068043,0.000000,103.000000,9.000000,6.000000,0.000000,0.000000,0.000000,0.191170,0.270473,0.102065,0.068043,0.000000,103.000000,9.000000,6.000000,0.000000,0.000000,0.000000:
0000
0000
0000
0000
,
0000
0000
0000
0000
,
0000
0000
0000
0000
,
0000
0000
0000
0000
,
1001
0000
1000
0000
,
0010
0000
0001
0000
,
0010
0000
1000
0000
,
0001
0000
0000
0000
,
1001
0000
0101
0000
,
1100
0000
1001
0000
,
0010
0000
0100
0000
,
0010
0010
1000
1000
,
1001
0000
1100
0000
,
0101
0000
1001
0000
,
0010
0100
0100
0001
,
1000
1000
0000
0001
,
1000
0000
0010
0000
,
0100
0100
0100
0000
,
0001
0000
0010
0000
,
0001
0001
0001
0000
,
1000
0000
0010
0000
,
0100
0100
0100
0000
,
1000
0000
0100
0000
,
0010
0000
0100
0000
,
0001
0000
0010
0000
,
0001
0001
0001
0000
,
0010
0000
0001
0000
,
0100
0000
0001
0000
,
1000
0001
1000
0000
,
0001
0000
1000
0000
,
0002
0000
0000
0000
,
1003
0010
0100
0010
,
2000
0000
0000
0000
,
0000
0000
0000
0000
,
3000
0000
0000
0000
,
0001
0100
0001
0100
,
0002
0000
0000
0000
,
0000
0000
0000
0000
,
1003
0000
0100
0000
,
0010
0000
0001
0000
,
1000
0000
0001
0000
,
1000
1000
1000
0000
,
0010
0000
0100
0000
,
0010
0010
0010
0000
,
1000
0000
0001
0000
,
0100
0001
0100
1000
,
0100
0010
0100
1000
,
0100
0001
0100
2000
,
0001
0000
0000
0000
,
0000
0000
0000
0000
,
3002
0000
0000
0000
,
2000
0000
0000
0000
,
0000
0000
0000
0000
,
3003
0000
0000
0000
;

//---------------dance-single - ----------------
#NOTES:
     dance-single:
     :
     Hard:
     9:
     0.387199,0.390683,0.034022,0.238152,0.000000,215.000000,3.000000,21.000000,0.000000,0.000000,0.000000,0.387199,0.390683,0.034022,0.238152,0.000000,215.000000,3.000000,21.000000,0.000000,0.000000,0.000000:
0000
0000
0000
0000
,
0000
0000
0000
0000
,
0000
0000
0000
0000
,
0000
0000
0000
0000
,
1001
1000
0100
0010
,
0001
1000
0010
0001
,
2000
0000
0000
0000
,
3200
0000
0000
0000
0000
0000
0000
1300
,
0100
0000
0000
0001
1000
0000
0000
1000
,
0001
0000
0000
0001
1000
0000
0000
0000
,
1000
0100
0010
0000
0001
0000
0010
0000
,
0100
0000
1000
0000
0100
0000
0001
0100
,
0001
0000
0000
1000
0010
0000
0000
0100
,
0010
0000
0000
0001
0010
0000
0000
0000
,
1000
0100
1000
0000
1010
0000
0001
0010
,
0001
0000
0101
0000
1000
0001
1000
0000
,
0001
1000
0001
0000
0100
0010
0100
0000
,
0001
0010
0200
0000
0310
0000
1000
0100
,
1000
0000
0020
0000
2030
0000
3001
0100
,
0020
0230
0310
1000
,
0100
1000
0100
0000
0010
1000
0010
0000
,
0001
0010
0200
0000
0301
0000
0001
0100
,
1000
0000
1000
0100
0010
0000
0010
0001
,
0010
0000
0010
0100
2000
0000
3010
0100
,
0001
0010
0100
0000
0100
1000
0100
0000
,
0010
0001
0020
0000
1030
0000
1000
0010
,
0001
0000
2000
0000
3100
0000
0010
1000
,
0001
0010
2000
0000
3010
0000
0100
0010
,
0100
1000
0100
0000
0010
0000
0001
0010
,
0100
0000
0100
0010
0100
0000
0100
1000
,
0002
1000
0010
1000
,
1003
0001
0001
0000
2000
0000
3002
0000
,
2003
0000
0000
0000
,
0000
0000
0000
0000
,
3001
1000
0100
0010
,
0001
0000
2000
0000
3002
0000
0103
0010
,
2000
0000
0000
0000
,
0000
0000
0000
0000
,
3001
1000
0010
0100
,
0001
1000
0001
0000
1000
0000
0010
0000
,
1000
0100
0010
0000
0100
0010
0001
0000
,
0001
0010
0100
0000
0010
0000
1000
0000
,
1000
0001
0100
0000
0100
0010
1000
0000
,
0100
0001
0100
0000
1000
0000
0100
0000
,
0010
0100
0010
0000
1000
0001
1000
0000
,
1000
0001
0010
0000
0010
0000
0001
0000
,
0001
0010
0100
0000
1000
0001
0001
0000
,
1000
0010
0010
0000
1000
0000
0002
0000
,
1003
0000
0000
1000
0000
0000
0010
0000
,
0010
0000
0000
0100
0000
0000
0010
0000
,
0000
1000
0000
0000
0100
0000
0010
0000
,
1000
0000
0000
0001
0000
0000
0100
0000
,
0000
0010
0000
0000
1000
0000
0002
0000
,
1003
0000
0000
0000
;

//---------------dance-single - ----------------
#NOTES:
     dance-single:
     :
     Challenge:
     11:
     0.594570,0.721260,1.000000,0.272174,0.011341,253.000000,90.000000,24.000000,0.000000,0.000000,0.000000,0.594570,0.721260,1.000000,0.272174,0.011341,253.000000,90.000000,24.000000,0.000000,0.000000,0.000000:
// measure 0
0000
0000
0000
0000
,  // measure 1
0000
0000
0000
0000
,  // measure 2
0000
0000
0000
0000
,  // measure 3
0000
0000
0000
0000
,  // measure 4
1001
0000
2000
0001
3002
0010
0023
0001
,  // measure 5
0032
1000
2003
0100
3200
1000
2300
0001
,  // measure 6
3002
0000
1000
1000
,  // measure 7
2003
0000
0000
0000
0000
0000
0000
3010
,  // measure 8
1000
1010
1010
0100
0010
0110
0110
0001
,  // measure 9
0010
0011
0011
0100
0001
0101
0101
1000
,  // measure 10
1010
1000
0020
0000
0130
0000
0011
0000
,  // measure 11
1000
0100
0010
0000
0001
0010
0100
0010
,  // measure 12
0010
0110
0110
1000
0001
1001
1001
0001
,  // measure 13
0010
0011
0011
0100
0010
0110
0110
1000
,  // measure 14
0010
1000
1010
0000
0101
0000
1000
0010
,  // measure 15
0110
0000
0000
0000
0101
0000
0000
0000
1000
0001
1000
0001
1000
0000
0000
0000
,  // measure 16
0001
0100
0101
0000
1000
0010
1010
0000
,  // measure 17
0100
0010
0110
0000
0011
0000
0200
0010
,  // measure 18
0310
1100
0110
0011
,  // measure 19
0101
1001
1010
0110
,  // measure 20
1000
0010
0110
0000
0001
0100
0110
0000
,  // measure 21
0100
0010
1010
0000
0101
0000
1000
0001
,  // measure 22
1001
0000
0001
1000
1001
0000
0100
0010
,  // measure 23
0110
0000
0010
0100
0220
0000
0330
0000
,  // measure 24
1100
0010
0011
0000
0011
0100
1100
0000
,  // measure 25
1010
0010
0011
0000
1001
0000
1100
0000
,  // measure 26
1010
0101
1010
0110
,  // measure 27
0100
0010
0110
0000
0011
0000
0100
0001
,  // measure 28
0100
0001
0100
0000
0100
0000
0010
1000
,  // measure 29
1010
1010
0100
0010
0110
0110
0001
0010
,  // measure 30
0012
0010
1000
0010
,  // measure 31
1003
1001
2000
0000
3002
0100
0203
0000
,  // measure 32
0320
0000
0000
0000
,  // measure 33
0000
0000
0000
0000
,  // measure 34
1030
0001
1000
0000
0100
0010
0100
0000
,  // measure 35
0010
0001
0020
0000
2030
0000
3001
0100
,  // measure 36
0020
1000
0000
0100
,  // measure 37
0000
1000
1000
0000
,  // measure 38
1030
0001
1000
0000
0100
0010
0001
0000
,  // measure 39
0100
0001
0100
0000
0100
0001
0100
0000
,  // measure 40
1100
0100
1100
0000
0011
0010
0011
0000
,  // measure 41
0011
0001
1001
0000
1001
0000
0100
0000
,  // measure 42
0011
0001
0011
0000
1100
1000
1100
0000
,  // measure 43
1100
1000
1001
0000
0110
0000
0011
0000
,  // measure 44
0101
0100
0101
0000
1010
0010
1010
0000
,  // measure 45
1001
0001
1001
0000
0011
0000
0010
0000
,  // measure 46
0011
0010
0011
0000
0101
0100
0101
0000
,  // measure 47
1001
1000
1001
0000
2000
0000
0002
0000
,  // measure 48
3003
0000
0000
0001
0000
0000
0100
0000
,  // measure 49
0100
0000
0000
0010
0000
0000
0100
0000
,  // measure 50
0000
0001
0000
0000
0010
0000
0100
0000
,  // measure 51
0001
0000
0000
1000
0000
0000
0010
0000
,  // measure 52
0000
0100
0000
0000
0001
0000
2000
0000
,  // measure 53
3001
0000
0000
0000
;
