#TITLE:Mirror;
#SUBTITLE:魔法科高校の劣等生 ED2;
#ARTIST:安田レイ;
#TITLETRANSLIT:Mirror;
#SUBTITLETRANSLIT:Mahouka Koukou no Rettousei ED2;
#ARTISTTRANSLIT:Rei Yasuda;
#GENRE:IRREGULAR POP 4;
#CREDIT:;
#BANNER:Mirror.png;
#BACKGROUND:Mirror-bg.png;
#LYRICSPATH:;
#CDTITLE:cdtitle.png;
#MUSIC:Mirror.mp3;
#MENUCOLOR:0,0,1,1;
#METERTYPE:DDR X;
#OFFSET:-0.406;
#SAMPLESTART:57.061;
#SAMPLELENGTH:12.000;
#SELECTABLE:YES;
#BPMS:0.000=127.000;
#STOPS:;
#BGCHANGES:;

//---------------dance-single - ----------------
#NOTES:
     dance-single:
     [LEGGENDARIA]:
     Challenge:
     13:
     0.606,0.594,0.121,0.396,0.335: // measure 1
0000
0000
0000
0000
,  // measure 2
0000
0000
0000
0000
,  // measure 3
0000
0000
0000
0000
,  // measure 4
0000
0000
0000
0000
,  // measure 5
0000
0000
0000
0000
,  // measure 6
1000
0100
0001
0002
0000
0103
1000
0200
,  // measure 7
1000
2300
0000
3020
0000
0130
0100
0001
,  // measure 8
1000
1000
0100
0020
0000
0031
0100
0010
,  // measure 9
0000
0000
2000
0000
0000
0000
0100
0000
0000
0000
3001
0000
0001
0010
0100
1000
,  // measure 10
0001
1000
0100
0010
0000
0010
0001
0020
,  // measure 11
0001
0230
0000
2300
0000
3100
0010
0100
,  // measure 12
0010
0000
0000
0001
1000
0000
0010
0000
0100
0000
0200
0000
0010
0000
0000
0000
,  // measure 13
0301
0000
0000
1000
0000
0000
0100
0000
0000
0000
0010
0010
0002
0000
0000
0000
,  // measure 14
1003
1000
0100
0020
0001
0031
0001
0200
,  // measure 15
1000
0000
2300
0000
0000
0000
3200
0000
0000
0000
1300
0000
0100
0001
0010
0001
,  // measure 16
0100
0001
0010
0200
0010
0301
0100
1000
,  // measure 17
0001
0000
2000
0000
0001
0000
3001
0000
0010
0000
0001
0000
0100
1000
0010
0100
,  // measure 18
0011
0100
0010
0200
0010
1300
0100
0020
,  // measure 19
0001
0000
0032
0000
0000
0000
0023
0000
0000
0000
0130
0000
0010
1000
0100
0000
,  // measure 20
0001
0000
0000
0100
0000
0000
0020
0000
0000
0000
1000
0000
0000
0000
0031
0000
,  // measure 21
0002
0000
0000
0000
0103
0000
0001
0020
0000
0000
0001
0000
0031
0010
0100
1000
,  // measure 22
1100
0000
0100
0000
0010
0000
0001
0000
1000
0001
1000
0000
0010
0000
0100
0000
,  // measure 23
0010
0000
0100
0000
1000
0000
0100
0000
0001
0100
0010
0000
0100
0000
0001
0000
,  // measure 24
0101
0000
1000
0000
0100
0000
0010
0000
0001
1000
0100
0000
0001
0000
0100
1000
,  // measure 25
0000
0000
0010
0000
1000
0000
0010
0000
1000
0001
1000
0000
0001
0100
0010
0000
,  // measure 26
0101
2000
0100
3020
0000
0000
0130
0100
,  // measure 27
1010
0000
1000
0000
0100
0000
0020
0000
0000
0000
0031
1000
1000
0000
0001
0000
,  // measure 28
1001
0000
1000
0000
0000
0000
1000
0000
0100
0000
0000
0010
0001
0000
0001
0000
,  // measure 29
0010
0000
0000
0100
0000
0000
0020
0000
1000
0000
0100
0000
1000
0000
0000
0000
,  // measure 30
0031
0000
0000
0000
0100
0000
0000
0010
0001
0000
0001
0000
0010
0001
0010
0100
,  // measure 31
1000
0000
0100
0000
0100
0000
0010
0100
0010
0100
0010
0000
0010
0000
0100
0000
,  // measure 32
0100
0000
0010
0000
0001
0000
0010
0100
0010
0100
0002
0000
1000
0000
2003
0000
,  // measure 33
0000
0000
3100
0000
0010
0000
0001
0100
1000
0100
0001
0000
0100
0000
0010
0000
,  // measure 34
0010
0000
0000
0100
0000
0000
0100
0001
0100
0001
2000
0000
0001
0000
3100
0010
,  // measure 35
0001
0000
1000
0000
1000
0000
0100
0010
0100
0000
0001
0000
0001
0000
0100
0000
,  // measure 36
0100
0000
0010
0000
0001
0000
0100
0010
0100
0010
2000
0000
0000
0000
3200
0000
,  // measure 37
0010
0000
0301
0000
0100
0000
0010
0001
0010
0001
0100
0000
1000
0000
0100
0000
,  // measure 38
0100
0000
0010
0000
0010
0000
0010
1000
0001
0000
1000
0000
1000
0100
0010
0001
,  // measure 39
1000
0000
1000
0000
0100
0000
0010
0001
1000
0001
0100
0000
0010
0000
1000
0000
,  // measure 40
0001
0000
0100
0000
0010
0000
0100
0001
0100
0010
0002
0000
1000
0000
0013
0000
,  // measure 41
0100
0000
0010
0000
0010
0000
0100
1000
0100
1000
0010
0000
1000
0000
0100
0000
,  // measure 42
0010
0000
0010
0000
0100
0000
0010
0001
0010
0100
1000
0000
0110
0000
0100
0001
,  // measure 43
0010
0000
0001
0000
0001
0000
1000
0001
1000
0001
1000
0000
0100
0000
1000
0000
,  // measure 44
0100
0000
0000
0001
0100
0000
0001
1000
0001
1000
0001
0000
0000
0000
0001
0000
,  // measure 45
0110
0000
0000
0010
0000
0000
0100
0000
0000
0000
0000
0000
0110
0000
0010
0001
,  // measure 46
1000
0000
0000
0000
0010
0000
0000
0000
0110
0000
0000
0000
1000
0100
0000
0000
,  // measure 47
2200
0000
0000
0000
,  // measure 48
3300
0000
0000
0000
;

//---------------dance-single - ----------------
#NOTES:
     dance-single:
     :
     Hard:
     9:
     0.404,0.413,0.022,0.407,0.088:
0000
0000
0000
0000
,
0000
0000
0000
0000
,
0000
0000
0000
0000
,
0000
0000
0000
0000
,
0000
0000
0000
0000
,
1000
0100
0010
0001
0000
0010
0100
1000
,
0000
0002
0000
0203
0000
0310
0100
0001
,
0000
1000
0100
0002
0000
0103
1000
0010
,
0000
2000
0000
0100
0000
0000
0001
0001
,
3001
0100
0010
1000
0000
0010
0001
0020
,
0000
0230
0000
0302
0000
0103
0010
0100
,
0010
1000
0100
0010
,
0001
0000
0000
1000
0000
0000
0100
0000
0000
0000
0010
0000
0100
0000
0000
0000
,
1000
0100
0100
0010
0000
0001
0001
0100
,
0000
0100
0000
1000
0000
1000
0100
0010
,
0000
0001
0010
0100
0000
0100
0010
0100
,
0000
0002
0000
0103
0000
1000
0100
0010
,
0001
0100
0010
0100
0000
0001
0100
0010
,
0000
1000
0000
0020
0000
0130
0010
0100
,
0001
0000
0000
0010
0000
0000
2000
0000
0000
0000
0000
0000
0000
0000
3010
0000
,
0002
0000
0000
0000
0103
0000
0000
2000
0000
0000
0000
0000
0000
0000
0000
0000
,
3100
0100
0010
0100
0000
1000
0100
0001
,
0000
0010
0001
0200
0000
0310
0100
0010
,
0000
0000
1000
0000
0100
0000
0020
0000
0000
0000
0130
0000
0001
0000
0000
0100
,
0000
0010
1000
0010
1000
0020
0000
0031
,
0000
1000
0100
0020
0000
0000
0031
0100
,
0010
1000
0100
0010
0000
0001
0000
1000
,
0000
0000
1000
0000
0000
0000
0001
0000
0100
0000
0000
0010
0000
0000
1000
0000
,
0001
0000
0000
0100
0000
0000
0020
0000
0000
0000
0000
0000
0000
0000
0000
0000
,
1030
0100
0001
0010
,
2000
0000
0000
0100
0000
0000
3100
0000
0002
0000
0000
0100
0000
0000
0103
0000
,
0100
0010
0001
0100
0000
2000
0000
3200
,
0000
0301
0010
0200
0000
1300
0100
0010
,
0002
0000
0000
0100
0000
0000
0103
0000
0000
0000
2000
0000
0000
0000
3100
0000
,
0000
0000
0200
0000
0000
0000
0301
0000
0010
0000
0000
0001
0000
0000
0010
0000
,
0100
0000
0000
0010
0000
0000
0200
0000
0000
0000
2300
0000
0000
0000
3100
0000
,
0000
1000
0100
0010
0000
0010
0001
0100
,
0001
0000
0000
0010
0000
0000
0100
0000
0000
0000
1000
0000
1100
0000
0000
0000
,
2000
0000
0000
0100
0000
0000
0010
0000
3002
0000
0000
0010
0000
0000
0103
0000
,
1000
0100
0001
1000
0000
0002
0000
0013
,
0100
0010
0010
0200
0000
0310
1000
0010
,
0001
0010
0100
0010
0000
1000
0000
0010
,
0020
0000
0001
0000
0000
0000
0130
1000
,
0200
0000
0000
0310
0000
0000
2000
0000
0000
0000
0000
0000
0000
0000
3010
0000
,
0100
0000
0000
0010
0000
0000
0200
0000
0000
0000
0000
0000
0000
0000
0000
0000
,
0301
0100
1000
0010
,
2200
0000
0000
0000
,
3300
0000
0000
0000
;

//---------------dance-single - ----------------
#NOTES:
     dance-single:
     :
     Beginner:
     1:
     0.068,0.101,0.011,0.011,0.000:
0000
0000
0000
0000
,
0000
0000
0000
0000
,
0000
0000
0000
0000
,
0000
0000
0000
0000
,
0000
0000
0000
0000
,
0010
0000
0000
0000
,
0010
0000
0000
0000
,
0100
0000
0000
0000
,
0100
0000
0000
0000
,
0001
0000
0000
0000
,
0001
0000
0000
0000
,
0001
0000
0000
0000
,
1000
0000
0000
0000
,
1000
0000
0000
0000
,
0001
0000
0000
0000
,
0001
0000
0000
0000
,
0010
0000
0000
0000
,
0100
0000
0000
0000
,
0100
0000
0000
0000
,
1000
0000
0000
0000
,
1000
0000
0000
0000
,
0010
0000
0000
0000
,
0010
0000
0000
0000
,
0100
0000
0000
0000
,
0100
0000
0000
0000
,
0001
0000
0000
0000
,
0001
0000
0000
0000
,
0010
0000
0000
0000
,
0100
0000
0000
0000
,
2000
0000
0000
0000
,
3000
0000
0000
0000
,
0001
0000
0000
0000
,
0010
0000
0000
0000
,
0010
0000
0000
0000
,
0001
0000
0000
0000
,
1000
0000
0000
0000
,
0100
0000
0000
0000
,
1000
0000
0000
0000
,
0010
0000
0000
0000
,
0010
0000
0000
0000
,
0100
0000
0000
0000
,
0001
0000
0000
0000
,
0010
0000
0000
0000
,
0001
0000
0000
0000
,
1000
0000
0000
0000
,
0010
0000
0000
0000
,
1001
0000
0000
0000
;

//---------------dance-single - ----------------
#NOTES:
     dance-single:
     :
     Easy:
     4:
     0.221,0.233,0.011,0.044,0.000:
0000
0000
0000
0000
,
0000
0000
0000
0000
,
0000
0000
0000
0000
,
0000
0000
0000
0000
,
0000
0000
0000
0000
,
1000
0100
0010
0000
,
0010
0001
0100
0000
,
0100
0010
1000
0000
,
1000
0001
0100
0000
,
0100
0001
1000
0000
,
0010
1000
0001
0000
,
0010
0001
1000
0000
,
1000
0000
1000
0000
,
0001
0010
0100
0100
,
0010
0001
0100
0100
,
0001
0100
0010
1000
,
0100
1000
0000
0000
,
0000
1000
0100
1000
,
0010
0100
0001
0010
,
0001
0100
0010
1000
,
0001
0000
0001
0000
,
1000
0100
0010
0100
,
1000
0010
1000
0010
,
0100
0001
0010
0001
,
0010
0001
0100
0010
,
1000
0100
0010
0001
,
0010
0100
1000
0010
,
1000
0100
1000
0010
,
0100
0001
0100
0001
,
0001
0000
0000
0000
,
2000
0000
3001
0000
,
0002
0000
1003
0000
,
1000
0010
0100
0000
,
0100
0010
0100
0001
,
0010
0010
0001
0000
,
0001
0001
1000
0000
,
1000
1000
0010
0010
,
0100
0100
0001
0010
,
0100
0000
0100
0000
,
0100
1000
0010
0100
,
0001
0001
0010
0001
,
0010
0001
0100
0001
,
1000
0000
0000
0001
,
0001
1000
0010
0010
,
0000
0100
0001
0010
,
0001
0001
1000
1000
,
2002
0000
0000
0000
,
3003
0000
0000
0000
;

//---------------dance-single - ----------------
#NOTES:
     dance-single:
     :
     Medium:
     7:
     0.313,0.336,0.066,0.308,0.000:
0000
0000
0000
0000
,
0000
0000
0000
0000
,
0000
0000
0000
0000
,
0000
0000
0000
0000
,
0000
0000
0000
0000
,
0000
1000
0001
1000
0000
0001
1000
0001
,
0000
0010
0000
0100
0000
1000
0100
0010
,
0000
0001
0010
0100
0000
0010
0100
1000
,
0000
0002
0000
0000
0000
0003
0000
0000
,
0000
1000
0001
0100
0000
0010
1000
0001
,
0000
1000
0000
1000
0000
0001
0100
0010
,
0000
0000
0000
0000
,
2000
0000
3100
0000
,
0000
0100
0010
0001
0000
0001
0010
0100
,
0000
0100
0000
0010
0000
0010
0100
1000
,
0000
1000
0100
0010
0000
0001
1000
0010
,
0000
0200
0000
0310
0000
0000
0000
0000
,
0000
1000
0010
0100
0000
0001
0100
0010
,
0000
1000
0000
0001
0000
0100
0010
1000
,
0002
0000
2003
0000
,
3200
0000
0320
0000
,
0031
0100
0010
0001
,
0010
0000
1000
0000
0100
0010
0100
0010
,
0100
0000
1000
0000
0100
0000
0010
0100
,
0000
0100
1000
0100
0000
0010
0000
0010
,
0000
0002
0000
1000
0000
0000
1003
0000
,
0200
0000
0000
0010
0000
0000
0310
0000
,
0220
0000
0000
0330
2002
0000
3003
0000
,
1000
0100
0010
0001
,
2000
0000
0002
3003
,
1001
0000
1000
0100
0001
0000
0100
0000
,
1000
0001
0010
0100
0000
0000
1000
0000
,
1000
0000
0010
0001
0010
0000
1000
0000
,
0100
0000
0001
0100
0000
0100
1000
0000
,
0001
0100
0010
1000
,
0100
0000
0010
0100
0000
0100
0010
0100
,
0000
1000
0100
1000
0000
0001
0010
0001
,
0100
0000
0010
0000
1000
0001
1000
0000
,
0020
0000
0230
0000
,
0301
0010
0001
0010
0000
0000
0100
0000
,
2000
0000
3020
0000
,
2030
3200
0320
0032
,
2003
0000
0000
3001
,
0002
0000
0203
0000
,
0310
0010
0010
0000
,
1000
1100
0001
0011
,
2002
0000
0000
0000
,
3003
0000
0000
0000
;
