#TITLE:迷惑スペクタクル;
#SUBTITLE:となりの関くん OP;
#ARTIST:花澤 香菜;
#TITLETRANSLIT:Meiwaku Spectacle;
#SUBTITLETRANSLIT:Tonari no Seki-kun OP;
#ARTISTTRANSLIT:Kana Hanazawa;
#GENRE:SPECTACLE POP;
#CREDIT:;
#BANNER:Meiwaku Spectacle.png;
#BACKGROUND:Meiwaku Spectacle-bg.png;
#LYRICSPATH:;
#CDTITLE:cdtitle.png;
#MENUCOLOR:0,0,1,1;
#METERTYPE:DDR X;
#MUSIC:Meiwaku Spectacle.mp3;
#OFFSET:-0.931;
#SAMPLESTART:0.931;
#SAMPLELENGTH:12.000;
#SELECTABLE:YES;
#BPMS:0.000=157.000;
#STOPS:;
#BGCHANGES:;

//---------------dance-single - ----------------
#NOTES:
     dance-single:
     :
     Hard:
     14:
     0.722,0.668,0.399,0.377,0.388: // measure 1
0000
0000
0000
0000
,  // measure 2
1000
0100
1000
0100
0010
0100
0010
0001
0020
0000
0130
0010
0100
0010
0001
0010
,  // measure 3
0100
0010
0001
0010
0100
1000
0100
0010
1000
0010
0100
1000
0100
0010
0100
0010
,  // measure 4
2000
0000
0000
3020
0000
0000
0000
0130
,  // measure 5
0000
0001
0000
1000
1000
0001
0001
0000
,  // measure 6
0100
0001
0100
0001
0100
1000
0100
1000
0100
0001
0020
0000
0130
1000
0010
0100
,  // measure 7
2000
0000
3100
0001
1000
0001
0100
0010
0200
0000
0310
1000
0100
0001
0100
1000
,  // measure 8
0200
0000
0000
0310
2000
0000
0000
3020
,  // measure 9
0000
0032
0203
0320
,  // measure 10
1030
0000
0100
0100
0000
0010
0000
0001
,  // measure 11
0000
0000
1000
0001
1000
0000
0000
0000
1000
0000
0100
0000
0010
0000
1001
0000
,  // measure 12
0000
0001
0101
0001
1000
0100
0010
0020
,  // measure 13
0000
0000
0031
0100
1000
0000
0000
0000
0100
0000
0010
0000
1000
0000
0001
0000
,  // measure 14
0000
0100
0100
0001
0100
0001
1000
1100
,  // measure 15
0100
0011
0100
1010
0010
0101
0010
1001
,  // measure 16
0000
0100
0101
0100
1000
0100
0010
2000
,  // measure 17
0000
3010
0200
0000
0310
0000
1000
0100
,  // measure 18
0110
0000
0100
0000
0101
0000
0100
0000
0100
0000
1000
0001
0100
0000
1001
0000
,  // measure 19
0000
0100
0010
0000
1000
1000
0100
0011
,  // measure 20
0000
0100
0100
0100
0010
1000
0100
0010
,  // measure 21
0000
0000
0001
1000
0001
0000
0000
0000
0100
0000
1000
0000
0100
0000
0010
0000
,  // measure 22
0000
0000
1000
0000
0100
0000
0001
0000
0100
0000
0010
0001
0010
0001
0100
0000
,  // measure 23
0000
0110
0000
0011
0000
0110
0000
1100
,  // measure 24
0000
0000
1000
0001
0010
0000
0001
0000
0010
0000
0100
0000
0000
0000
2001
0000
,  // measure 25
0000
0001
0001
0000
0001
3000
0010
0000
,  // measure 26
1001
1000
0100
0010
0001
1000
0100
0010
,  // measure 27
0002
0000
0000
0000
,  // measure 28
0000
1003
1000
1000
0000
0000
0000
0000
;

//---------------dance-single - ----------------
#NOTES:
     dance-single:
     :
     Beginner:
     2:
     0.117,0.151,0.000,0.067,0.000:
0000
0000
0000
0000
,
1000
0000
1000
0000
,
0001
0000
1000
0000
,
0002
0000
0000
0000
,
0003
0000
0000
0000
,
1000
0000
1000
0000
,
0001
0000
0001
0000
,
2000
0000
3000
0000
,
0010
0000
0010
0000
,
0100
0000
0100
0000
,
0100
0000
0001
0000
,
0000
0000
0001
0000
,
0000
0000
1000
0000
,
0000
0000
0010
0000
,
0000
0000
0000
0000
,
0000
1000
0000
0000
,
0000
0001
0000
0000
,
1000
0000
0001
0000
,
1000
0000
0010
0000
,
0000
0000
0100
0000
,
0000
0000
0010
0000
,
0000
0100
0000
0001
,
0000
0000
0000
0000
,
0000
0000
1000
0000
,
0001
0000
0000
0000
,
0010
0000
0010
0000
,
2000
0000
0000
0000
,
0000
3000
0000
0000
;

//---------------dance-single - ----------------
#NOTES:
     dance-single:
     :
     Easy:
     5:
     0.247,0.271,0.000,0.133,0.000:
0000
0000
0000
0000
,
1000
0100
1000
0100
,
0010
0001
0010
0001
,
2000
0000
0000
3002
0000
0000
0000
0000
,
0003
0000
0000
0000
,
0001
0010
0001
0010
,
0100
1000
0100
1000
,
0002
0000
2003
0000
,
3001
0100
0010
1000
,
0100
0000
0000
0000
0000
0000
0000
0010
,
0000
0000
0000
0000
1000
0000
0000
0001
,
0000
0000
0000
0000
0100
0000
0000
0010
,
0000
0000
1000
1000
,
0001
0001
0100
0100
,
0010
0010
0010
0010
,
1000
0000
0001
1000
,
0001
1000
0000
0100
,
0020
0000
0000
0000
,
1030
0000
0000
0000
1000
0000
0000
1000
,
0000
0000
0000
0000
0001
0000
0000
0001
,
0000
0000
1000
0100
,
0010
0000
0001
0000
1000
0000
0000
1000
,
0000
1000
0000
1000
0000
0001
0000
0001
,
0000
0000
1000
0100
,
0010
0000
0000
1000
,
0001
1000
0001
1000
,
0002
0000
0000
0000
,
0000
1003
0000
0000
0000
0000
0000
0000
;

//---------------dance-single - ----------------
#NOTES:
     dance-single:
     :
     Medium:
     9:
     0.516,0.425,0.177,0.310,0.000: // measure 1
0000
0000
0000
0000
,  // measure 2
1000
0001
1000
0001
0100
0010
0100
0010
,  // measure 3
1000
0100
0010
0001
1000
0001
1000
0001
,  // measure 4
2000
0000
0000
3002
0000
0000
0000
1003
,  // measure 5
0000
0100
0000
0001
0100
1000
0100
0000
,  // measure 6
1000
0100
1000
0100
0010
0100
0010
0001
,  // measure 7
1000
0001
1000
0010
0100
0010
0100
0001
,  // measure 8
2000
0000
0000
3001
2000
0000
0000
3020
,  // measure 9
0000
0230
0302
2003
,  // measure 10
3100
0000
0010
0100
0000
0010
0000
0010
,  // measure 11
0000
0000
0000
0000
0001
0100
1000
0200
,  // measure 12
0000
0000
0000
0301
1000
0010
0100
0020
,  // measure 13
0000
0000
0000
0000
1030
0001
0100
0001
,  // measure 14
0000
1000
0100
0010
0001
0100
0000
1100
,  // measure 15
0000
0100
0000
0101
0000
0010
0000
0011
,  // measure 16
0000
0100
0001
0001
1000
0100
0000
0010
,  // measure 17
0000
0010
0100
0000
1000
0000
0100
1000
,  // measure 18
0100
1000
0100
0010
0100
0010
0100
0010
,  // measure 19
0000
0010
0001
0000
0100
0010
0100
0020
,  // measure 20
0000
1030
0100
0010
0001
0100
0010
2000
,  // measure 21
0000
3001
1000
0000
0100
0010
0100
0010
,  // measure 22
0000
1000
0100
0010
0001
0100
0000
1100
,  // measure 23
0000
0110
0000
0011
0000
0110
0000
1100
,  // measure 24
0000
1000
0100
0100
1000
0010
0000
2000
,  // measure 25
0000
0000
0000
3001
,  // measure 26
1000
0100
0010
0001
0100
0010
0100
0000
,  // measure 27
0002
0000
0000
0000
,  // measure 28
0000
1003
1000
0001
0000
0000
0000
0000
;
