#TITLE:回レ!雪月花;
#SUBTITLE:機巧少女は傷つかない ED;
#ARTIST:歌組雪月花;
#TITLETRANSLIT:Maware! Setsugekka;
#SUBTITLETRANSLIT:Kikou Shoujo wa Kizutsukanai;
#ARTISTTRANSLIT:Uta-gumi Setsugekka;
#GENRE:ORIENTAL POP;
#CREDIT:;
#BANNER:Maware! Setsugekka.png;
#BACKGROUND:Maware! Setsugekka-bg.png;
#LYRICSPATH:;
#CDTITLE:cdtitle.png;
#MUSIC:Maware! Setsugekka.mp3;
#MENUCOLOR:0,0,1,1;
#METERTYPE:DDR X;
#OFFSET:0.943;
#SAMPLESTART:58.780;
#SAMPLELENGTH:12.000;
#SELECTABLE:YES;
#DISPLAYBPM:80:160;
#BPMS:0.000=160.010,46.000=80.005,47.000=160.010,53.000=80.005,54.000=160.010,96.000=80.005,97.000=160.010,103.000=80.005,104.000=160.010,140.000=80.005,147.000=160.010,208.000=320.020,211.000=160.010;
#STOPS:147.000=0.375
,208.000=0.187
,209.000=0.187
,210.000=0.187
;
#BGCHANGES:;

//---------------dance-single - ----------------
#NOTES:
     dance-single:
     :
     Hard:
     17:
     0.968,1.000,0.500,0.722,0.844: // measure 1
0000
0000
0000
0000
,  // measure 2
0000
0000
0000
0000
,  // measure 3
0000
0000
0000
0000
,  // measure 4
0000
0000
0000
0000
,  // measure 5
0000
0000
0000
0000
,  // measure 6
0000
0000
0000
0000
,  // measure 7
1000
1000
0010
0010
0100
0100
0001
0001
,  // measure 8
1000
1000
0100
0100
0010
0002
2003
3020
,  // measure 9
1030
0010
1000
0001
0100
0001
0100
0010
,  // measure 10
0100
1000
0100
0001
1000
0001
0011
1001
,  // measure 11
0101
0000
0001
0010
0100
0010
0001
2000
0000
3001
0100
0010
0001
1000
0100
0010
,  // measure 12
1000
0000
0001
0000
0010
0000
0100
0000
1000
0000
0100
0000
0010
0000
0001
0000
1000
0000
0010
1000
0100
0000
1000
0000
0001
0000
0000
0000
1000
0000
0100
0000
,  // measure 13
0010
0100
1000
0010
0001
1000
0200
0000
0320
0000
1030
0001
0100
0000
0001
0000
,  // measure 14
1000
0000
0100
0000
0000
0000
0010
0000
1000
0000
1000
0010
0000
0001
0010
0000
1000
0000
0010
0000
0000
0000
0100
0000
1000
0000
0000
0000
0100
0000
0010
0000
,  // measure 15
0000
0001
0010
0000
0100
0000
0100
0000
0100
0010
0000
0001
0100
0000
1000
0100
,  // measure 16
0000
0100
0001
0000
1000
0000
1000
0000
0001
0100
0000
0010
1000
0000
0100
0010
,  // measure 17
0000
0001
1000
0000
0100
0000
0100
0000
0100
0000
0010
0000
1001
0000
0000
0000
,  // measure 18
1001
0000
0000
0000
2000
0000
0000
0000
3002
0000
0103
0020
0000
1030
0002
0000
,  // measure 19
1003
0000
0100
0010
0001
0000
0001
0000
1000
0000
1100
0000
0010
0000
0110
0000
,  // measure 20
0001
0101
1000
1100
0100
0110
0010
0011
,  // measure 21
0001
0000
0101
0000
0101
0000
1001
0000
0100
0000
0100
0010
0100
0000
1100
0000
,  // measure 22
0100
0010
0100
0000
0110
0000
1001
0000
0001
1000
0001
0000
1001
0000
0001
1000
,  // measure 23
0001
0000
0000
0000
1001
0000
0000
0000
1001
0000
0001
1000
0001
1000
0100
0010
,  // measure 24
0001
0100
0001
1000
0100
0001
1000
0010
0100
1000
0001
0100
0001
0100
0010
1000
,  // measure 25
0001
1000
0100
1000
0010
0100
0001
0100
0002
0000
0000
0000
2003
0000
0000
0000
3002
0000
0000
0000
0013
0000
0001
0000
2000
0000
0000
0000
3020
0000
0000
0000
,  // measure 26
0230
0000
0000
0000
0301
0000
1000
0000
0002
0000
0000
0000
0203
0000
0000
0000
1300
0000
0100
0000
0001
0000
0010
0000
0001
0000
0000
0100
0010
0000
0010
0000
,  // measure 27
0001
0010
0000
1000
0100
0000
0010
0001
0000
1000
0100
0000
0010
1000
0010
0001
,  // measure 28
1000
0100
0000
0010
1000
0000
1000
0100
0000
0010
0001
0000
1000
0001
0100
0010
,  // measure 29
1000
0100
0000
0010
0001
0000
0100
0010
0000
1000
0100
0000
1000
0001
0100
0001
,  // measure 30
1000
0100
1001
0000
0101
0000
1001
0000
,  // measure 31
1100
0000
0001
0100
0000
0000
0110
0000
1000
0001
0100
0010
1000
0010
1000
0100
,  // measure 32
1000
0000
0001
0100
0001
0000
0001
0100
0001
0000
0001
0100
0001
0000
0001
0100
,  // measure 33
0001
0000
1000
0100
1000
0000
1000
0100
1000
0000
1000
0100
1000
0000
1000
0100
,  // measure 34
1000
0000
0001
0010
0001
0000
0001
0010
0001
0000
0001
0010
0001
0000
0001
0010
,  // measure 35
0001
0000
1000
0010
1000
0000
1000
0010
1000
0000
1000
0010
1000
0000
1000
0010
,  // measure 36
2000
0000
0000
0000
3200
0000
0000
0000
0320
0000
0000
0000
0032
0000
0000
0000
0203
0000
0000
0000
0310
0000
1000
0100
0020
0000
0000
0000
0230
0000
0000
0000
,  // measure 37
0320
0000
0230
0000
2300
0000
3200
0000
0320
0000
0030
0000
2002
3003
0000
0000
,  // measure 38
0002
0000
0013
0200
0000
1300
0020
0000
0130
0002
0000
0013
0200
0000
1300
0020
,  // measure 39
0000
0130
0002
0000
0013
0200
0000
1300
0020
0000
0000
2030
0000
0000
3001
0000
,  // measure 40
1000
0000
0100
0000
0010
0000
0001
0000
1000
0100
1000
0000
0010
0000
0001
0000
,  // measure 41
0100
0010
0001
0000
1000
0100
1000
0000
0100
0000
0010
0000
1000
0001
1000
0000
,  // measure 42
2000
0000
3100
0020
0000
0031
0200
0000
0310
2000
0000
3100
0020
0000
0031
0200
,  // measure 43
0000
0310
2000
0000
3100
0020
0000
0031
0200
0000
0000
0302
0000
0000
1003
0000
,  // measure 44
0001
0000
1000
0000
0100
0000
0010
0000
0001
0000
1000
0100
0000
0010
0001
0000
,  // measure 45
1000
0100
0010
0000
0002
0000
2003
0000
,  // measure 46
3001
0000
1000
0100
1000
0000
0010
1000
0100
0000
0010
0100
0010
0000
0001
0100
,  // measure 47
2000
3200
0320
0032
0103
1000
0100
0010
,  // measure 48
1100
0000
0001
0000
0100
0000
0010
0000
1000
0000
1000
0100
0000
0010
0001
0000
,  // measure 49
1000
1000
1000
0000
0002
0000
0203
0000
,  // measure 50
1300
0100
1000
0100
1000
0000
0100
0001
0200
0000
0000
0000
0301
0000
1000
0010
,  // measure 51
1000
0000
0010
0000
0100
0000
0010
0000
0100
0000
0100
0010
0000
0100
0010
0000
,  // measure 52
1000
0000
0001
1000
0100
0000
0010
0000
0001
0000
0000
1100
0000
0000
0100
0000
,  // measure 53
1100
1001
0101
1001
,  // measure 54
0001
1100
1000
0101
0001
1010
1000
0011
,  // measure 55
0001
1100
1000
0011
0001
1010
1001
0101
,  // measure 56
1100
0000
0000
0010
0100
0000
2002
0000
3003
0001
1000
0000
0220
0000
0330
0000
,  // measure 57
0010
0001
0010
0001
1000
0100
1000
0100
0010
0000
0000
0000
1001
0000
0000
0000
;

//---------------dance-single - ----------------
#NOTES:
     dance-single:
     :
     Beginner:
     4:
     0.173,0.189,0.000,0.067,0.000: // measure 1
0000
0000
0000
0000
,  // measure 2
0000
0000
0000
0000
,  // measure 3
0000
0000
0000
0000
,  // measure 4
0000
0000
0000
0000
,  // measure 5
0000
0000
0000
0000
,  // measure 6
0000
0000
0000
0000
,  // measure 7
0001
0000
0001
0000
,  // measure 8
0001
0000
1000
0000
,  // measure 9
1000
0000
1000
0000
,  // measure 10
0010
0000
0010
0000
,  // measure 11
0100
0000
0001
0000
,  // measure 12
1000
0000
0001
0001
,  // measure 13
0000
0001
0000
1000
,  // measure 14
0000
1000
1000
0000
,  // measure 15
0010
0000
0010
0000
,  // measure 16
0100
0000
0100
0000
,  // measure 17
0001
0000
1000
1000
,  // measure 18
1000
0000
0001
0000
,  // measure 19
0001
0000
1000
0000
,  // measure 20
1000
0000
1000
0000
,  // measure 21
1000
0000
0010
0000
,  // measure 22
0010
0000
0100
0000
,  // measure 23
0001
0000
1000
0000
,  // measure 24
1000
0000
0001
0000
,  // measure 25
2000
3000
0000
0001
,  // measure 26
0000
0001
0000
0002
,  // measure 27
0003
0000
0001
0000
,  // measure 28
1000
0000
1000
0000
,  // measure 29
1000
0000
0100
0000
,  // measure 30
0100
0000
0010
0000
,  // measure 31
0001
0000
0001
0000
,  // measure 32
2000
0000
0000
0000
,  // measure 33
3000
0000
0001
0000
,  // measure 34
0002
0000
0000
0000
,  // measure 35
0003
0000
1000
0000
,  // measure 36
2000
0000
0000
0000
,  // measure 37
3001
0000
0001
0001
,  // measure 38
0001
0000
0001
0000
,  // measure 39
1000
0000
1000
1000
,  // measure 40
1000
0000
0000
0000
,  // measure 41
0010
0010
0010
0000
,  // measure 42
0001
0000
0001
0000
,  // measure 43
0001
0000
0001
0001
,  // measure 44
0001
0000
0000
0000
,  // measure 45
1000
0000
1000
0000
,  // measure 46
0010
0000
0010
0000
,  // measure 47
0100
0000
0100
0000
,  // measure 48
0100
0000
0001
0000
,  // measure 49
0001
0000
1000
0000
,  // measure 50
1000
0000
1000
0000
,  // measure 51
0010
0000
0100
0100
,  // measure 52
0100
0000
0001
0000
,  // measure 53
1000
1000
1000
0000
,  // measure 54
0001
0000
0001
0000
,  // measure 55
0001
0000
1000
1000
,  // measure 56
1000
0000
0010
0000
,  // measure 57
0200
0000
0000
0310
;

//---------------dance-single - ----------------
#NOTES:
     dance-single:
     :
     Easy:
     7:
     0.411,0.473,0.044,0.211,0.000: // measure 1
0000
0000
0000
0000
,  // measure 2
0000
0000
0000
0000
,  // measure 3
0000
0000
0000
0000
,  // measure 4
0000
0000
0000
0000
,  // measure 5
0000
0000
0000
0000
,  // measure 6
0000
0000
0000
0000
,  // measure 7
0000
1000
0000
0010
0000
0100
0000
0001
,  // measure 8
0000
1000
0000
0100
0000
0010
0001
0010
,  // measure 9
0000
0100
0000
0001
0000
1000
0000
0100
,  // measure 10
0000
0010
0000
0001
0000
1000
0001
1000
,  // measure 11
0000
0010
0100
0000
0010
0000
0100
0000
,  // measure 12
1000
0100
0010
0000
2000
0000
3001
0000
,  // measure 13
0001
0000
0100
0001
0100
0000
0001
0000
,  // measure 14
0010
0000
0002
0010
0013
0000
0100
0000
,  // measure 15
0010
1000
0010
0000
0100
0000
0010
0000
,  // measure 16
0001
0100
0001
0000
1000
0000
0100
0000
,  // measure 17
1000
0100
1000
0000
0100
1000
0100
0000
,  // measure 18
0010
0000
0001
0000
1000
0001
1000
0000
,  // measure 19
0001
0100
0001
0000
0000
1000
0000
1000
,  // measure 20
0000
0010
0000
0010
0000
0100
0000
0100
,  // measure 21
0000
0001
0100
0001
0000
1000
0000
1000
,  // measure 22
0000
0100
0000
0010
0002
0000
1000
0000
,  // measure 23
1003
0001
1000
0100
,  // measure 24
0010
0100
0010
0000
0100
0000
1000
0000
,  // measure 25
0001
1000
1000
0000
0100
0000
1000
0010
,  // measure 26
1000
0001
0100
0010
,  // measure 27
0010
0000
1000
0000
0100
1000
0100
0000
,  // measure 28
0010
0000
0001
0000
1000
0001
1000
0000
,  // measure 29
0001
0010
0001
0000
1000
0100
1000
0000
,  // measure 30
0001
1000
0001
0000
0010
0000
0100
0000
,  // measure 31
1000
0000
1000
0000
0001
1000
0001
0000
,  // measure 32
0200
0000
0000
0000
,  // measure 33
0320
0000
2030
0000
,  // measure 34
3002
0000
0203
0000
,  // measure 35
0302
0000
2003
0000
,  // measure 36
3020
0000
0230
0000
0302
2003
3002
0000
,  // measure 37
0203
0320
2030
3001
,  // measure 38
1000
0100
0010
0001
,  // measure 39
0100
0000
1000
0000
0100
0001
0010
0000
,  // measure 40
0100
0010
0001
1000
,  // measure 41
1000
0001
1000
0000
0001
0000
0010
0000
,  // measure 42
0100
0100
0010
0010
,  // measure 43
0001
0000
0001
0000
0010
0001
0010
0000
,  // measure 44
0001
0100
0001
0100
,  // measure 45
0010
1000
0010
0000
0100
0000
0001
0000
,  // measure 46
0100
1000
0100
0000
0100
0001
0100
0000
,  // measure 47
0001
0010
0001
0000
1000
0100
1000
0000
,  // measure 48
1000
0100
1000
1000
,  // measure 49
0001
1000
0001
0000
0100
0000
0010
0000
,  // measure 50
2000
0000
3001
1000
0001
0000
1000
0000
,  // measure 51
0100
0010
0001
0010
,  // measure 52
0001
0000
1000
0000
0001
1000
0001
0000
,  // measure 53
1001
1001
1001
0010
,  // measure 54
0100
0010
0100
0000
0100
0010
0100
0000
,  // measure 55
0010
0100
0010
0000
0100
0010
0100
0000
,  // measure 56
0001
1000
0001
1000
0000
1000
0001
0000
,  // measure 57
1000
0100
0010
0001
1000
0000
1001
0000
;

//---------------dance-single - ----------------
#NOTES:
     dance-single:
     :
     Medium:
     12:
     0.814,0.914,0.655,0.600,0.533: // measure 1
0000
0000
0000
0000
,  // measure 2
0000
0000
0000
0000
,  // measure 3
0000
0000
0000
0000
,  // measure 4
0000
0000
0000
0000
,  // measure 5
0000
0000
0000
0000
,  // measure 6
0000
0000
0000
0000
,  // measure 7
0000
0110
0000
0011
0000
1001
0000
1100
,  // measure 8
0000
0101
0000
1100
0000
2000
3002
0203
,  // measure 9
0300
1001
0000
1010
0000
0101
0000
0110
,  // measure 10
0000
1001
0000
1100
0000
1001
1001
1001
,  // measure 11
0001
0000
1000
0001
0100
0000
0010
0200
0000
0301
1000
0000
1000
0001
0010
0000
,  // measure 12
0001
1000
0100
0000
0001
1000
0001
0000
0001
0100
0010
1000
1000
0000
0001
0010
,  // measure 13
0001
0000
1000
0000
0100
0001
0020
0000
0230
0000
1300
0000
0010
0000
1000
0000
,  // measure 14
0001
0000
0010
0000
0000
0000
0001
0000
0100
0000
0000
0100
0000
0000
0100
0000
0010
0000
1000
0000
0000
0000
0010
0000
0100
0000
0000
0000
0010
0000
1000
0000
,  // measure 15
0000
1000
0100
0000
1000
0000
1000
0000
0100
0001
0000
0010
0001
0000
0100
0001
,  // measure 16
0000
0001
1000
0000
0001
0000
0001
0000
1000
0001
0000
1000
0001
0000
1000
0001
,  // measure 17
0000
1000
0001
0000
0100
0000
0100
0000
0100
0000
0010
0000
1001
0000
0000
0000
,  // measure 18
1001
0000
0000
0000
0002
0000
0000
0000
2003
0000
3010
0200
0000
0301
2000
0000
,  // measure 19
3001
0000
0010
0100
1000
0000
1000
0000
0000
0000
0011
0000
0000
0000
0110
0000
,  // measure 20
0000
1100
0000
0011
0000
0110
0000
1100
,  // measure 21
0000
0000
1010
0000
0010
0000
1001
0000
1010
0000
0000
0110
0000
0000
0011
0000
,  // measure 22
0000
0110
0000
0000
1100
0000
1001
0000
0001
0100
0001
0000
1000
0000
1000
0100
,  // measure 23
1000
0000
0000
0000
0110
0000
0000
0000
1001
0000
1000
0000
0100
0000
0010
1000
,  // measure 24
0001
0000
0001
1000
0010
1000
0001
0000
0010
0000
0001
0000
1000
0000
0100
0001
,  // measure 25
1000
0001
0100
0001
2000
0000
3002
0000
2003
0000
3100
1000
0001
0000
0100
0000
,  // measure 26
0010
0000
0000
0000
1000
0000
0001
0000
2000
0000
0000
0000
3020
0000
0000
0000
1030
0000
0001
0000
0100
0000
0001
0000
0100
0000
0000
0010
0000
0000
1000
0000
,  // measure 27
1000
0010
0000
1000
0100
0000
1000
0010
0000
1000
0100
0000
1000
0000
0100
0000
,  // measure 28
0010
0001
0000
0100
0001
0000
0010
0001
0000
0100
0001
0000
0100
0000
0001
0000
,  // measure 29
0010
0100
0000
1000
0010
0000
1000
0100
0000
1000
0010
0000
1000
0000
0100
0000
,  // measure 30
1000
1001
1010
1001
,  // measure 31
0011
0000
0000
0110
0000
0000
1100
0000
0001
0000
1000
0000
0100
0000
0001
0010
,  // measure 32
0001
0000
1000
0000
1000
0000
0010
0000
0010
0000
1000
0010
1000
0000
0010
1000
,  // measure 33
0010
0000
1000
0000
0010
0000
0100
0000
0001
0000
0001
0010
0001
0000
0010
0001
,  // measure 34
0010
0000
1000
0000
1000
0000
0100
0000
0100
0000
1000
0100
1000
0000
0100
1000
,  // measure 35
0100
0000
1000
0000
0100
0000
0010
0000
0001
0000
0001
0100
0001
0000
0100
0001
,  // measure 36
0100
0000
0002
0000
0203
0000
0320
0000
0230
0000
0301
1000
0002
0000
0023
0000
,  // measure 37
0230
0000
0320
0000
0031
0000
0002
0000
1000
0000
0000
0000
2000
3003
0000
0000
,  // measure 38
0002
0000
0013
0002
0000
0013
0002
0000
0013
0002
0000
0013
0200
0000
1300
0200
,  // measure 39
0000
1300
0200
0000
1300
0200
0000
1300
0020
0000
0000
2030
0000
0000
3001
0000
,  // measure 40
0000
0000
1000
0000
0100
0000
0010
0000
0100
0000
0000
1000
0000
0000
0100
0000
,  // measure 41
0010
0100
1000
0100
0010
0000
0100
0000
,  // measure 42
2000
0000
3010
2000
0000
3010
2000
0000
3010
2000
0000
3010
0200
0000
0301
0200
,  // measure 43
0000
0301
0200
0000
0301
0200
0000
0301
0020
0000
0000
0230
0000
0000
1300
0000
,  // measure 44
0000
0000
0001
0000
0010
0000
0100
0000
0010
0000
0000
0001
0000
0000
0010
0000
,  // measure 45
0100
0010
0001
0000
2000
0000
3002
0000
,  // measure 46
1003
0000
0001
0000
0100
0000
0010
1000
0100
0000
0001
0000
0100
0000
1000
0010
,  // measure 47
0100
0010
0100
0001
0010
0001
0010
0100
,  // measure 48
1100
0000
1000
0000
0010
0000
0100
0000
0001
0000
0000
0010
0000
0000
0100
0000
,  // measure 49
1000
1000
1000
0000
2000
0000
3002
0000
,  // measure 50
1003
0100
1000
0100
1000
0000
0010
1000
0020
0000
0000
0000
1030
0000
0001
0000
,  // measure 51
1000
0000
0100
0000
0010
0000
0100
0000
0010
0000
0000
0100
0000
0000
0100
0000
,  // measure 52
1000
0000
1000
0000
0010
0000
0100
0000
0001
0000
0000
0011
0000
0000
0010
0000
,  // measure 53
0011
1001
1010
1001
,  // measure 54
1000
0011
0000
1010
0000
0101
0000
1100
,  // measure 55
0000
0011
0000
1100
0000
0101
1001
1010
,  // measure 56
0001
0000
1001
0110
0000
0110
1001
0000
,  // measure 57
2000
3200
0320
0032
0003
0000
1001
0000
;
