#TITLE:Love Me Love La Bride!!;
#SUBTITLE:ラブらブライド PC OP;
#ARTIST:IOSYS feat. 青葉りんご;
#TITLETRANSLIT:Love me la Bride!!;
#SUBTITLETRANSLIT:Love la Bride PC OP;
#ARTISTTRANSLIT:IOSYS feat. Ringo Aoba;
#GENRE:BRIDAL POP;
#CREDIT:;
#BANNER:Love Me Love La Bride!!.png;
#BACKGROUND:Love Me Love La Bride!!-bg.png;
#LYRICSPATH:;
#CDTITLE:cdtitle.png;
#MUSIC:Love Me Love La Bride!!.mp3;
#METERTYPE:DDR X;
#MENUCOLOR:0,1,1,1;
#OFFSET:-0.185;
#SAMPLESTART:30.186;
#SAMPLELENGTH:12.000;
#SELECTABLE:YES;
#BPMS:0.000=200.000,68.000=100.000,80.000=200.000;
#STOPS:111.000=0.300
,186.000=0.150
,202.500=0.150
,218.000=0.300
,264.000=0.300
,295.500=0.150
;
#BGCHANGES:;

//---------------dance-single - ----------------
#NOTES:
     dance-single:
     :
     Hard:
     15:
     0.752,0.806,0.715,0.121,0.231:
0000
0000
0000
0000
,
0000
0000
0000
0000
,
0000
0000
0000
0000
,
0000
0000
0000
0000
,
0000
0000
0000
0000
,
1100
0100
0000
0000
0010
0011
0000
0000
,
0101
0100
0000
0010
1010
1000
0010
0000
,
0110
0100
0000
0000
0011
0001
0000
0000
,
1100
1000
0100
0010
0001
0100
1000
0100
,
0010
0100
1000
0000
0001
0000
0100
0000
1000
0000
0100
0000
0010
0000
0001
0000
,
0100
0010
0100
0000
0010
0100
0010
0000
1000
0000
0010
0000
0100
0000
0001
0000
,
1000
0100
1100
0000
0010
0100
0110
0000
,
1000
0000
0100
0000
0010
0000
0001
0000
0100
0010
0100
0000
0100
0010
0100
0000
,
0001
0010
1000
1000
0010
0001
0010
0001
,
0100
0010
0001
0010
1000
0100
0010
0001
,
0010
0100
1100
0000
0010
0010
0011
0000
,
0001
1000
0001
0000
0100
0000
0010
0000
0001
0000
0000
0000
0100
0000
0000
0000
,
2000
0000
0000
0000
3100
0001
0010
0002
0000
0000
0000
0000
0000
0013
1000
0010
,
0200
0000
0000
0000
1300
0001
1000
0002
0000
0000
0000
0000
0000
1003
0000
0002
,
1000
0000
0000
0000
1003
0100
0010
0001
0000
0100
0000
0010
1000
0000
0100
0000
,
1100
0110
1001
0001
,
0101
0001
1000
1001
0000
0110
0110
0000
,
0110
0000
0100
0000
1000
0010
0100
0010
,
0010
1000
0000
0000
0100
0010
0000
0000
0010
0001
0000
0000
0001
0100
0000
0000
,
1000
0010
0100
0001
1000
0100
0010
0001
,
0001
0010
0000
0000
0010
0100
0000
0000
1000
0001
0000
0000
0100
0010
0000
0000
,
1000
0100
0001
0100
0010
0001
0010
0100
,
0010
0100
0000
0000
0010
0100
0000
0000
0010
0100
0010
0100
0010
0000
0000
0000
,
1001
0000
0000
0100
0000
0000
0110
0000
0000
1001
0000
0011
,
0000
1001
0000
0101
0000
0110
0000
1010
0000
0110
0000
0101
,
0000
1001
0000
0110
0000
0000
0010
0000
0000
1000
0000
0000
,
1010
0000
0000
0000
0100
0000
0000
0000
0010
0000
0000
0001
1000
0000
0000
0000
,
0001
0001
1000
1000
0001
0000
0100
0000
,
0010
0000
0000
0000
0001
0000
1000
0001
0100
0000
0010
0000
0001
0000
0010
0000
,
0002
0100
0013
0001
,
0110
0000
0010
0100
1000
0010
0001
0010
,
0010
0000
0001
0000
0010
0000
1000
0000
0001
0000
0000
0001
2000
0000
0000
0000
,
0010
0000
0010
0000
3001
0010
0100
1000
,
0100
0010
0001
0100
0010
0100
0000
0100
,
0001
0001
0010
0000
0001
0000
0100
0000
,
0010
0001
0010
0100
,
1000
0001
0100
0000
0100
0000
0001
0000
,
1000
1000
0001
0000
1000
0000
0001
1000
,
1001
0000
0110
0000
,
0101
0000
0110
1000
,
0100
0010
1000
0100
0010
0001
0100
1000
,
0100
0000
0010
0000
0001
0000
0100
0010
0100
0000
0000
0000
1010
0000
0000
0000
,
0010
0010
0000
0001
0010
0000
0010
0000
,
0100
0010
1000
0010
0110
0110
0100
0010
,
1000
0100
0010
0001
0100
0010
0110
0000
,
1010
0000
0000
0000
0101
0000
0000
0000
1000
0002
1000
0000
0000
0000
0000
0000
,
0103
0000
0010
0000
1000
0000
0100
1000
,
0010
1000
0010
0000
0000
0000
0100
0000
0010
0000
0100
0000
0000
0000
0001
0000
,
0010
0000
0010
0000
0001
0000
0001
0100
,
1000
0100
0000
0010
0100
0000
1001
0000
,
0010
0001
0100
0010
0001
0010
1000
0000
,
0001
0001
0010
0010
0010
0001
0001
0100
,
1000
1000
0100
0010
0000
0010
0000
0100
,
0110
0010
0100
0000
0010
0000
1000
0000
,
0100
0000
0001
0000
0100
0001
0000
1001
,
0000
1000
0100
0010
0000
0001
0010
0000
,
0100
0010
1000
0010
0100
0000
1000
0100
,
0010
0001
0100
0010
0200
0000
0010
0000
,
0302
0000
0010
0000
1003
0000
1000
0001
,
0100
0000
0001
0100
1000
0100
0010
0001
,
0100
0000
0010
0000
1000
0000
0100
0000
0010
0001
0010
0000
1000
0100
1000
0000
,
0011
0000
0101
0001
1001
0000
0110
0010
,
1010
0000
0000
0000
0110
0000
0100
0000
0000
0000
0001
1000
0001
0000
0010
0000
,
0100
0000
0110
0010
0011
0000
0101
0100
,
0110
0000
0000
0000
1010
0000
0010
0000
0000
0000
1000
0001
0100
0000
0001
0000
,
0010
0000
0101
0001
1001
0000
0101
0001
,
0011
0000
0101
0001
0000
0100
0010
0100
,
0010
0000
0110
0010
1010
0000
0101
0100
,
0110
0000
1100
0110
0110
0011
0000
0000
,
2002
0000
0000
0000
,
0000
0000
0000
0000
,
0000
3003
0000
0000
;

//---------------dance-single - ----------------
#NOTES:
     dance-single:
     :
     Medium:
     11:
     0.575,0.691,0.362,0.060,0.091:
0000
0000
0000
0000
,
0000
0000
0000
0000
,
0000
0000
0000
0000
,
0000
0000
0000
0000
,
0000
0000
0000
0000
,
1000
0001
0000
0000
0010
0001
0000
0000
,
1000
0100
0000
0010
0001
0100
0010
0000
,
1000
0100
0000
0000
0010
0001
0000
0000
,
1000
0100
1000
0100
0010
0001
0010
0001
,
0100
0010
0100
0000
1000
0100
0001
0000
,
1000
0100
0010
0001
0100
0000
0010
0000
,
1000
0100
1000
0000
0001
0010
0001
0000
,
0100
0010
0100
0010
1000
0100
0010
0001
,
0100
0000
0010
0000
1000
0100
1000
0000
,
0001
0010
0001
0100
0010
0000
0100
0000
,
1000
0100
1000
0000
0010
0100
0010
0000
,
1000
0100
0010
0001
0100
0000
0010
0000
,
1000
0000
0000
0000
0010
0100
0001
1000
0000
0000
0000
0000
0000
0100
1000
0010
,
0001
0000
0000
0000
0100
0010
1000
0001
0000
0000
0000
0000
0000
0100
1000
0010
,
0001
0000
0000
0000
0100
0010
0001
0100
0000
0010
0000
0001
0100
0000
0010
0000
,
0100
1000
0001
0100
,
0010
0001
1000
0100
0000
0010
0001
0000
,
0100
0000
1000
0000
0100
0001
1000
0010
,
0100
1100
0110
0011
,
0100
0001
0100
0000
0001
0100
0010
0001
,
0100
0110
0101
0011
,
1000
0100
0010
0000
0100
0010
1000
0010
,
0100
1100
0110
0011
,
1001
0000
0000
0100
0000
0000
0110
0000
0000
1001
0000
1000
,
0000
1000
0000
0110
0000
0010
0000
0010
0000
0110
0000
0100
,
0000
0100
0000
0101
0000
0000
0001
0000
0000
1001
0000
0000
,
1001
0000
0100
0000
0010
1000
0100
0000
,
0000
0010
0100
0000
0010
0000
1000
0000
,
0100
0000
0010
0000
0100
0010
0100
0000
,
0000
1000
0100
0000
0010
0000
0100
0000
,
0010
0100
1000
0101
,
0100
0010
0100
0010
,
1000
0100
0010
0001
,
0100
0010
0100
0000
1000
0100
0010
0001
,
0100
0010
1000
0100
,
0010
0001
0100
0001
,
1000
0000
0100
0000
0010
1000
0001
0000
,
0100
0000
0010
0000
0100
0000
0001
1000
,
0001
0000
1001
0000
,
0101
0000
1010
0000
,
0110
1000
0100
0010
,
0001
1000
0001
1001
,
0100
0010
0000
0100
0000
0001
0001
0000
,
1000
0100
0000
0010
0100
0010
0100
0010
,
1000
0100
1000
0001
0100
1000
0100
0000
,
0100
0000
0010
0000
1000
0100
0000
0000
,
0100
0000
0010
0000
1000
0000
0100
0100
,
0000
0010
0000
0000
0000
1000
0000
0100
,
0010
0000
0100
0000
0010
0000
1000
0100
,
0010
0001
0000
0100
0001
0000
0100
0000
,
1000
0000
0100
0010
0100
0000
1000
0000
,
0100
0000
0010
0100
0001
0100
1000
0001
,
0100
1000
0010
1000
0000
0100
0000
0010
,
0100
1000
0001
0000
0100
0000
0100
0000
,
0001
0000
0100
0000
0010
0010
0000
0001
,
0000
1000
0001
1000
0000
0100
0010
0001
,
0100
0000
0001
0010
0001
0000
0100
0010
,
0100
0000
1000
0010
2000
0000
0001
0000
,
3002
0100
0203
0010
,
0320
1000
1030
0010
,
0100
0010
1000
0001
,
1001
1001
0100
0110
,
0100
0000
1010
0000
1000
0100
0010
0001
,
0001
0110
0010
1100
,
0010
0000
0101
0000
0001
0010
0100
1000
,
1000
1100
0010
0101
,
0010
0000
1100
0000
1000
0010
0100
0001
,
0001
1100
0100
0011
,
0001
0000
0001
0100
0010
1000
0000
0000
,
2002
0000
0000
0000
,
0000
0000
0000
0000
,
0000
3003
0000
0000
;

//---------------dance-single - ----------------
#NOTES:
     dance-single:
     :
     Easy:
     7:
     0.427,0.614,0.473,0.060,0.000:
0000
0000
0000
0000
,
0000
0000
0000
0000
,
0000
0000
0000
0000
,
0000
0000
0000
0000
,
0000
0000
0000
0000
,
1001
0110
1001
0110
,
1001
1001
1001
0000
,
0110
1001
0110
1001
,
0110
0110
0110
0000
,
1000
0100
1000
0100
,
0010
0001
0010
0001
0010
0000
0100
0000
,
1000
0100
1000
0100
,
0010
0000
0001
0000
0100
0001
0100
0000
,
0001
1000
0100
0010
,
0100
0010
0100
0010
0100
0000
0010
0000
,
0100
0110
1000
0110
,
1000
0010
0100
0010
,
1000
0000
0010
0000
0100
0000
0000
0001
,
1000
0000
0001
0100
0001
0000
0000
0000
,
0100
0000
0010
1000
0010
0000
0100
0000
,
1000
0100
0010
0001
,
1000
0001
1000
0001
0000
0000
0000
0000
,
1001
0100
0010
0100
,
1000
1100
0010
0011
,
0100
0010
1000
0100
,
0001
1001
1000
1001
,
0100
0010
0001
0100
,
0010
0110
0100
0110
,
1001
0000
1001
0100
,
0010
1000
0100
0010
,
0001
0100
0010
1000
,
0100
0010
0001
1000
,
0100
0010
0001
0010
,
0100
1000
0001
0010
,
0100
1000
0001
0010
,
0100
1000
0010
0100
,
0001
1000
0010
0100
,
0001
0100
0010
1000
,
0001
0100
0010
1000
,
1000
1000
0100
0100
,
0010
0010
0001
0001
,
1000
1000
0100
0100
,
0010
0000
0000
0001
,
1001
0000
1001
0000
,
0110
0000
0110
0000
,
1000
0100
0010
0001
,
1000
0001
1001
0110
,
1000
0100
0010
1000
,
1000
0100
0010
0001
,
1000
0100
0010
0001
,
1000
0001
1001
0000
,
0100
0010
0100
1000
,
0000
0110
0000
0000
0000
0000
0100
0000
,
0010
1000
0100
0010
,
0001
1000
0001
1001
,
0100
0010
1000
0100
,
0010
0000
0010
0100
,
1000
0100
0010
0100
,
0010
0100
0000
1000
,
0001
0000
0100
0000
0010
0000
0000
0110
,
0000
0000
0100
1000
,
0100
0010
0001
0100
,
0010
0001
2000
0000
,
3002
0000
0203
0000
,
0000
0000
0020
0000
,
0000
0000
0000
0000
,
0330
1001
0000
1001
,
0000
1001
0000
0100
,
0010
0110
0000
0110
,
0000
0110
0000
1000
,
0001
1001
0000
1001
,
0000
1001
0000
0100
,
0010
0110
0000
0110
,
0000
1000
0001
0000
,
2002
0000
0000
0000
,
0000
0000
0000
0000
,
0000
3003
0000
0000
;

//---------------dance-single - ----------------
#NOTES:
     dance-single:
     :
     Beginner:
     4:
     0.162,0.307,0.101,0.040,0.000:
0000
0000
0000
0000
,
0000
0000
0000
0000
,
0000
0000
0000
0000
,
0000
0000
0000
0000
,
0000
0000
0000
0000
,
1001
0000
1001
0000
,
1001
0000
0000
0000
,
0110
0000
0110
0000
,
0110
0000
0000
0000
,
1000
0000
1000
0000
,
0001
0001
0001
0000
,
0001
0000
0000
0000
,
0100
0100
0100
0000
,
0010
0000
0010
0000
,
1000
0000
1000
0000
,
0001
0000
0000
0000
,
0001
0001
0001
0000
,
1000
0000
0000
0000
,
0100
0000
0000
0000
,
0010
0000
0000
0000
,
0001
0001
0001
0000
,
0100
0000
0000
0000
,
1000
0000
0100
0000
,
0100
0000
0000
0000
,
0001
0000
0010
0000
,
0010
0000
0000
0000
,
1000
0000
0100
0000
,
0100
0000
0000
1000
,
0000
0000
0000
1000
,
0000
1000
0000
1000
,
0000
1000
0000
0000
,
1000
0000
0000
0000
,
0010
0000
0010
0000
,
0010
0000
0000
0000
,
0100
0000
0100
0000
,
0100
0000
0000
0000
,
1000
0000
0010
0000
,
1000
0000
0000
0000
,
0001
0000
0100
0000
,
0001
0000
0000
0000
,
0100
0000
0010
0000
,
0100
0000
0000
0000
,
1000
0000
0000
0000
,
1001
0000
1001
0000
,
1001
0000
0000
0000
,
0200
0000
0000
0000
,
0000
0000
0300
0000
,
0000
0000
0000
0010
,
0000
0010
0000
1000
,
0000
0000
0000
0001
,
1000
0001
0000
0000
,
0000
0100
0000
0010
,
0000
0000
0000
0010
,
0000
0100
0000
0010
,
0000
0000
1000
0000
,
1000
0000
0000
1000
,
0000
0000
0000
0000
,
0010
0000
0000
0000
,
0000
1000
0000
0000
,
0010
0000
0010
0000
,
0000
0000
0001
0000
,
0000
0000
0001
0000
,
0000
0000
2000
0000
,
0000
0000
0000
0000
,
0000
0000
0002
0000
,
0000
0000
0000
0000
,
3003
0000
0000
0100
,
0000
0100
0000
0000
,
0000
0010
0000
0010
,
0000
0010
0000
0000
,
0000
0001
0000
0001
,
0000
0001
0000
0000
,
0000
1001
0000
1000
,
0000
1000
0000
0000
,
2000
0000
0000
0000
,
0000
0000
0000
0000
,
0000
3000
0000
0000
;

//---------------dance-single - ----------------
#NOTES:
     dance-single:
     :
     Challenge:
     17:
     0.858,0.882,1.000,0.242,0.362: // measure 1
0000
0000
0000
0000
,  // measure 2
0000
0000
0000
0000
,  // measure 3
0000
0000
0000
0000
,  // measure 4
0000
0000
0000
0000
,  // measure 5
0000
0000
0000
0000
,  // measure 6
0011
0010
0110
0000
0100
1100
0100
0000
,  // measure 7
1010
0010
0110
0100
0101
0001
0100
0000
,  // measure 8
0110
0010
0110
0000
1100
1000
1100
0000
,  // measure 9
0010
0001
0010
0000
0010
0100
0010
0000
0010
1000
0010
0000
0001
0000
0010
0000
,  // measure 10
0100
0010
0001
0000
1000
0000
0010
0000
0001
0000
0010
0000
0100
0000
1000
0000
,  // measure 11
0010
0100
0010
0000
0100
0010
0100
0000
0001
0000
0100
0000
0010
0000
1000
0000
,  // measure 12
0011
0100
1100
0000
1010
0100
0101
0000
,  // measure 13
0001
0000
0010
0000
0100
0000
1000
0000
1000
0100
0010
0100
0010
0001
0010
0000
,  // measure 14
0001
0100
0001
0000
0100
0000
0001
0000
0100
0000
1000
0000
0100
0000
1000
0000
,  // measure 15
0010
0100
1000
0000
1000
0100
0010
0000
0001
0000
0010
0000
0100
0000
1000
0000
,  // measure 16
0101
0010
1001
0000
1001
0010
1100
0000
,  // measure 17
1000
0001
1000
0000
0010
0000
0100
0000
1000
0000
0000
0000
0010
0000
0000
0000
,  // measure 18
0200
0000
0000
0000
0000
0000
0000
0000
0310
0000
1000
0000
0100
0020
0001
0000
0000
0000
0000
0000
0000
0000
0000
0000
0000
0000
0031
0000
0010
0000
0100
0010
,  // measure 19
0002
0000
0000
0000
1003
1000
0001
2000
0000
0000
0000
0000
0000
3001
0000
2000
,  // measure 20
0001
0000
0000
0000
3001
0010
0100
1000
0000
0010
0000
0100
0001
0000
0010
0000
,  // measure 21
0011
0110
1001
1000
,  // measure 22
1010
0100
0011
1001
0000
0011
1100
0000
,  // measure 23
0110
0000
0010
0000
0001
0100
0010
0100
,  // measure 24
0200
0001
0000
0300
0020
0100
0000
0030
0200
1000
0000
0300
0020
0100
0000
0000
,  // measure 25
1030
0100
0010
0100
0010
1000
0010
1000
,  // measure 26
2000
0100
0000
3000
0200
0010
0000
0300
0002
1000
0000
0003
0020
0100
0000
0000
,  // measure 27
1030
0010
1000
0010
0100
1000
0100
0010
,  // measure 28
0100
0010
0000
0000
0100
0010
0000
0000
0100
0010
0100
0010
0100
0000
0000
0000
,  // measure 29
0001
0000
0000
1000
0000
0000
0010
0000
0000
0000
0000
0000
0110
0000
0000
0000
0000
0000
1001
0000
0000
0000
0110
0000
,  // measure 30
0000
1001
0000
1010
0000
0101
0000
1001
0000
0110
0000
1100
,  // measure 31
0000
0011
0000
1001
0000
0000
0200
0000
0000
0301
0000
0000
,  // measure 32
0101
0000
0000
0000
0010
0000
0000
0000
0100
0000
0000
1000
0001
0000
0000
0000
,  // measure 33
1000
1000
0001
0001
1000
0000
0010
0000
,  // measure 34
0100
0000
0000
0000
1000
0000
0001
1000
0010
0000
0100
0000
1000
0000
0100
0000
,  // measure 35
2000
0010
3100
1000
,  // measure 36
0110
0000
0100
0010
0001
0100
1000
0100
,  // measure 37
0100
0000
1000
0000
0100
0000
0001
0000
1000
0000
0000
1000
0002
0000
0000
0000
,  // measure 38
0100
0000
0100
0000
1003
0100
0010
0001
,  // measure 39
0010
0100
1000
0010
0100
0010
0000
0010
,  // measure 40
1000
1000
0100
0000
1000
0000
0010
0000
,  // measure 41
0100
1000
0100
0010
,  // measure 42
0001
1000
0010
0000
0010
0000
1000
0000
,  // measure 43
0001
0001
1000
0000
0001
0000
1000
0001
,  // measure 44
1001
0000
0110
0000
,  // measure 45
1010
0000
0110
0001
,  // measure 46
0010
0100
0010
0000
1000
0100
0010
0000
0001
0010
1000
0000
1000
0010
0001
0000
,  // measure 47
0010
0001
0100
0000
1000
0010
0100
0010
0100
0000
0000
0000
0102
0000
0000
0000
,  // measure 48
0100
0100
0000
1003
0100
0000
0100
0000
,  // measure 49
0010
0100
0001
0100
1100
1100
0010
0100
,  // measure 50
0001
0010
0100
1000
0010
0100
0110
0000
,  // measure 51
0101
0000
0000
0000
1010
0000
0000
0000
0001
2000
0001
0000
0000
0000
0000
0000
,  // measure 52
3010
0000
0000
0000
0100
0000
0000
0000
0001
0000
0000
0000
0010
1000
0001
0010
,  // measure 53
0100
0001
0100
0000
0000
0000
0010
0000
0100
0000
0011
0000
0000
0000
1100
0000
,  // measure 54
0100
0000
0100
0000
1000
0000
1010
0110
,  // measure 55
0011
0011
0000
0200
0020
0330
1001
0000
,  // measure 56
0100
1000
0010
0100
1000
0100
0001
0000
,  // measure 57
1000
0000
1000
0000
0100
0001
0100
0001
0100
0001
1000
0001
1000
0000
0010
0000
,  // measure 58
0001
0001
0010
0101
0000
1100
0000
0010
,  // measure 59
0110
0100
0011
0000
1100
0000
0101
0000
,  // measure 60
1010
0000
0000
0000
1000
0000
0000
0000
0010
0001
1000
0000
0000
0000
1001
0000
,  // measure 61
0000
0001
0010
0100
0000
1000
0100
0000
,  // measure 62
0010
0100
0001
0100
0010
0000
0001
0010
,  // measure 63
0100
1000
0010
0100
0020
0000
0100
0000
,  // measure 64
2030
0000
0100
0000
3001
0000
0001
1000
,  // measure 65
0010
0000
0000
0000
1000
0000
0010
0000
0001
1000
0010
0000
0100
0001
1000
0000
,  // measure 66
0010
0001
0100
0000
0001
1000
0010
0000
0100
1000
0100
0000
0001
0010
0001
0000
,  // measure 67
1100
0000
1010
1010
1001
0000
0110
0110
,  // measure 68
0101
0000
0000
0000
0110
0000
0110
0000
0000
0000
1000
0001
1000
0000
0100
0000
,  // measure 69
0010
0000
0110
1100
1100
0000
1010
0110
,  // measure 70
0110
0000
0000
0000
0101
0000
0101
0000
0000
0000
0001
1000
0010
0000
1000
0000
,  // measure 71
0100
0000
1010
1001
1100
0000
1100
1001
,  // measure 72
1010
0000
1010
1001
0000
0010
0100
0010
,  // measure 73
0100
0000
0110
0101
0110
0000
0110
1010
,  // measure 74
0110
0000
0011
1001
0110
1100
0000
0000
,  // measure 75
2002
0000
0000
0000
,  // measure 76
0000
0000
0000
0000
,  // measure 77
0000
3003
0000
0000
;
