#TITLE:健全ロボ ダイミダラー;
#SUBTITLE:健全ロボ ダイミダラー OP;
#ARTIST:遠藤会;
#TITLETRANSLIT:Kenzen Robo Daimidaler;
#SUBTITLETRANSLIT:Kenzen Robo Daimidaler OP;
#ARTISTTRANSLIT:Endoukai;
#CREDIT:;
#GENRE:DAIMIDALER BEAT#2;
#BANNER:Kenzen Robo Daimidaler.png;
#BACKGROUND:Kenzen Robo Daimidaler-bg.png;
#LYRICSPATH:;
#CDTITLE:cdtitle.png;
#MUSIC:Kenzen Robo Daimidaler.mp3;
#METERTYPE:DDR X;
#MENUCOLOR:0,0,1,1;
#OFFSET:-0.192;
#SAMPLESTART:53.617;
#SAMPLELENGTH:12.000;
#SELECTABLE:YES;
#BPMS:0.000=180;
#STOPS:;
#BGCHANGES:;

//---------------dance-single - ----------------
#NOTES:
     dance-single:
     :
     Hard:
     17:
     0.901,1.000,0.358,0.626,0.598: // measure 1
0000
0000
0000
0000
,  // measure 2
0000
0000
0000
0000
,  // measure 3
0000
0000
0000
0000
,  // measure 4
0000
0000
0000
0000
,  // measure 5
1002
0000
0000
0010
0000
0000
0100
0000
,  // measure 6
1003
0110
1002
0000
0203
0000
0320
0000
,  // measure 7
1030
0000
0100
0000
1000
0100
1000
0000
0001
0000
0010
0000
0001
0010
0001
0000
,  // measure 8
0100
0000
0010
0000
0100
0010
0100
0000
0010
0000
0100
0000
0010
0100
0010
0000
,  // measure 9
1000
0000
0001
0000
1000
0100
0001
0000
0100
0000
1000
0000
0001
0100
1000
0000
,  // measure 10
0100
0000
0010
0000
0100
0001
1000
0000
0100
0000
0010
0000
0100
1000
0001
0000
,  // measure 11
1000
0000
1000
0000
0001
1000
0001
0000
0001
0000
0001
0000
1000
0001
1000
0000
,  // measure 12
1000
0000
1000
0000
0010
1000
0001
0000
0001
0000
0010
0000
0100
1000
0010
0000
,  // measure 13
1000
0100
1000
0100
0010
0100
0010
0001
0010
0001
0010
0100
0010
0100
1000
0100
,  // measure 14
1000
0001
0100
0000
0010
1000
0100
0000
1000
0001
0100
0000
0010
1000
0010
1000
,  // measure 15
0010
0000
0010
0000
1000
0100
1000
0100
1000
0000
0001
0000
0010
0000
1000
0000
,  // measure 16
1000
0010
0100
0000
0001
0000
0002
0000
0000
0000
0100
0000
0103
0000
0000
0000
,  // measure 17
0010
0000
0010
0000
0001
0100
0001
0100
0001
0000
0001
0000
0010
0000
0010
0000
,  // measure 18
0100
0010
0001
0000
1000
0000
0002
0000
0000
0000
1000
0000
1003
0000
0000
0000
,  // measure 19
0100
0000
0100
0000
0010
0100
0010
0100
0010
0000
1000
0000
0010
0000
0100
0000
,  // measure 20
1000
0001
0010
0000
0100
0000
0200
0000
0000
0000
0000
0000
1300
0000
0100
0000
,  // measure 21
2000
0000
3010
0200
,  // measure 22
1300
0100
1000
0000
0100
0001
0010
0000
0100
0010
0100
0010
0001
0000
0001
0000
,  // measure 23
1000
0000
0001
0000
0001
1000
0100
0000
0200
0000
0000
0000
0320
0000
0000
0000
,  // measure 24
0032
0000
0000
0000
1000
0000
2000
0000
0000
0000
0003
0000
3010
0000
0100
0001
,  // measure 25
0020
0000
0100
0200
0300
0002
0033
1001
,  // measure 26
0020
0000
0000
0100
0200
0000
0000
0330
,  // measure 27
1000
0000
0001
0000
0100
1000
0010
0000
0010
1000
0001
0000
0100
0000
0010
0000
,  // measure 28
0020
0000
0100
0200
0000
0330
0000
1100
,  // measure 29
1001
0000
0000
1001
0011
0000
0000
0011
,  // measure 30
1001
1010
0210
0301
,  // measure 31
2000
0000
0000
0000
0010
0000
3010
1000
0200
0000
0000
0000
0000
0000
0310
0000
,  // measure 32
1002
0000
0023
0000
0230
0000
0000
0300
,  // measure 33
0012
0000
0000
0000
0100
0000
0103
0001
2000
0000
0000
0000
0000
0000
3001
0000
,  // measure 34
0022
0030
0200
0300
2000
0000
0000
3003
,  // measure 35
0110
0001
0100
1000
0100
0000
1002
0000
,  // measure 36
0103
0100
0010
0010
0020
0000
0000
1030
,  // measure 37
0001
0000
0000
0100
0010
0100
0001
0000
0001
0000
0000
1000
0100
1000
0100
0000
,  // measure 38
0100
0000
0000
0100
0010
0100
0010
0100
0001
0100
0001
0100
1000
0100
1000
0100
,  // measure 39
0010
0010
0020
0000
0000
0000
1000
0100
,  // measure 40
0002
0000
0000
0000
0000
0033
0101
0000
,  // measure 41
1001
0000
0001
0000
1000
0001
0200
0000
0010
0000
0010
0000
0310
0000
1000
0000
,  // measure 42
1000
0000
1000
0000
0010
1000
0002
0000
0010
0000
0010
0000
0013
0000
0010
0000
,  // measure 43
0100
0000
1000
0000
0010
0001
0200
0000
1000
0000
1000
0000
1300
0000
0100
0000
,  // measure 44
0001
0100
0002
0000
0103
1000
0200
0000
0000
0000
0000
0000
1300
0000
0000
0000
,  // measure 45
1020
0000
0000
2030
0000
0000
3200
0000
,  // measure 46
0302
0000
0000
0023
0000
0000
2030
0000
,  // measure 47
3200
0000
0000
0000
0000
0000
0000
0000
0000
0000
0000
0000
0000
0000
0000
0000
0000
0000
0000
0000
0000
0000
0000
0000
0000
0000
0000
0000
0000
0000
0000
0000
0000
0000
0000
0000
0000
0000
0000
0000
0000
0000
0000
0000
0000
0000
0000
0000
0000
0000
0000
0000
0000
0000
0000
0000
0000
0000
0000
0000
0000
0000
0000
0000
0000
0000
0000
0000
0000
0000
0000
0000
0000
0000
0000
0000
0000
0000
0000
0000
0000
0000
0000
0000
0000
0000
0000
0000
0000
0000
0000
0000
0000
0000
0000
0000
0320
0000
0000
0000
0000
0000
0000
0000
0000
0000
0000
0000
0000
0000
0000
0000
0000
0000
0000
0000
0000
0000
0000
0000
0000
0000
0000
0000
0000
0000
0000
0000
0000
0000
0000
0000
0000
0000
0000
0000
0000
0000
0000
0000
0000
0000
0000
0000
0000
0000
0000
0000
0000
0000
0000
0000
0000
0000
0000
0000
0000
0000
0000
0000
0000
0000
0000
0000
0000
0000
0000
0000
0000
0030
0000
0000
0000
0000
0000
0000
0000
0000
0000
0000
0000
0000
0000
0000
0000
0000
0000
0000
0000
0000
0000
0000
,  // measure 48
0100
0000
0100
0000
0010
0100
0010
0000
0100
0000
0100
0000
0010
0100
0010
0100
,  // measure 49
1000
0000
0100
0000
0010
0000
0100
0010
0100
0010
0100
0010
0100
0000
0010
0000
,  // measure 50
1000
0000
0010
0000
0100
0000
0001
1000
0001
1000
0001
1000
0001
0000
0100
0000
,  // measure 51
0010
0000
1000
0000
0100
0000
0010
0100
0010
0100
0010
0000
0010
0000
0001
0000
,  // measure 52
0100
1000
0100
0002
1000
1000
1003
0000
,  // measure 53
2100
0000
0001
0002
0000
3003
1001
0000
,  // measure 54
0110
0000
2002
0000
0000
0000
0000
3003
,  // measure 55
1001
0000
0100
1010
0000
0010
0101
0000
,  // measure 56
0010
1100
0000
0100
0011
0000
0110
0000
,  // measure 57
1000
0000
1000
0100
1000
0100
1000
0000
0001
0000
0001
0010
0001
0010
0001
0000
,  // measure 58
0001
0000
0100
0010
0100
0010
0100
0000
0100
0000
0010
0100
0010
0100
0010
0000
,  // measure 59
1000
0000
0001
0100
0001
0100
0001
0000
1000
0000
1000
0010
1000
0010
1000
0000
,  // measure 60
0010
0000
0100
0001
0100
0010
0100
0000
0010
0000
0010
1000
0010
0100
0010
0000
,  // measure 61
1000
0000
0001
0100
0001
0010
0001
0000
1000
0000
1000
0100
1000
0010
1000
0000
,  // measure 62
0010
0000
0100
0001
0100
0001
0010
0000
0010
0000
0100
1000
0100
1000
0010
0000
,  // measure 63
1000
0010
1000
0010
0100
0010
0100
0001
0100
0001
0010
0001
0010
0001
1000
0001
,  // measure 64
1000
0010
1000
0000
0010
0100
0010
0000
0100
0001
0100
0001
0100
0000
0101
0000
,  // measure 65
2002
0000
0000
0000
,  // measure 66
0000
0000
0000
0000
,  // measure 67
3003
0000
0000
0000
;

//---------------dance-single - ----------------
#NOTES:
     dance-single:
     :
     Beginner:
     3:
     0.112,0.221,0.067,0.067,0.000:
0000
0000
0000
0000
,
0000
0000
0000
0000
,
0000
0000
0000
0000
,
0000
0000
0000
0000
,
1001
0000
0000
0000
,
1001
0000
0000
0000
,
0010
0000
0000
0000
,
0010
0000
0000
0000
,
0100
0000
0000
0000
,
0100
0000
0000
0000
,
0001
0000
0000
0000
,
0001
0000
0000
0000
,
2000
0000
0000
0000
,
0000
0000
0000
0000
,
3000
0000
0000
0000
,
0001
0000
0000
0000
,
0001
0000
0000
0000
,
1000
0000
0000
0000
,
0010
0000
0000
0000
,
0010
0000
0000
0000
,
1000
0000
0000
0000
,
0001
0000
0000
0000
,
1000
0000
0000
0000
,
0001
0000
0000
0000
,
1000
0000
0000
0000
,
0001
0000
0000
0000
,
0100
0000
0000
0000
,
0100
0000
0000
0000
,
0010
0000
0010
0000
,
0010
0000
0000
0000
,
2000
0000
0000
0000
,
3000
0000
0000
0000
,
0002
0000
0000
0000
,
0003
0000
0000
0000
,
0100
0000
0000
0000
,
0010
0000
0000
0000
,
0110
0000
0000
0000
,
0110
0000
0000
0000
,
1001
0000
0000
0000
,
0002
0000
0000
0000
,
0003
0000
0000
0000
,
0001
0000
0000
0000
,
1000
0000
0000
0000
,
0100
0000
0000
0000
,
0010
0000
0000
0000
,
0001
0000
0000
0000
,
1000
0000
1000
0000
,
2000
0000
0000
0000
,
3000
0000
0000
0000
,
0001
0000
0000
0000
,
1000
0000
0000
0000
,
0010
0000
0000
0000
,
0100
0000
0000
0000
,
1001
0000
0000
0000
,
0001
0000
0000
0000
,
0001
0000
0000
0000
,
1000
0000
0000
0000
,
1000
0000
0000
0000
,
0100
0000
0000
0000
,
0010
0000
0000
0000
,
0001
0000
0000
0000
,
1000
0000
0000
0000
,
1000
0000
0000
0000
,
0001
0000
0001
0000
,
0002
0000
0000
0000
,
0000
0000
0000
0000
,
0003
0000
0000
0000
;

//---------------dance-single - ----------------
#NOTES:
     dance-single:
     :
     Easy:
     6:
     0.259,0.369,0.101,0.190,0.000: // measure 1
0000
0000
0000
0000
,  // measure 2
0000
0000
0000
0000
,  // measure 3
0000
0000
0000
0000
,  // measure 4
0000
0000
0000
0000
,  // measure 5
1001
0000
0000
0000
,  // measure 6
1000
0000
0000
0000
,  // measure 7
0000
0001
0000
0000
0000
0001
0000
0000
,  // measure 8
0000
0001
0000
0000
0000
0001
0000
0000
,  // measure 9
0000
1000
0000
0000
0000
1000
0000
0000
,  // measure 10
0000
1000
0000
0000
0000
1000
0000
0000
,  // measure 11
0000
0010
0000
0000
0000
0010
0000
0000
,  // measure 12
0000
0010
0000
0000
0000
0100
0000
0000
,  // measure 13
0100
0100
0100
0100
,  // measure 14
0200
0000
0000
0000
,  // measure 15
0301
0000
0001
0000
,  // measure 16
0020
0000
0000
0000
,  // measure 17
0130
0000
0100
0000
,  // measure 18
0200
0000
0000
0000
,  // measure 19
1300
0000
1000
0000
,  // measure 20
2000
0000
0000
0000
,  // measure 21
3001
0000
0001
0000
,  // measure 22
1000
1000
0100
0100
,  // measure 23
0010
0000
0001
0000
,  // measure 24
0020
0000
0000
0000
,  // measure 25
0130
0000
1000
0000
,  // measure 26
0002
0000
1003
0000
,  // measure 27
1000
0100
1000
0000
,  // measure 28
0001
0010
0001
0000
,  // measure 29
1001
0000
1001
0000
,  // measure 30
0100
0100
0100
0000
,  // measure 31
0020
0000
0100
0000
,  // measure 32
0130
0000
0000
0000
,  // measure 33
0002
0000
1000
0000
,  // measure 34
1003
0000
0000
0000
,  // measure 35
1000
0100
1000
0100
,  // measure 36
0010
0001
0010
0000
,  // measure 37
1001
0000
1001
0000
,  // measure 38
2002
0000
0000
0000
,  // measure 39
3003
0000
0000
0100
,  // measure 40
0200
0000
0000
0000
,  // measure 41
0310
0000
0000
0010
0000
0000
0010
0000
,  // measure 42
0010
0000
0000
0010
0000
0000
0010
0000
,  // measure 43
0100
0000
0000
0100
0000
0000
0100
0000
,  // measure 44
0100
0000
0000
0100
0000
0000
0000
0000
,  // measure 45
0002
0000
1000
0000
,  // measure 46
2003
0000
0001
0000
,  // measure 47
3002
0000
1000
0000
,  // measure 48
2000
0000
0000
0000
,  // measure 49
3003
0000
0001
0000
,  // measure 50
0001
0000
1000
0000
,  // measure 51
1000
0000
0010
0000
,  // measure 52
0100
0000
0000
0000
,  // measure 53
0001
0000
0000
0001
0000
0000
1000
0000
,  // measure 54
1001
0000
0000
0000
,  // measure 55
1001
0000
0000
0001
,  // measure 56
0000
0001
0000
0000
0001
0000
0001
0000
,  // measure 57
1000
0100
0010
0100
,  // measure 58
0010
0100
0010
0100
,  // measure 59
0010
0001
0010
0001
,  // measure 60
0010
0001
0010
0100
,  // measure 61
0100
1000
0100
1000
,  // measure 62
0100
0010
0100
0010
,  // measure 63
0100
0100
0010
0010
,  // measure 64
0001
0010
0100
1000
,  // measure 65
2002
0000
0000
0000
,  // measure 66
0000
0000
0000
0000
,  // measure 67
3003
0000
0000
0000
;

//---------------dance-single - ----------------
#NOTES:
     dance-single:
     :
     Medium:
     13:
     0.621,0.848,0.190,0.257,0.196: // measure 1
0000
0000
0000
0000
,  // measure 2
0000
0000
0000
0000
,  // measure 3
0000
0000
0000
0000
,  // measure 4
0000
0000
0000
0000
,  // measure 5
0210
0000
0000
0010
0000
0000
0010
0000
,  // measure 6
0310
1000
0100
0000
1000
0000
0100
0000
,  // measure 7
0010
0000
0001
0000
0001
1000
0001
0000
0000
0000
0010
0000
0010
0100
0010
0000
,  // measure 8
0000
0000
0100
0000
0100
0010
0100
0000
0000
0000
1000
0000
1000
0001
1000
0000
,  // measure 9
0000
0000
1000
0000
1000
0100
1000
0000
0000
0000
0010
0000
0010
1000
0010
0000
,  // measure 10
0000
0000
0100
0000
0100
0001
0100
0000
0000
0000
0001
0000
0001
0010
0001
0000
,  // measure 11
0000
0000
1000
0000
1000
0010
1000
0000
0000
0000
0100
0000
0100
1000
0100
0000
,  // measure 12
0000
0000
0010
0000
0010
0001
0010
0000
0000
0000
0001
0000
0001
0100
0001
0000
,  // measure 13
1000
0001
1000
0001
1000
0001
1000
0010
,  // measure 14
1000
0001
1000
0000
0010
1000
0010
0000
0100
0001
0100
0000
0001
0000
0001
0000
,  // measure 15
1000
0000
0001
0001
0001
0000
1000
0000
,  // measure 16
0020
0000
0000
0100
0000
0000
0000
0000
,  // measure 17
0130
0000
0010
0010
0010
0000
1000
0000
,  // measure 18
0200
0000
0000
0010
0000
0000
0000
0000
,  // measure 19
0310
0000
0001
0001
0001
0000
0100
0000
,  // measure 20
0002
0000
0000
1000
0000
0000
1003
0001
,  // measure 21
0100
0000
0010
0100
,  // measure 22
1001
0000
1000
0000
0100
0010
0100
0000
0010
0000
0001
0000
0010
0000
0100
0000
,  // measure 23
0010
1000
1000
1000
0010
0000
0100
0000
,  // measure 24
0010
0000
0100
0020
0000
0000
0031
0100
,  // measure 25
0010
0000
0001
0020
0000
0130
0000
0100
,  // measure 26
0020
0000
0000
1000
1030
0000
0000
0000
,  // measure 27
1000
0100
0010
0010
0010
0000
0001
0000
,  // measure 28
0010
0000
0100
1000
0000
0000
1000
0100
,  // measure 29
0110
0000
0000
0011
0011
0000
0000
0100
,  // measure 30
0110
1100
0110
0000
,  // measure 31
0001
0000
0010
0001
0010
0000
0100
1000
,  // measure 32
0200
1000
1000
0310
,  // measure 33
0010
0000
0100
0010
0200
0000
0000
0001
,  // measure 34
0001
0001
0301
0001
,  // measure 35
1000
1000
0100
0010
0001
0000
0100
0000
,  // measure 36
0010
0010
0100
1000
0100
0000
0000
1000
,  // measure 37
1100
0000
0000
0100
0101
0000
0000
0100
,  // measure 38
0220
0000
0000
0000
,  // measure 39
0330
1000
0200
0000
0000
0000
0010
0010
,  // measure 40
0020
0000
0330
0110
,  // measure 41
1000
0100
0010
0001
0001
0001
0100
1000
,  // measure 42
0100
0010
0100
0100
0100
0100
0010
0000
,  // measure 43
1000
0000
0100
0010
0000
0010
0001
0000
,  // measure 44
0100
0000
0100
0001
0000
0000
0000
0000
,  // measure 45
2000
0000
0000
0100
0000
0000
0100
0000
,  // measure 46
3002
0000
0000
0010
0000
0000
0010
0000
,  // measure 47
2003
0000
0000
0000
0002
0000
0000
3003
,  // measure 48
1000
0000
0100
0000
0010
0001
1000
0000
0100
0000
0100
0000
0010
0001
0010
0000
,  // measure 49
0100
0100
0010
0100
0000
1000
0010
0000
,  // measure 50
0001
0010
0010
1000
0000
1000
0100
0000
,  // measure 51
1000
0100
0100
0001
0000
0100
0010
0000
,  // measure 52
0001
0000
0100
0002
0000
0000
0000
0000
,  // measure 53
2003
0000
0000
3100
0000
0000
0100
0000
,  // measure 54
0110
0000
2002
0000
0000
0000
0000
3003
,  // measure 55
1001
0000
1000
1000
0000
0001
0001
0000
,  // measure 56
0100
0100
0000
0010
0010
0000
1001
0000
,  // measure 57
1000
0000
0100
0000
0100
1000
0100
0000
1000
0000
0010
0000
0010
0100
0010
0000
,  // measure 58
0100
0000
0001
0000
0001
0010
0001
0000
0010
0000
0100
0000
0100
1000
0100
0000
,  // measure 59
1000
0000
0100
0000
0100
0001
0100
0000
0001
0000
0100
0000
0100
1000
0100
0000
,  // measure 60
1000
0000
0010
0000
0010
0100
0010
0000
0100
0000
1000
0000
1000
0100
1000
0000
,  // measure 61
0100
0000
0010
0000
0010
0100
0010
0000
0100
0000
0001
0000
0001
0100
0001
0000
,  // measure 62
0100
0000
0010
0000
0010
1000
0010
0000
1000
0000
0010
0000
0010
0100
0010
0000
,  // measure 63
1000
0001
1000
0000
0001
1000
0001
0000
0100
0010
0100
0010
0100
0000
0010
0000
,  // measure 64
0001
1000
0010
0000
0100
0000
1000
0000
0010
0000
0010
0000
0100
0000
0010
0000
,  // measure 65
2002
0000
0000
0000
,  // measure 66
0000
0000
0000
0000
,  // measure 67
3003
0000
0000
0000
;
