#TITLE:Innocent Blue;
#SUBTITLE:蒼き鋼のアルペジオ -アルス・ノヴァ- ED2;
#ARTIST:Trident;
#TITLE:Innocent Blue;
#SUBTITLETRANSLIT:Aoki Hagane no Arpeggio -Ars Nova- ED2;
#ARTISTTRANSLIT:Trident;
#GENRE:NAVAL BALLAD;
#CREDIT:;
#BANNER:Innocent Blue.png;
#BACKGROUND:Innocent Blue-bg.png;
#LYRICSPATH:;
#CDTITLE:cdtitle.png;
#MUSIC:Innocent Blue.mp3;
#METERTYPE:DDR X;
#MENUCOLOR:0,0,1,1;
#OFFSET:-0.580;
#SAMPLESTART:58.613;
#SAMPLELENGTH:12.000;
#SELECTABLE:YES;
#BPMS:0.000=80.000;
#STOPS:;
#BGCHANGES:;

//---------------dance-single - ----------------
#NOTES:
     dance-single:
     :
     Hard:
     8:
     0.339,0.402,0.022,0.377,0.161: // measure 1
0000
0000
0000
0000
,  // measure 2
0000
0000
0000
0000
,  // measure 3
0000
0000
0000
0000
,  // measure 4
0202
0000
0000
0000
0000
0303
2020
0000
,  // measure 5
3030
0100
0001
1000
0000
1000
0001
0100
,  // measure 6
0002
0000
1000
0000
0000
0100
0100
0000
,  // measure 7
1003
0001
0100
0001
0000
0001
0010
0100
,  // measure 8
0020
0000
0000
0002
,  // measure 9
0033
0000
1000
0000
0100
0000
0010
1000
0000
0000
1000
0020
0000
0000
0032
0000
,  // measure 10
0000
0000
0100
0000
0103
1000
0100
0010
,  // measure 11
1000
0000
0001
0020
0000
1030
0010
0200
,  // measure 12
0001
0000
0000
0000
1000
0000
0000
0000
0001
0000
0000
0000
0301
0100
0010
0100
,  // measure 13
1000
0000
0100
0000
0010
0000
0001
0020
0000
0030
1000
0020
0000
0000
0032
0000
,  // measure 14
0000
0000
0103
1000
0100
0010
0100
0001
,  // measure 15
0010
0000
0001
0200
0000
1300
0001
0200
,  // measure 16
0010
0000
0001
0000
0000
1000
0010
0000
,  // measure 17
0302
0000
0000
0000
0100
0000
1000
2003
0000
0000
0000
0000
0010
0000
0010
3020
,  // measure 18
0100
0000
0100
0100
0000
0000
1000
1000
0000
0000
0000
0000
1030
0000
0001
0000
,  // measure 19
0100
0000
0010
0100
0000
0000
0001
0200
0000
0000
0301
0000
1000
0000
0001
0000
,  // measure 20
2000
0000
0010
3010
2000
0000
3002
0000
,  // measure 21
0103
0000
0010
0000
0001
0000
1000
0010
0000
0000
0010
1000
0010
0000
1000
0100
,  // measure 22
0010
0000
0001
0010
0100
0000
0100
1000
0200
0000
0320
0000
1030
0000
0001
0000
,  // measure 23
0100
0000
0010
0100
0010
0000
0000
0001
0010
0100
1000
0000
0100
0000
0001
0000
,  // measure 24
0020
0000
1000
0000
0230
0000
0010
0000
0302
0000
1000
0003
0200
0000
0010
0300
,  // measure 25
0001
0000
0100
0000
0010
0000
1000
0100
0010
0000
0010
0001
0010
0000
0010
0100
,  // measure 26
1000
0000
1000
0100
0010
0000
0010
0001
0200
0000
0010
0000
2300
0000
3100
0010
,  // measure 27
1000
0000
0010
1000
0010
0000
0200
0000
0000
0000
0301
0000
0100
0000
0010
0000
,  // measure 28
0001
0000
0001
0000
1000
0000
0010
0000
1000
0000
0010
1000
0000
0000
1000
0010
,  // measure 29
2000
0010
0001
0200
,  // measure 30
3300
0000
0000
0000
;

//---------------dance-single - ----------------
#NOTES:
     dance-single:
     :
     Beginner:
     1:
     0.111,0.145,0.000,0.044,0.000: // measure 1
0000
0000
0000
0000
,  // measure 2
0000
0000
0000
0000
,  // measure 3
0000
0000
0000
0000
,  // measure 4
2000
0000
0000
0000
,  // measure 5
3000
0000
0001
0001
,  // measure 6
0002
0000
0000
0000
,  // measure 7
0003
0000
1000
1000
,  // measure 8
2000
0000
0000
0000
,  // measure 9
3000
0001
0001
0000
,  // measure 10
0001
0000
1000
1000
,  // measure 11
1000
0000
0010
0010
,  // measure 12
0010
0000
0100
0000
,  // measure 13
0100
0000
0001
0001
,  // measure 14
0001
0000
1000
1000
,  // measure 15
1000
0000
0100
0100
,  // measure 16
0100
0000
0010
0010
,  // measure 17
0010
0000
0001
0000
,  // measure 18
0001
0000
1000
0000
,  // measure 19
0100
0000
0100
0000
,  // measure 20
0010
0000
0001
0001
,  // measure 21
0001
0000
1000
1000
,  // measure 22
1000
0000
0010
0010
,  // measure 23
0010
0100
0100
0100
,  // measure 24
0001
0001
1000
1000
,  // measure 25
1000
0000
0001
0100
,  // measure 26
0010
1000
0100
0010
,  // measure 27
0001
0000
0001
1000
,  // measure 28
0001
0000
0100
0010
,  // measure 29
0200
0000
0000
0000
,  // measure 30
0300
0000
0000
0000
;

//---------------dance-single - ----------------
#NOTES:
     dance-single:
     :
     Easy:
     3:
     0.160,0.177,0.011,0.222,0.000: // measure 1
0000
0000
0000
0000
,  // measure 2
0000
0000
0000
0000
,  // measure 3
0000
0000
0000
0000
,  // measure 4
2000
0000
0000
0000
,  // measure 5
3001
0002
1000
1000
,  // measure 6
2003
0000
3000
0001
,  // measure 7
0001
0100
0010
0010
,  // measure 8
0200
0000
0000
0000
,  // measure 9
0301
0001
1000
1000
,  // measure 10
0020
0000
0130
0001
,  // measure 11
1000
0001
0001
1000
,  // measure 12
0200
0000
0310
0020
,  // measure 13
0130
0100
1000
1000
,  // measure 14
0001
0001
0100
0100
,  // measure 15
0010
0010
1000
0001
,  // measure 16
0002
0000
1003
0001
,  // measure 17
0200
0000
0320
0000
,  // measure 18
2030
0000
3002
0000
,  // measure 19
1003
1000
0001
0100
,  // measure 20
0002
0000
2003
0000
,  // measure 21
3001
0010
0100
0010
,  // measure 22
0001
1000
0100
0010
,  // measure 23
0001
0100
1000
0100
,  // measure 24
2000
0100
3200
0001
,  // measure 25
0301
0010
1000
1000
,  // measure 26
0001
0100
0001
1000
,  // measure 27
0020
0000
0030
0000
,  // measure 28
0200
0000
0301
1000
,  // measure 29
2002
0000
0000
0000
,  // measure 30
3003
0000
0000
0000
;

//---------------dance-single - ----------------
#NOTES:
     dance-single:
     :
     Medium:
     6:
     0.243,0.241,0.022,0.344,0.000: // measure 1
0000
0000
0000
0000
,  // measure 2
0000
0000
0000
0000
,  // measure 3
0000
0000
0000
0000
,  // measure 4
0220
0000
0000
0330
,  // measure 5
1001
0002
2003
3200
,  // measure 6
0320
0001
0000
0001
,  // measure 7
0031
1000
0001
0100
,  // measure 8
0002
0000
0000
0020
,  // measure 9
0033
0000
0100
0000
0010
0000
0100
0100
,  // measure 10
0001
0000
1000
0000
0010
0010
1000
0100
,  // measure 11
0010
0000
0100
2000
0000
3010
0010
0200
,  // measure 12
0000
0000
0010
0000
0001
0000
0301
0100
,  // measure 13
0001
1000
0010
1000
0001
0100
0001
2000
,  // measure 14
0000
0000
0001
0000
3001
0100
0010
0001
,  // measure 15
0010
0000
0100
0002
0000
1003
0001
0200
,  // measure 16
0001
0000
0010
0000
0000
0001
0001
0000
,  // measure 17
0302
0000
0000
0010
0023
0000
0000
0130
,  // measure 18
0200
0000
1300
0001
0100
0000
0001
0002
,  // measure 19
0000
1000
2003
3002
,  // measure 20
0103
0010
0200
0302
,  // measure 21
0013
0001
1000
0000
0010
0100
0010
0000
,  // measure 22
0100
0001
0010
0000
0001
0010
0100
0010
,  // measure 23
0000
0001
1000
0000
0100
0100
0000
0001
,  // measure 24
0200
2300
3020
0230
,  // measure 25
0302
0000
1003
0000
1000
0100
0010
0000
,  // measure 26
0001
1000
0001
0100
0001
1000
0020
0000
,  // measure 27
2030
0000
0000
0002
0000
0000
3003
0000
,  // measure 28
0100
0000
0000
0010
0010
1000
1000
0001
,  // measure 29
2000
0001
0001
0002
,  // measure 30
3003
0000
0000
0000
;

//---------------dance-single - ----------------
#NOTES:
     dance-single:
     :
     Challenge:
     12:
     0.500,0.580,0.056,0.377,0.477: // measure 1
0000
0000
0000
0000
,  // measure 2
0000
0000
0000
0000
,  // measure 3
0000
0000
0000
0000
,  // measure 4
2200
0000
0000
0000
0000
3300
0022
0000
,  // measure 5
0033
0000
1000
0000
0002
0000
0000
0000
1003
0000
0010
0000
0100
0010
0100
0000
,  // measure 6
1000
0000
0100
0001
0010
0000
0001
0000
0100
0000
0010
1000
0010
0000
0100
0000
,  // measure 7
0010
0000
0001
0010
0010
0000
0100
0000
0100
0000
0010
1000
0100
0001
0100
0000
,  // measure 8
2000
0001
0001
0002
,  // measure 9
3003
0000
1000
0100
0010
0000
0001
0010
0100
0000
0100
1000
0100
0000
0020
0000
,  // measure 10
1000
0000
0100
0000
0001
0000
0100
0000
1030
0000
0010
0100
0001
0100
0001
0000
,  // measure 11
0100
0000
0010
0000
0001
1000
0020
0000
1030
0000
0010
1000
0100
0010
0002
0000
,  // measure 12
1003
0000
0000
0000
0100
0000
1000
0000
0001
0000
1000
0000
0100
0000
0001
0000
0010
0000
0100
0000
0001
0000
0100
0000
1000
0001
0100
1000
0010
0100
0001
0010
,  // measure 13
1000
0000
0000
0000
0001
0000
0100
0010
0001
0000
0000
0000
1000
0000
0100
0000
0000
0000
0100
0000
0010
0000
0000
0000
0100
0000
0000
0000
1000
0000
0100
0000
,  // measure 14
0010
0000
0001
0100
0010
0000
0100
0010
1000
0010
0100
0000
0001
0010
0001
0000
,  // measure 15
1000
0000
0000
0000
0100
0000
1000
0001
0100
0000
0000
0000
0010
0000
0000
0000
0100
0000
0000
0000
0010
0000
1000
0000
0010
0000
0001
0000
1000
0000
0000
0000
,  // measure 16
0100
0000
0000
0000
0010
0000
1000
0100
1000
0000
0000
0000
0100
0000
0000
0000
0001
0000
0000
0000
0100
0000
0000
0000
0010
0000
0100
0000
1000
0000
0000
0000
,  // measure 17
0100
0000
1000
0000
0100
0000
0010
0001
0010
0000
0100
0000
1000
0000
0001
1000
,  // measure 18
0001
0000
0100
0010
0100
0000
0100
1000
0100
0000
0010
0000
1000
0010
2000
0000
,  // measure 19
3001
0000
0100
0001
0100
0000
0002
0000
0000
0000
0103
0000
0010
0000
1000
0000
,  // measure 20
0100
0000
0000
0000
0010
0000
0010
0001
0010
0000
0000
0000
0100
0000
0000
0000
0020
0000
0000
0000
1000
0000
0000
0000
0001
0000
1000
0000
1000
0000
0000
0000
,  // measure 21
1030
0000
0010
0000
0100
0000
0010
0001
0001
0000
0100
0010
0010
0000
1000
0100
,  // measure 22
0100
0000
0100
1000
1000
0000
0001
0001
0001
1000
0100
0000
1000
0100
0010
0000
,  // measure 23
0001
0000
0000
0000
1000
0001
0100
0000
0001
0000
0000
0000
0010
0000
0001
1000
0010
0000
0100
0000
1000
0000
0000
0000
0010
0000
0000
0000
1000
0001
1000
0000
,  // measure 24
2010
0000
0000
0000
0010
0000
0000
0000
3002
0000
0000
0000
0100
0000
0000
0000
2003
0000
0000
0000
0010
0000
0000
0000
3100
0000
0010
0000
0100
0001
0010
0001
,  // measure 25
1000
0000
0000
0000
0010
0000
0000
0000
0100
0000
0000
0000
1000
0001
0100
0000
0020
0000
0000
0000
0031
0010
0100
0000
0002
0000
0000
0000
1003
0001
0100
0000
,  // measure 26
0020
0000
0000
0000
0031
1000
0100
0000
0020
0000
0000
0000
0031
1000
0100
0000
2000
0000
0000
0000
3020
0000
0000
0000
0230
0000
0000
0000
0310
1000
0001
0000
,  // measure 27
0100
0000
0000
0000
0010
0000
0001
0010
0100
0000
0000
0000
2002
0000
0000
0000
0000
0000
3003
0000
0001
0000
0000
0000
1001
0000
0000
0000
0100
0000
0000
0000
,  // measure 28
0100
0000
0001
0000
1000
0000
1000
0100
0020
0000
1030
0100
0020
0000
0031
1000
,  // measure 29
0002
0000
2003
0000
3200
0000
0320
0000
0032
0000
0000
2003
0000
0000
0200
0000
,  // measure 30
3300
0000
0000
0000
;
