#TITLE:I Am Your Girl;
#SUBTITLE:;
#ARTIST:S.E.S.;
#TITLETRANSLIT:;
#SUBTITLETRANSLIT:;
#ARTISTTRANSLIT:;
#GENRE:SORROW K-POP;
#CREDIT:;
#BANNER:I Am Your Girl.png;
#BACKGROUND:I Am Your Girl-bg.png;
#LYRICSPATH:;
#CDTITLE:cdtitle.png;
#MUSIC:I Am Your Girl.mp3;
#METERTYPE:DDR X;
#MENUCOLOR:1,1,0,1;
#OFFSET:-0.090;
#SAMPLESTART:49.574;
#SAMPLELENGTH:12.000;
#SELECTABLE:YES;
#BPMS:0.000=101.814;
#STOPS:;
#BGCHANGES:;

//---------------dance-single - ----------------
#NOTES:
     dance-single:
     :
     Hard:
     12:
     0.550,0.610,0.425,0.464,0.256:
0000
0000
0000
0000
,
0000
0000
0000
0000
,
0000
0000
0000
0000
,
0000
0000
0000
0000
0000
0000
0000
0000
0000
0000
0000
0000
0000
1000
0001
0000
,
1000
0000
0001
0000
0000
0000
0100
0000
0010
0000
0001
0000
0000
1000
0001
0000
,
0010
1000
0000
1000
0010
0001
0110
0000
,
0001
0100
0001
0100
0001
0000
0000
0000
1000
0100
1000
0100
1000
0000
0000
0000
,
1000
0100
0000
0010
0100
1000
0001
0000
0011
0000
1001
0000
1100
0000
0101
0000
,
0110
0000
0000
0000
0010
0000
0000
0000
1000
0000
1000
0000
0100
0001
0100
0000
,
0100
0010
0010
1000
0100
0001
0010
0100
,
0000
0000
0001
0000
1000
0000
0001
0010
0100
0000
0010
0000
0001
0000
0010
0000
,
0100
0100
0001
0100
1000
0010
0001
0010
,
1000
0000
0001
0000
0100
0010
0100
0001
,
0010
0100
0010
1000
0100
0001
0100
1000
,
0010
0000
0010
0000
0100
0000
0002
0000
0000
0000
0103
0000
0001
0000
0000
0001
,
0100
0001
0000
0000
1000
0000
0100
0000
0010
0000
0001
0000
0200
0000
0000
0000
,
0301
0000
0010
0001
1000
0001
0100
0010
,
2000
0000
0000
0001
0001
0000
0001
0000
,
3002
0000
0000
1000
1000
0000
1000
0000
,
2003
3200
0320
0032
,
0023
0230
2300
3002
,
1003
0000
0100
0000
0010
0000
0001
0000
1000
0010
1000
0000
0010
1000
0010
0000
,
1000
0000
0010
0000
0100
0000
1000
0001
0100
0000
0001
0000
1000
0000
0001
0000
,
0100
0000
0010
0000
0001
0000
0010
0000
1000
0001
0100
0000
0010
0000
0001
0000
,
2002
3003
0202
0303
1001
1100
1001
0101
,
0001
0000
0010
0000
0100
0000
1000
0000
0100
0001
0100
0000
0001
0100
0001
0000
,
0200
0000
0320
0000
0031
1000
0010
0100
,
0002
0000
0000
0000
2003
0000
0000
0000
3100
0010
0100
0000
0011
0000
0000
0000
,
2020
3030
2002
3003
2002
3003
0022
0033
,
2002
3000
0103
0001
0010
1100
0011
0000
,
2002
0003
3010
1000
0100
0011
1100
0000
,
1100
0000
0000
0011
0000
0000
1001
0000
1000
0100
0010
0001
0100
0001
0010
0100
,
1000
0000
0000
0101
0000
0000
1100
0000
0000
0010
0100
0001
0010
0100
0001
0100
,
1000
0001
1000
0010
0100
0010
0100
0001
0010
0001
0010
0001
0010
0001
0010
0100
,
0001
1000
0001
1000
0001
0100
0010
0100
0010
1000
0010
1000
0100
0100
0010
0000
,
1001
0000
0100
0000
0010
0000
0001
0000
0010
1000
0010
0000
1000
0001
1000
0000
,
0010
0000
0100
0000
1000
0000
0100
0010
0002
0000
0100
0000
1003
0000
0100
0000
,
0010
0000
1000
0000
0100
0000
0010
0000
0001
1000
0010
0000
1000
0000
0000
0000
,
2002
3003
0220
0330
1010
0110
0101
0110
,
1100
0000
0010
0000
0100
0000
0010
0000
1000
0001
1000
0000
0010
0100
0010
0000
,
0011
0000
0100
0000
0010
0000
0100
1000
0200
0000
0010
0000
0310
0000
0001
0000
,
1001
0000
1000
0000
0001
0000
1000
0000
0100
0010
0100
0000
0011
0000
0000
0000
,
2002
3003
0202
0303
2020
3030
0220
0330
,
2002
0000
3003
0000
;

//---------------dance-single - ----------------
#NOTES:
     dance-single:
     :
     Medium:
     8:
     0.392,0.378,0.145,0.367,0.010:
0000
0000
0000
0000
,
0000
0000
0000
0000
,
0000
0000
0000
0000
,
0000
0000
0000
0000
0000
0000
0000
0001
,
1000
0001
0000
0100
0010
0100
0000
0001
,
1000
0001
0000
0100
0010
0100
0010
0000
,
1000
0001
1001
0000
0001
1000
1001
0000
,
0100
0010
0110
0000
0010
0100
0110
0000
,
1000
0100
1000
0100
0010
0001
0010
0010
,
0110
0000
1000
0100
1000
0100
0010
0002
,
0000
1003
0100
0010
0001
0100
0010
0010
,
1000
0100
0001
0100
1000
1000
0010
2000
,
0000
0000
3002
0203
,
0310
1000
0010
1000
0100
0010
0001
0100
,
0010
0010
0001
0010
0100
1000
0100
0001
,
1000
0001
0000
0100
0100
0010
2000
0000
,
3020
0000
0000
0000
0130
0001
0100
0000
,
0002
0000
1000
1000
,
2003
0000
0001
0001
,
3002
0000
0100
0100
,
0203
0320
0230
0320
,
1030
0001
1000
0001
1000
1000
0001
1000
,
0002
0000
0000
0000
0103
0010
0100
0010
,
2000
0000
0000
0000
3001
1000
0001
0000
,
0002
0000
0203
0000
0310
1000
0010
1000
,
0001
0100
0001
0100
1000
0100
0010
1000
,
0002
0000
0100
0000
1003
0010
0100
0010
,
1000
0000
0010
0000
1000
0010
1000
0000
,
2000
3200
0320
0032
,
2003
0000
0001
0000
3001
1001
1001
0000
,
0002
0000
1000
0000
1003
1001
1001
0000
,
1001
0000
0000
1001
0000
0000
0101
0000
0000
0000
1000
0000
0010
0000
1000
0000
,
0010
0000
0000
0110
0000
0000
0011
0000
0000
0000
0100
0000
0001
0000
1000
0000
,
0100
0100
0010
0010
0001
0001
1000
0100
,
0001
0100
1000
0010
0001
0010
1000
0010
,
1000
0001
1000
0001
1000
0100
0010
0001
,
2000
0000
0001
0000
3001
0100
0001
0100
,
0002
0000
0013
0100
0010
0100
0020
0000
,
2030
0000
3200
0000
0310
0100
0010
0100
,
0001
0010
0100
1000
0100
0001
0100
1000
,
0020
0000
0032
0000
1003
0010
0100
0001
,
2000
0000
3001
0100
0001
1000
0100
0000
,
2000
0000
3200
0000
0320
0000
0032
0003
,
2002
0000
3003
0000
;

//---------------dance-single - ----------------
#NOTES:
     dance-single:
     :
     Easy:
     5:
     0.235,0.273,0.048,0.242,0.000: // measure 1
0000
0000
0000
0000
,  // measure 2
0000
0000
0000
0000
,  // measure 3
0000
0000
0000
0000
,  // measure 4
0000
0000
0000
0000
,  // measure 5
1000
0010
0000
0000
0001
0100
0000
0000
,  // measure 6
1000
0001
0000
0000
0001
1000
0000
0000
,  // measure 7
0001
1001
1000
1001
,  // measure 8
0010
0110
0100
0110
,  // measure 9
0001
1000
0010
0010
,  // measure 10
1000
0001
1000
0001
,  // measure 11
1000
0100
0010
0001
,  // measure 12
1000
1000
0010
0010
,  // measure 13
0100
0100
0001
0001
,  // measure 14
1000
0001
1000
0100
,  // measure 15
0010
0100
0010
0001
,  // measure 16
1000
0000
0001
1000
,  // measure 17
0002
0000
1003
1000
,  // measure 18
2000
0000
0001
0000
,  // measure 19
3002
0000
1000
0000
,  // measure 20
2003
0000
0001
0000
,  // measure 21
3002
0000
2003
0000
,  // measure 22
3001
0010
0100
1000
,  // measure 23
0200
0000
0010
0000
,  // measure 24
0310
0001
0010
0100
,  // measure 25
1000
0100
0010
0001
,  // measure 26
1000
0001
1000
0001
,  // measure 27
0200
0000
0010
0010
,  // measure 28
0320
0000
2030
0000
,  // measure 29
3002
2003
3200
0320
,  // measure 30
0032
0000
1000
1003
,  // measure 31
2000
0000
0001
0001
,  // measure 32
3001
0000
0100
0000
0010
0001
0010
0000
,  // measure 33
1000
0000
1000
0000
0100
1000
0100
0000
,  // measure 34
0002
0000
1003
0000
0001
1000
0001
0000
,  // measure 35
2000
0000
3001
0000
1000
0001
1000
0000
,  // measure 36
0010
0100
1000
1000
,  // measure 37
0002
0000
1003
0100
,  // measure 38
0010
0000
0001
0000
1000
0001
1000
0000
,  // measure 39
0002
0000
2003
0000
,  // measure 40
3010
0100
0010
0001
,  // measure 41
0020
0000
1030
0100
,  // measure 42
0010
0000
0001
0000
1000
0001
1000
0000
,  // measure 43
0002
0000
1003
0000
,  // measure 44
2002
0000
3003
0000
;

//---------------dance-single - ----------------
#NOTES:
     dance-single:
     :
     Beginner:
     3:
     0.134,0.189,0.000,0.087,0.000: // measure 1
0000
0000
0000
0000
,  // measure 2
0000
0000
0000
0000
,  // measure 3
0000
0000
0000
0000
,  // measure 4
0000
0000
0000
0000
,  // measure 5
1000
0000
1000
0000
,  // measure 6
1000
0000
0001
0000
,  // measure 7
0001
0000
0001
0000
,  // measure 8
0100
0000
0100
0000
,  // measure 9
0100
0000
0000
0000
,  // measure 10
1000
0000
0000
0000
,  // measure 11
0001
0000
0000
0000
,  // measure 12
0010
0000
0010
0000
,  // measure 13
0010
0000
0000
0000
,  // measure 14
1000
0000
1000
0000
,  // measure 15
1000
0000
0001
0000
,  // measure 16
0001
0000
1000
0000
,  // measure 17
2000
0000
0000
0000
,  // measure 18
3002
0000
0000
0000
,  // measure 19
2003
0000
0000
0000
,  // measure 20
3002
0000
0000
0000
,  // measure 21
2003
0000
3000
0000
,  // measure 22
0010
0010
0010
0000
,  // measure 23
1000
1000
1000
0000
,  // measure 24
0001
0000
0001
0000
,  // measure 25
1000
1000
1000
1000
,  // measure 26
1000
1000
1000
0000
,  // measure 27
0010
0010
0010
0000
,  // measure 28
0001
0001
0001
0000
,  // measure 29
2000
0000
0000
0000
,  // measure 30
3001
0000
0001
0001
,  // measure 31
0002
0000
1003
1000
,  // measure 32
1000
0100
0010
0001
,  // measure 33
1000
0100
0010
0001
,  // measure 34
1000
1000
0001
1000
,  // measure 35
0002
0000
0000
0000
,  // measure 36
1003
1000
0010
0010
,  // measure 37
0100
0000
0010
0010
,  // measure 38
1000
0000
0000
0000
,  // measure 39
0001
0001
0001
0001
,  // measure 40
0001
0001
0001
0000
,  // measure 41
1000
1000
1000
0000
,  // measure 42
0010
0000
0100
0000
,  // measure 43
0010
0000
0000
0000
,  // measure 44
0002
0000
0003
0000
;
