#TITLE:Gone Astray;
#SUBTITLE:;
#ARTIST:makou;
#TITLETRANSLIT:;
#SUBTITLETRANSLIT:;
#ARTISTTRANSLIT:;
#GENRE:PROGRESSIVE HOUSE;
#CREDIT:;
#BANNER:Gone Astray.png;
#BACKGROUND:Gone Astray-bg.png;
#LYRICSPATH:;
#CDTITLE:cdtitle.png;
#MUSIC:Gone Astray.mp3;
#METERTYPE:DDR X;
#MENUCOLOR:0.875,0.25,1,1;
#OFFSET:-0.193;
#SAMPLESTART:32.361;
#SAMPLELENGTH:12.000;
#SELECTABLE:YES;
#BPMS:0.000=140.000;
#STOPS:;
#BGCHANGES:;

//---------------dance-single - ----------------
#NOTES:
     dance-single:
     :
     Hard:
     13:
     0.669,0.757,0.059,0.406,0.559:
0000
0000
0000
0000
,
0000
0000
0000
0000
,
1001
0000
1000
0000
0100
0000
0010
0000
0001
0000
0100
0000
0010
1000
0001
0000
,
0001
0010
0100
1000
0100
0010
0001
0000
,
1000
0000
0001
0000
1000
0001
0000
0001
1000
0000
0001
1000
0000
1000
0002
0000
,
0100
0000
0100
0000
0100
0000
0103
0100
,
0001
0000
0100
0000
0010
1000
0000
0001
0100
0000
0010
1000
0000
0001
0100
0000
,
0001
0010
0100
1000
0100
0010
0001
0000
,
1000
0010
1000
0010
1000
0010
1000
0000
,
0002
0000
0100
0000
1000
0000
0013
0010
,
0001
1000
0100
0000
1000
0001
0100
0000
0001
1000
0100
0000
0001
1000
0001
0000
,
0002
1000
0010
0103
,
1000
0001
0100
0000
0010
1000
0001
0000
1000
0010
1000
0100
0020
0000
0000
0000
,
0031
0010
0100
1000
0100
0010
0001
0001
,
1000
0100
0010
0001
1000
0010
0001
0010
,
2000
0000
0001
0000
0001
0000
0001
3000
,
0001
1000
0010
0000
1000
0001
0100
0000
0010
1000
0001
0010
0200
0000
0000
0000
,
1300
0100
0010
0001
0100
0010
0110
0010
,
0002
0000
0000
2000
0000
0000
3003
0000
,
1001
1000
0100
0010
0001
0010
0100
0000
,
0010
0001
0010
0100
1000
0100
0010
0000
,
0000
0100
1000
0000
0100
1000
0000
0100
1000
0000
0100
1000
0000
0100
1000
0000
,
0010
0100
0010
0000
0100
0001
0000
0100
0010
0000
0001
0010
0000
0100
0010
0000
,
0020
0000
0000
0031
1000
0000
0100
0000
0010
0000
1000
0000
0100
0000
0000
0000
,
1000
0100
0010
0000
0010
0001
0010
0000
,
0100
1000
0100
0010
0001
1000
0010
0000
,
1000
0010
0100
1000
0100
0010
1000
1000
,
0002
0000
0000
0103
1000
0000
0100
0000
0010
0000
1000
0000
0001
0000
0010
0000
,
0200
0010
0001
1000
,
1300
1000
0100
0010
0001
1000
0001
0000
,
0001
0010
0100
0000
1000
0100
0010
0000
,
0002
0000
0000
1003
0100
0000
1000
0000
0100
0000
0010
0000
0001
0000
1000
0000
,
0100
0000
1000
0001
0010
0000
0000
0000
0001
0000
0010
0001
1000
0000
0000
0000
,
2000
0000
0000
3001
0010
0000
0001
0000
0100
0000
0010
0000
0100
0000
0000
0000
,
0001
0100
1000
0100
0100
0010
0010
0000
,
0100
0000
0001
0000
0010
0000
0001
0000
0100
0000
0010
1000
0001
0000
1000
0000
,
0000
0000
0000
0010
0000
0010
0000
0100
0000
0100
0000
0001
0000
0001
1000
0000
,
0010
1000
0000
0000
0001
0100
0001
0000
0000
0000
0000
0000
1000
0000
0100
0000
,
0010
0001
1000
0000
0100
1000
0010
0000
1000
0010
0100
0000
0010
1000
0100
0010
,
0002
1000
0010
0100
,
2003
3200
0320
0032
,
2003
0000
0001
0002
0000
0000
3003
0000
,
1000
0001
1000
0000
0001
1000
0000
0001
1000
0000
0100
0010
0000
0010
0100
0000
,
0001
0100
0010
0000
1000
0100
0010
0000
0100
1000
0010
0000
1000
0100
1000
0000
,
1000
0001
0100
0000
0010
1000
0001
0000
0100
0001
1000
0000
0100
0010
0001
0000
,
1000
0010
0100
0000
0010
1000
0001
0000
1000
0010
0100
0000
0010
1000
0001
0000
,
1000
0001
0100
0001
0010
0100
1000
0001
0010
0100
0010
0001
0010
0001
0010
0001
,
0020
0000
0000
1030
0000
0000
0010
0000
0000
0010
0001
0000
1000
0100
1000
0100
,
2000
0000
0000
3001
0000
0000
0010
0000
0000
0001
1000
0000
0100
0010
0100
0010
,
0200
0000
0000
0310
0000
0000
0110
0000
0010
0000
1000
0000
0010
0100
0010
0100
,
0020
0000
0000
0130
0000
0000
1000
0000
0100
1000
0100
0000
0100
0001
0100
0001
,
0200
0000
0000
0301
0000
0000
0100
0000
1000
0001
1000
0000
0010
1000
0010
1000
,
0020
0000
0000
1030
0000
0000
0000
0000
0100
0010
0100
0000
1000
0100
0010
0100
,
2000
0000
0000
3010
0000
0000
0110
0000
0000
0001
1000
0000
0001
0010
0100
0010
,
0002
0000
0103
1000
0100
0001
1000
0100
,
0020
0000
0000
0000
1000
0000
0000
0000
0100
0000
0000
0000
1030
0010
0100
1000
,
0020
0000
0000
0100
0000
0000
0031
0000
2000
0000
0000
3200
0000
0000
0320
0000
,
0032
0000
0000
2003
0000
0000
3020
0000
0000
0000
0000
0000
0000
0000
0000
0000
,
1030
0000
0000
0000
0100
0000
0010
0000
1000
0000
0001
0000
0001
0100
0001
0100
,
2000
0000
0000
3002
0000
0000
0023
0000
0000
0230
0000
0000
2300
0000
0000
0000
,
3002
0000
0000
0203
0000
0000
0320
0000
0000
2030
0000
0000
3002
0000
0000
0013
,
0100
0010
0000
0001
1000
0000
0010
0100
0000
0001
0010
0000
0010
0100
0000
0100
,
1000
0001
0000
0100
0010
0000
0002
0010
0000
0010
0003
1000
0100
0010
1000
0001
,
0020
0000
0000
0000
,
0000
0000
0000
0000
,
0000
0000
0000
0000
0000
0000
0000
0000
0031
1000
0001
0000
1000
0100
0001
0100
,
0110
0000
0001
1100
0000
0000
0000
0000
0000
0000
0000
0000
0000
0000
0000
0000
;

//---------------dance-single - ----------------
#NOTES:
     dance-single:
     :
     Medium:
     10:
     0.552,0.589,0.144,0.449,0.224:
0000
0000
0000
0000
,
0000
0000
0000
0000
,
1001
0001
0010
0100
1000
0010
0100
0000
,
1000
0100
0010
0000
0010
0100
1000
0000
,
0001
0000
1000
0000
0000
0010
0000
0000
0001
0000
0000
0010
0000
0000
1000
0000
,
0020
0000
0032
0000
2003
0000
3100
0010
,
0001
0000
0010
0000
0000
0001
0000
0000
0010
0000
0000
1000
0000
0000
0010
0000
,
1000
0100
0010
0001
0010
0100
1000
0000
,
0001
0100
0001
0000
1000
0100
1000
0000
,
2000
0000
0010
0000
0001
0000
3100
0100
,
1000
0100
1000
0100
0010
0001
0010
0001
,
2000
0001
0100
3010
,
0001
0010
0100
1000
0001
0001
0200
0000
,
1300
0100
0010
0001
0010
0100
1000
1000
,
0100
0010
0100
1000
0100
0001
1000
0100
,
0002
0203
2300
3002
,
0103
0010
0001
0010
0100
1000
0200
0000
,
1300
0001
1000
0010
0100
0100
0100
0001
,
2000
0000
0000
0002
0000
0000
3003
0000
,
1001
0001
0010
0100
1000
0100
0010
0000
,
0100
1000
0100
0000
0001
0010
0100
0000
,
0000
0010
0000
0000
0010
0000
0000
0010
0000
0000
0010
0000
0000
0010
0000
0000
,
0100
0000
0100
0000
0000
1000
0000
0000
0100
0000
0000
0100
0000
0000
0100
0000
,
0200
0000
0000
1300
0000
0000
0010
0000
0100
0000
0001
0000
0010
0000
0000
0000
,
0001
0010
0100
0000
0100
1000
0100
0000
,
0010
0001
0010
0100
1000
0001
0100
0000
,
0001
0100
0010
0001
0010
0100
0001
0001
,
2000
0000
0000
3010
0000
0000
0010
0000
0100
0000
0001
0000
1000
0000
0100
0000
,
0020
0100
1000
0001
,
0031
0001
0010
0100
1000
0001
1000
0000
,
1000
0100
0010
0000
0001
0010
0100
0000
,
2000
0000
0000
3001
0000
0000
0001
0000
0010
0000
0100
0000
1000
0000
0001
0000
,
0010
0001
0100
0000
1000
0100
0001
0000
,
0002
0000
0000
1003
0000
0000
1000
0000
0010
0000
0100
0000
0010
0000
0000
0000
,
1000
0010
0001
0010
0010
0100
0100
0000
,
0010
0000
1000
0000
0100
0000
1000
0000
0010
0000
0100
0001
1000
0000
0001
0000
,
0000
0000
0000
0100
0000
0100
0000
0010
0000
0010
0000
1000
0000
1000
0000
0000
,
0100
0000
1000
1000
0000
0000
0001
0010
,
0100
1000
0010
0100
0001
0010
0100
0010
,
2000
3001
0100
1000
,
0002
0023
0230
2300
,
3002
0000
0000
2000
0000
0000
3003
0000
,
0001
0000
0001
0000
0000
0001
0000
0000
0001
0000
0000
0100
0000
0000
0010
0000
,
1000
0000
0100
0000
0001
0010
0100
0000
0010
0000
0100
0000
0001
0010
0001
0000
,
0001
0000
0010
0000
0100
0001
1000
0000
0010
0000
0001
0000
0010
0100
1000
0000
,
0001
0000
0010
0000
0100
0001
1000
0000
0001
0000
0010
0000
0100
0001
1000
0000
,
0001
1000
0010
0000
0100
0000
0001
0000
0100
0000
0100
0000
0100
0000
0100
0000
,
0200
0000
0000
0301
0000
0000
0100
0000
0000
0100
0000
0000
0001
0000
1001
0000
,
0002
0000
0000
1003
0000
0000
0100
0000
0000
1000
0000
0000
0010
0000
0110
0000
,
0020
0000
0000
0130
0000
0000
0110
0000
0000
0000
0001
0000
0100
0000
0110
0000
,
0200
0000
0000
0310
0000
0000
0001
0000
0000
0001
0000
0000
0010
0000
1010
0000
,
0020
0000
0000
1030
0000
0000
0010
0000
1000
0000
1000
0000
0100
0000
0101
0000
,
0200
0000
0000
0301
0000
0000
0000
0000
0000
0100
0000
0000
0001
0000
1100
0000
,
2000
0000
0000
3100
0000
0000
0110
0000
0000
1000
0000
0000
1000
0000
1010
0000
,
2000
0000
3010
0001
0010
1000
0001
0010
,
0200
0000
0001
0000
0010
0000
0301
0011
,
0200
0000
0000
0010
0000
0000
1300
0000
0002
0000
0000
0023
0000
0000
0230
0000
,
2300
0000
0000
3002
0000
0000
0203
0000
0000
0000
0000
0000
0000
0000
0000
0000
,
0301
0000
0010
0100
0001
1000
1000
1010
,
0002
0000
0000
2003
0000
0000
3200
0000
0000
0320
0000
0000
0032
0000
0000
0000
,
2003
0000
0000
3020
0000
0000
0230
0000
0000
0302
0000
0000
2003
0000
0000
3000
,
0010
0000
0000
0001
0000
0000
0100
0000
0000
1000
0000
0000
0100
0000
0000
0000
,
0010
0000
0000
0001
0000
0000
2000
0000
0000
3100
0000
0000
0010
0000
1001
0000
,
0200
0000
0000
0000
,
0000
0000
0000
0000
,
0000
0000
0000
0000
1300
1001
0001
0100
,
0110
0000
0000
1001
0000
0000
0000
0000
0000
0000
0000
0000
0000
0000
0000
0000
;

//---------------dance-single - ----------------
#NOTES:
     dance-single:
     :
     Easy:
     7:
     0.409,0.448,0.034,0.483,0.161: // measure 1
0000
0000
0000
0000
,  // measure 2
0000
0000
0000
0000
,  // measure 3
1100
0100
0100
0010
,  // measure 4
0010
0001
0001
0001
,  // measure 5
1000
0000
1000
0000
0000
0010
0000
0000
0001
0000
0000
0010
0000
0000
1000
0000
,  // measure 6
0020
0000
0032
0000
2003
0000
3100
0010
,  // measure 7
0100
0000
0001
0000
0000
0100
0000
0000
1000
0000
0000
0100
0000
0000
0010
0000
,  // measure 8
1000
0010
0010
1000
,  // measure 9
0001
0100
0001
0000
1000
0100
1000
0000
,  // measure 10
2000
0000
0010
0000
0001
0000
3100
0100
,  // measure 11
1000
1000
0001
0001
,  // measure 12
2000
0001
0100
3010
,  // measure 13
0001
0000
0100
0000
0001
0002
0000
0000
,  // measure 14
1003
0010
0010
1000
,  // measure 15
0100
0000
0100
0000
0100
0000
1000
0100
,  // measure 16
0002
0203
2300
3002
,  // measure 17
0103
0000
0001
0000
0100
0200
0000
0000
,  // measure 18
1300
0000
1000
0000
1000
0001
1000
0000
,  // measure 19
2000
0000
0000
0002
0000
0000
3003
0000
,  // measure 20
1001
0010
1000
0010
,  // measure 21
0100
0000
0100
0000
0001
0010
0100
0000
,  // measure 22
0000
0010
0000
0000
0010
0000
0000
0010
0000
0000
0010
0000
0000
0010
0000
0000
,  // measure 23
0000
0000
0100
0000
0000
0100
0000
0000
0100
0000
0000
0100
0000
0000
0100
0000
,  // measure 24
2000
0000
0000
0000
3001
1000
0010
0000
,  // measure 25
0001
0100
0100
0100
,  // measure 26
0010
0010
1000
0001
,  // measure 27
0002
1000
1000
1000
,  // measure 28
2003
0000
0000
0000
3100
0000
1000
0100
,  // measure 29
0020
0000
0001
0000
,  // measure 30
1000
0000
0001
0000
,  // measure 31
0001
0001
1000
1000
,  // measure 32
2030
0000
3010
1000
,  // measure 33
0010
0001
0100
0000
1000
0100
0001
0000
,  // measure 34
0002
0000
0000
0000
0013
0100
0010
0000
,  // measure 35
1000
0001
0010
0100
,  // measure 36
0010
0000
0100
0000
0000
0100
1000
0001
,  // measure 37
0000
0000
0000
0100
0000
0100
0000
0010
0000
0010
0000
1000
0000
1000
0000
0000
,  // measure 38
0100
0000
1000
1000
0000
0000
0002
0000
,  // measure 39
0203
0320
0032
0023
,  // measure 40
2030
3001
0100
1000
,  // measure 41
2000
3200
0320
0032
,  // measure 42
2000
0000
0000
3003
,  // measure 43
0000
0000
0001
0000
0000
0001
0000
0000
0001
0000
0000
0100
0000
0000
0010
0000
,  // measure 44
1000
0000
0001
0100
0010
0000
0001
0001
,  // measure 45
0001
0000
0010
1000
0100
0000
0010
1000
,  // measure 46
0001
0000
0100
1000
0001
0000
0001
1000
,  // measure 47
0100
0000
0100
0001
0100
0000
0100
0100
,  // measure 48
0200
0000
0000
1300
0000
0000
0000
0000
0000
0000
0000
0000
0001
0000
1000
0000
,  // measure 49
0002
0000
0000
1003
0000
0000
0000
0000
0000
0000
0000
0000
0010
0000
0100
0000
,  // measure 50
0020
0000
0000
0130
0000
0000
0010
0000
0000
0000
0000
0000
0100
0000
0010
0000
,  // measure 51
0200
0000
0000
0310
0000
0000
0001
0000
0000
0001
0000
0000
0010
0000
1000
0000
,  // measure 52
0020
0000
0000
1030
0000
0000
0000
0000
0000
0000
0000
0000
0100
0000
0001
0000
,  // measure 53
0200
0000
0000
0301
0000
0000
0000
0000
0000
0000
0000
0000
0001
0000
0100
0000
,  // measure 54
2000
0000
0000
3100
0000
0000
0010
0000
0000
1000
0000
0000
1000
0000
0010
0000
,  // measure 55
2000
0000
3010
0000
0010
0000
0001
0010
,  // measure 56
0200
0001
0010
0310
,  // measure 57
0200
0000
0000
0310
0000
0000
0000
0000
0002
0000
0000
0023
0000
0000
0230
0000
,  // measure 58
2300
0000
0000
3002
0000
0000
0203
0000
0000
0000
0000
0000
0000
0000
0000
0000
,  // measure 59
0301
0010
0001
1000
,  // measure 60
0002
0000
0000
2003
0000
0000
3200
0000
0000
0320
0000
0000
0032
0000
0000
0000
,  // measure 61
2003
0000
0000
3020
0000
0000
0230
0000
0000
0302
0000
0000
2003
0000
0000
3000
,  // measure 62
0010
0000
0000
0001
0000
0000
0100
0000
0000
1000
0000
0000
0100
0000
0000
0000
,  // measure 63
0010
0000
0000
1000
0000
0000
1000
0000
0000
0100
0000
0000
0010
0000
0001
0000
,  // measure 64
0200
0000
0000
0000
,  // measure 65
0000
0000
0000
0000
,  // measure 66
0000
0000
1300
1000
,  // measure 67
0110
0000
0000
1001
0000
0000
0000
0000
0000
0000
0000
0000
0000
0000
0000
0000
;

//---------------dance-single - ----------------
#NOTES:
     dance-single:
     :
     Beginner:
     2:
     0.137,0.168,0.085,0.135,0.000: // measure 1
0000
0000
0000
0000
,  // measure 2
0000
0000
0000
0000
,  // measure 3
1000
0000
1000
0000
,  // measure 4
0001
0000
0001
0000
,  // measure 5
0100
0000
0100
0000
,  // measure 6
0010
0000
0010
0000
,  // measure 7
1000
0000
1000
0000
,  // measure 8
0001
0000
0001
0000
,  // measure 9
0001
0000
1000
0000
,  // measure 10
1000
0000
0100
0000
,  // measure 11
0010
0000
0010
0000
,  // measure 12
0001
0000
0001
0000
,  // measure 13
1000
0000
1000
0000
,  // measure 14
0001
0000
0100
0000
,  // measure 15
0010
0000
0010
0000
,  // measure 16
1000
0000
0001
0000
,  // measure 17
1000
0000
0001
0000
,  // measure 18
1000
0000
0001
0000
,  // measure 19
2002
0000
0000
0000
,  // measure 20
3003
0000
0000
0000
,  // measure 21
1000
0000
0001
0000
,  // measure 22
0002
0000
0000
0000
,  // measure 23
2003
0000
0000
0000
,  // measure 24
3000
0000
0001
0000
,  // measure 25
0001
0000
1000
0000
,  // measure 26
1000
0000
0010
0000
,  // measure 27
0001
0000
1000
0000
,  // measure 28
0001
0000
1000
0000
,  // measure 29
0002
0000
0000
0000
,  // measure 30
0000
0000
0000
0000
,  // measure 31
0000
0000
0000
0000
,  // measure 32
1003
0000
1000
0000
,  // measure 33
1000
0000
0010
0000
,  // measure 34
0010
0000
0100
0000
,  // measure 35
0100
0000
0001
0000
,  // measure 36
0010
0000
0000
0000
,  // measure 37
0100
0000
0000
0000
,  // measure 38
0010
0000
0000
0000
,  // measure 39
2000
0000
0000
0000
,  // measure 40
3002
0000
0000
0000
,  // measure 41
0000
0000
0000
0000
,  // measure 42
2003
0000
0000
0000
,  // measure 43
3020
0000
0000
0000
,  // measure 44
0130
0000
0100
0000
,  // measure 45
0001
0000
0001
0000
,  // measure 46
1000
0000
1000
0000
,  // measure 47
0001
0000
0001
0000
,  // measure 48
1001
0000
0000
0000
,  // measure 49
0110
0000
0000
0000
,  // measure 50
1001
0000
0000
0000
,  // measure 51
1001
0000
0000
0000
,  // measure 52
0110
0000
0000
0000
,  // measure 53
1001
0000
0000
0000
,  // measure 54
1001
0000
0000
0000
,  // measure 55
0110
0000
0000
0000
,  // measure 56
2000
0000
0000
0000
,  // measure 57
0000
0000
0000
0000
,  // measure 58
3002
0000
0000
0000
,  // measure 59
1003
0000
0000
0000
,  // measure 60
0020
0000
0000
0000
,  // measure 61
0230
0000
0000
0000
,  // measure 62
0320
0000
0000
0000
,  // measure 63
0230
0000
0000
0000
,  // measure 64
0020
0000
0000
0000
,  // measure 65
0000
0000
0000
0000
,  // measure 66
0000
0000
0330
0000
,  // measure 67
1001
0000
0000
0000
;
