#TITLE:Girlish Lover;
#SUBTITLE:俺の彼女と幼なじみが修羅場すぎる OP;
#ARTIST:自らを演出する乙女の会;
#TITLETRANSLIT:Girlish Lover;
#SUBTITLETRANSLIT:Ore to Kanojo to Osananajimi ga Shuraba Sugiru OP;
#ARTISTTRANSLIT:Mizukara wo Enshutsu Suru Otome no Kai;
#CREDIT:;
#GENRE:GIRLISH POP;
#BANNER:Girlish Lover.png;
#BACKGROUND:Girlish Lover-bg.png;
#LYRICSPATH:;
#CDTITLE:cdtitle.png;
#MUSIC:Girlish Lover.mp3;
#METERTYPE:DDR X;
#MENUCOLOR:0,0,1,1;
#OFFSET:0.318;
#SAMPLESTART:59.531;
#SAMPLELENGTH:12.000;
#SELECTABLE:YES;
#BPMS:0.000=165.020;
#STOPS:;
#BGCHANGES:;

//---------------dance-single - ----------------
#NOTES:
     dance-single:
     :
     Hard:
     11:
     0.566,0.677,0.465,0.264,0.063:
0000
0000
0000
0000
,
0000
0000
0000
0000
,
0000
0000
0000
0000
,
1000
0000
0000
0000
0100
0000
0010
0000
0001
0000
0000
0001
0100
0000
0001
0000
,
0000
0000
1000
0000
0100
0000
0010
0000
0001
0000
0000
0010
0100
0000
0000
0000
,
0102
0000
0103
0000
2010
0010
3010
0000
,
0100
0000
0010
0100
0010
0000
0100
0000
,
1002
0000
0103
0000
0010
1000
0010
0000
,
0100
0010
0100
0000
0010
1000
0100
0000
,
1000
0100
0001
0100
0010
0001
0100
0010
,
0000
0000
0000
0000
1000
0000
0000
0001
0010
0000
0000
0100
0010
0000
0000
0000
,
0110
0000
0100
0010
1000
0000
0100
0000
,
0010
0000
0001
0100
0000
0100
0010
0001
,
1000
0000
0100
0010
0000
0100
2000
0000
,
3100
0000
0010
0000
1001
1001
1001
0000
,
0100
0000
0010
0100
0000
0100
0000
0010
,
0000
0001
1000
0100
,
0010
0000
0000
0000
0001
0000
1000
0000
0000
0000
1000
0001
0000
0000
0001
0000
,
0000
0000
0001
1000
0000
0000
1000
0000
0000
0000
1000
0000
0010
0000
0100
0000
,
0000
0200
0010
0010
,
0310
0000
0001
0100
0000
0000
1000
0001
,
0010
0000
0100
0000
0010
0000
0100
1000
,
0000
1000
1000
0100
0100
0010
0010
0000
,
0001
0000
0100
0100
0000
0001
0000
1000
,
0100
0010
0100
0100
,
1000
0000
0000
0000
0001
0000
1000
0000
0000
0000
0010
0100
0000
0000
0100
0000
,
0000
0000
0100
0010
0000
0000
0010
0000
0100
0000
0010
0000
0100
0000
1000
0000
,
0000
0000
0100
0000
0001
0010
1000
0000
,
0100
0000
0010
0100
0000
0000
0001
0000
,
0020
0000
0100
0000
1000
0000
0130
0010
,
0010
0100
1000
1010
0010
1000
0100
0000
,
2010
0000
0010
0000
0001
0000
0000
0001
,
0000
0001
0000
0001
0001
0000
0000
3001
,
1000
0000
0000
1000
0100
0000
0010
0001
,
0000
1000
0000
0001
1000
1000
0001
0000
,
1002
0000
1000
0000
1000
0000
0000
0100
,
0000
0100
0000
0100
0100
0000
1000
0000
,
1003
0000
0100
0010
0100
0000
0100
0010
,
1000
0000
0100
0010
0100
0000
0010
0000
,
0002
1000
0100
0100
,
2003
0010
0001
0001
,
3001
0000
1000
0000
0001
1000
0001
0000
,
1002
0000
0103
0010
1000
0000
1100
0100
,
0000
0100
0001
0000
0100
0000
0010
0000
0001
0000
0000
0000
0101
0000
0000
0000
,
1010
0110
0011
0101
,
1020
0000
0130
0010
0110
0000
1000
0000
,
2001
3100
0120
0130
,
0210
0010
0301
0000
1002
1000
0013
0000
,
1000
0010
0100
0001
1000
0010
1000
1010
,
0000
0000
1100
0110
0011
0101
0110
0000
,
1100
0000
0000
1000
0010
0000
0100
0000
0010
0000
0000
0000
1100
0000
0100
0000
,
0000
0010
0100
0000
0001
0000
0010
0000
0100
0000
0000
0000
0011
0000
0000
0000
,
2100
3010
0012
0103
,
2100
0100
3100
1000
1010
0000
0100
0000
,
0210
0301
0102
1003
,
2100
0100
3001
0000
0012
0010
1003
0000
,
1100
1000
0100
0010
0001
0100
0010
0110
,
0000
0000
0000
0000
1000
0000
0100
0000
0010
1000
0001
0000
1000
0000
0010
0000
,
1010
0000
0100
0010
0100
1000
0100
0010
,
0001
0100
1000
0100
0010
0100
0001
0000
,
2002
0000
0000
0000
,
3003
0000
0000
0000
;

//---------------dance-single - ----------------
#NOTES:
     dance-single:
     :
     Challenge:
     13:
     0.741,0.806,0.772,0.359,0.180: // measure 1
0000
0000
0000
0000
,  // measure 2
0000
0000
0000
0000
,  // measure 3
0000
0000
0000
0000
,  // measure 4
0001
0000
0000
0000
0010
0000
0100
0000
1000
0000
0010
1000
0010
0000
1000
0000
,  // measure 5
0000
0000
0001
0000
0010
0000
0100
0000
1000
0000
0010
0100
0010
0000
0000
0000
,  // measure 6
2010
0010
3010
0000
0102
0100
0103
1000
,  // measure 7
0020
0000
0130
0010
0100
0110
0110
0000
,  // measure 8
2001
0001
3010
0000
0210
0001
0301
0000
,  // measure 9
0120
0001
0031
0000
0102
0100
0013
0000
,  // measure 10
1001
0010
1010
0010
0100
0101
0110
0110
,  // measure 11
0000
0000
0000
0000
0002
0000
0000
1003
0100
0000
0001
0010
0100
0000
1000
0010
,  // measure 12
0200
0000
0310
0100
0001
0000
0010
0001
,  // measure 13
0100
0010
1000
0010
0000
0010
1000
0001
,  // measure 14
0002
0000
0013
0200
0000
0310
0002
0000
,  // measure 15
0013
0010
0100
0100
1001
1001
1001
0000
,  // measure 16
0010
0000
0001
1000
0100
0000
0010
0000
0000
1000
0010
0000
0000
0002
0100
0000
,  // measure 17
0000
0000
1003
0000
0001
0001
0010
0000
,  // measure 18
0100
0001
0000
0001
1000
0000
0001
0000
0000
0000
0001
1000
0000
0000
1000
0000
,  // measure 19
0001
0000
1000
0001
0000
0000
0001
0000
0000
0000
0001
0000
0100
0000
0010
0000
,  // measure 20
0010
0000
0020
0000
0100
0100
0100
0000
,  // measure 21
0130
0000
1000
0010
0000
0000
0001
1000
,  // measure 22
0100
0000
0010
0000
0100
0000
0010
0011
,  // measure 23
0000
0001
0011
0110
0010
0110
0100
0000
,  // measure 24
1001
0000
0000
1000
0010
0000
0010
0000
0000
0010
1000
0000
0000
0000
0001
0000
,  // measure 25
0010
0000
0100
0000
0010
0001
0010
0100
,  // measure 26
0001
0000
0100
0000
1000
0000
0001
0000
0000
0000
0100
0010
0000
0000
0010
0000
,  // measure 27
1000
0000
0010
0100
0000
0000
0100
0000
0010
0000
0100
0000
0010
0000
1000
0001
,  // measure 28
0100
0000
0011
0000
1001
0100
0001
0000
,  // measure 29
0002
0000
0103
0020
0000
0000
1030
0000
,  // measure 30
1200
0000
0010
0000
0001
0000
0310
0100
,  // measure 31
0110
0010
0001
0101
0100
0001
0010
0000
,  // measure 32
0102
0000
0100
1000
1000
0000
0000
1000
,  // measure 33
0000
1000
0000
1000
1000
0000
1000
1003
,  // measure 34
0001
0000
0000
0011
0010
0000
0100
1100
,  // measure 35
0000
0101
0000
1000
1001
1000
1000
0000
,  // measure 36
2001
0000
0001
0001
0001
0000
0000
0010
,  // measure 37
0000
0010
0000
0010
0010
0000
0001
0000
,  // measure 38
3001
0000
0010
0100
0010
0001
0010
0100
,  // measure 39
0001
1000
0010
0100
0010
1000
0100
0010
,  // measure 40
2001
0001
0001
0010
0010
0010
0001
0001
,  // measure 41
3002
0100
0100
1000
1000
1000
0100
0100
,  // measure 42
0103
0000
0000
0000
0001
0000
0000
0000
1000
0000
0001
0000
1000
0000
0001
0100
,  // measure 43
2000
0000
3100
0010
0100
0000
0011
0001
,  // measure 44
1000
0010
1000
0000
0010
0000
0100
0000
1000
0000
0010
0000
1010
0000
0000
0000
,  // measure 45
0101
0100
0110
0100
1100
0100
0110
0100
,  // measure 46
0201
0000
0310
0100
0110
0000
0001
0000
,  // measure 47
1002
1000
0013
0000
0210
0010
0301
0000
,  // measure 48
1002
0100
1003
1001
2001
0100
3001
0000
,  // measure 49
0001
0100
0110
1100
0001
0100
1001
0101
,  // measure 50
0000
0000
0000
0000
0011
0000
0110
0000
1100
0000
1010
0000
0100
1000
0010
0100
,  // measure 51
0010
0000
1000
0001
0100
0000
0010
0000
0100
0000
0000
0000
0011
0000
0010
0000
,  // measure 52
0010
0100
0010
0100
0010
1000
0100
0000
0010
0000
0000
0000
1100
0000
0000
0000
,  // measure 53
1010
0010
0110
0010
0011
0010
0110
0010
,  // measure 54
2010
0000
0000
3000
0010
0000
0010
0000
0110
0000
0000
0000
0010
0000
0000
0000
,  // measure 55
0120
1000
0130
0000
2010
0001
3010
0000
,  // measure 56
0012
0010
1003
0000
2100
0100
3001
0000
,  // measure 57
0011
0001
0110
1100
1000
0100
1100
0110
,  // measure 58
0000
0000
0000
0000
0001
0000
0010
0000
0100
0001
0100
1000
0001
0010
0100
1000
,  // measure 59
0100
0000
0000
0000
0011
0000
0100
0000
0010
0000
0001
0000
0110
0000
0100
0001
,  // measure 60
1000
0000
0010
0000
0001
0000
0010
0000
0100
0010
0100
0010
0100
0001
1000
0002
,  // measure 61
2000
0000
0000
0000
,  // measure 62
3003
0000
0000
0000
;

//---------------dance-single - ----------------
#NOTES:
     dance-single:
     :
     Beginner:
     3:
     0.107,0.161,0.042,0.074,0.000:
0000
0000
0000
0000
,
0000
0000
0000
0000
,
0000
0000
0000
0000
,
1000
0000
0000
0000
,
0010
0000
0000
0000
,
0001
0000
0001
0000
,
0002
0000
0003
0000
,
2000
0000
3000
0000
,
0100
0000
0100
0000
,
0100
0000
0000
0000
,
0000
0010
0000
0000
,
0020
0000
0000
0000
,
0030
0000
0000
0000
,
0001
0000
0000
0000
,
1000
0000
0001
0000
,
0001
0000
0000
0000
,
0001
0000
0000
0000
,
0010
0000
0000
0000
,
0100
0000
0000
0000
,
1000
0000
0000
0000
,
0001
0000
0000
0000
,
0010
0000
0000
0000
,
0100
0000
0000
0000
,
0010
0000
0000
0000
,
0001
0000
0000
0000
,
1000
0000
0000
0000
,
0100
0000
0000
0000
,
0010
0000
0000
0000
,
0001
0000
0000
0000
,
1000
0000
0000
0000
,
0010
0000
0000
0000
,
1001
0000
0000
0000
,
0001
0000
0000
0000
,
1000
0000
0000
0000
,
0010
0000
0000
0000
,
0110
0000
0000
0000
,
0010
0000
0000
0000
,
0001
0000
0000
0000
,
1000
0000
0000
0000
,
0001
0000
0000
0000
,
0100
0000
0000
0000
,
1000
0000
0000
0000
,
1001
0000
0000
0000
,
0001
0000
0000
0000
,
0010
0000
0000
0000
,
0010
0000
0000
0000
,
2000
0000
3000
0000
,
1000
0000
0000
0000
,
0001
0000
0000
0000
,
0001
0000
0000
0000
,
1000
0000
0000
0000
,
0100
0000
0000
0000
,
0010
0000
0000
0000
,
0002
0000
0003
0000
,
0001
0000
0000
0000
,
1000
0000
0000
0000
,
0100
0000
0000
0000
,
0010
0000
0000
0000
,
0100
0000
0000
0000
,
0001
0000
0000
0000
,
2002
0000
0000
0000
,
3003
0000
0000
0000
;

//---------------dance-single - ----------------
#NOTES:
     dance-single:
     :
     Easy:
     6:
     0.320,0.387,0.190,0.169,0.000:
0000
0000
0000
0000
,
0000
0000
0000
0000
,
0000
0000
0000
0000
,
1000
0000
0010
0000
,
0100
0100
0010
0000
,
0001
1000
0010
0100
,
0002
0000
1003
0000
,
2000
0000
3010
0100
,
0010
0001
0010
0100
,
1000
0010
1000
0000
0100
0000
0010
0000
,
0001
1000
1000
0001
,
0200
0000
0310
0010
,
1000
0000
0100
0000
1000
0010
1000
0000
,
0010
0001
0100
0001
,
1000
0000
0001
0000
1000
0001
1000
0000
,
0010
0001
0010
0100
,
1000
0000
0001
1000
,
0100
0000
0010
0001
0000
0000
0000
0000
,
0001
0000
1000
0000
,
0100
0000
0010
0100
,
0020
0000
2030
0000
,
3001
0100
0010
0001
,
1000
0001
0100
0000
,
0100
0010
1000
0100
,
0010
0000
0001
0100
,
1000
0100
0001
0000
,
1000
0010
0001
0010
,
1000
0000
0001
0010
,
0100
0010
0001
0000
,
1000
0100
0010
0100
,
1000
0000
1000
0000
,
1010
0000
0101
0000
,
0110
0000
1001
0000
,
0110
0000
0011
0000
,
1100
0000
1001
0000
,
0101
0000
0011
0000
,
0101
0000
1010
0000
,
1100
0000
1000
0100
,
1000
0000
0001
0010
,
0002
0000
0000
0000
,
2000
0000
0000
3003
,
1001
0000
0000
0000
,
1000
0010
0100
0010
,
0001
0010
0100
0010
,
2000
0000
0000
3000
0020
0000
0000
0000
,
0130
0010
0001
0000
,
2000
0000
3001
0100
,
0010
0001
1000
0001
,
1000
0001
1000
0000
0100
0000
0010
0000
,
0001
0000
1000
0001
1000
0001
1000
0000
,
0010
0100
0010
0001
,
1000
0100
0001
0000
,
1001
0000
1001
0000
,
0110
0010
0010
0000
,
2000
0000
3020
0000
,
0130
0010
0001
1000
,
0001
0001
1000
0010
,
1000
0000
0100
0010
,
0002
0000
2003
0000
,
3010
1000
0100
0010
,
2002
0000
0000
0000
,
3003
0000
0000
0000
;

//---------------dance-single - ----------------
#NOTES:
     dance-single:
     :
     Medium:
     8:
     0.450,0.451,0.042,0.307,0.000:
0000
0000
0000
0000
,
0000
0000
0000
0000
,
0000
0000
0000
0000
,
1001
0000
0001
1000
0001
0000
1000
0020
,
0000
0130
0010
0100
0010
0000
1010
0000
,
0200
0310
0002
0013
,
0002
0000
0103
0001
0100
0000
1000
0000
,
0200
0310
2000
3100
,
0002
0103
2000
3010
,
1000
0100
1000
0100
0010
0100
0010
0001
,
0000
0100
0001
0010
,
0001
0000
0010
0100
0000
0200
0000
0000
,
0000
0000
0000
0310
0000
1000
0010
0000
,
1000
0100
0010
0100
0000
0010
0100
0000
,
0001
0000
0100
0000
0001
1000
1001
0000
,
2000
0000
3010
0100
0000
0010
0000
0001
,
0000
0000
0100
0010
,
1000
0000
0100
0020
0000
0000
0000
0000
,
2030
0000
0000
0000
0000
3010
0100
0010
,
0000
0000
0100
0000
0010
0100
0010
0000
,
2000
0000
0000
3002
0000
0000
0103
0000
,
0010
0000
0100
0000
0010
0000
1000
0100
,
0000
1000
0100
1000
0100
0010
0100
0010
,
0001
0000
0100
0000
0010
0000
0001
0010
,
0000
0000
0100
0000
0010
0100
0010
0000
,
1000
0000
0100
0020
0000
0000
0000
0000
,
2030
0000
0000
0000
0000
3001
0100
0001
,
0000
0000
0100
0000
0010
0100
0010
0000
,
2000
0000
3000
0002
0000
0000
0103
0000
,
0020
0000
0000
0000
2030
0000
0000
3010
,
0000
0100
0010
0100
0000
1000
0100
0000
,
1000
0000
0100
1000
0000
0000
0010
0001
,
0000
0010
0000
0100
0001
0000
0100
0010
,
0100
0000
1000
0100
1000
0000
0100
0010
,
0000
0100
0000
0010
0001
0000
0100
0000
,
0001
0000
1000
0001
1000
0000
0100
1000
,
0000
0100
0000
0010
0100
0000
0001
0000
,
0100
1000
0100
0000
0010
0000
0100
0010
,
0000
0000
0100
0010
0100
0000
1000
0000
,
2000
0000
0000
0000
0000
0000
3000
0001
,
0200
0000
0000
0000
,
0310
0000
0100
0000
0010
0100
0010
0000
,
1000
0100
1000
0100
0010
0000
0100
0001
,
0000
0010
0001
0010
0100
0000
0010
0000
,
1000
0010
1000
0000
0001
0100
0001
0000
,
2000
0000
0000
3010
0100
0000
0010
0000
,
2000
0000
3010
0100
,
0010
0001
0010
0100
0010
0100
0010
0000
,
1000
0100
1000
0100
0010
0100
0010
0001
,
0000
0000
0100
0001
0100
0001
0100
0000
,
1000
0000
1000
0010
1000
0000
0100
0010
,
0000
1000
0100
0010
0001
0000
0100
0000
,
0001
0100
0001
0000
1000
0010
1000
0000
,
0020
0000
0030
0100
0010
0000
0100
0000
,
1000
1000
0001
0001
,
0100
0010
0100
0000
1000
0000
0100
0000
,
0010
0100
1000
0100
0010
0001
0100
0010
,
0000
0000
1000
0000
0100
0010
1000
0000
,
2000
0000
0000
3002
0000
0000
0000
0103
,
0000
0010
0100
0010
0000
1000
0100
0000
,
2002
0000
0000
0000
,
3003
0000
0000
0000
;
