#TITLE:銀閃の風;
#SUBTITLE:魔弾の王と戦姫 OP;
#ARTIST:鈴木このみ;
#GENRE:7 VANADIS;
#TITLETRANSLIT:Ginsen no Kaze;
#SUBTITLETRANSLIT:Madan no Ou to Vanadis OP;
#ARTISTTRANSLIT:Konomi Suzuki;
#CREDIT:;
#BANNER:Ginsen no Kaze.png;
#BACKGROUND:Ginsen no Kaze-bg.png;
#LYRICSPATH:;
#CDTITLE:cdtitle.png;
#MUSIC:Ginsen no Kaze.mp3;
#METERTYPE:DDR X;
#MENUCOLOR:0,0,1,1;
#OFFSET:-14.5263;
#SAMPLESTART:68.000;
#SAMPLELENGTH:12.000;
#SELECTABLE:YES;
#BPMS:0.000=170.000;
#STOPS:;
#BGCHANGES:;

//---------------dance-single - [LEGGENDARIA]----------------
#NOTES:
     dance-single:
     [LEGGENDARIA]:
     Challenge:
     14:
     0.659,0.867,0.533,0.356,0.250: // measure 1
1200
0000
0001
0301
0000
0100
1000
0010
,  // measure 2
0001
0010
1010
0100
0000
0100
1002
0000
,  // measure 3
0100
0103
1100
0000
0000
0001
0001
0011
,  // measure 4
0000
1000
0100
0010
0001
0010
0100
2000
,  // measure 5
0000
0000
0000
0000
0000
0000
0000
0000
0000
0000
0000
0000
0000
0000
0000
0000
0000
0000
0000
0001
0000
0000
0020
0000
,  // measure 6
0000
0000
0000
0000
0030
0000
0001
3002
,  // measure 7
0000
0000
0000
0000
0000
0000
0100
0000
0000
0020
0000
0000
0000
0000
0000
0030
0000
0000
1000
0000
0000
0000
0200
0000
,  // measure 8
0000
0000
0000
0000
0000
0000
0000
0000
0000
0000
0000
0000
0300
0000
0000
0000
0000
0000
0010
0000
0000
0003
0200
0000
,  // measure 9
0000
0000
0000
0000
0000
0000
0010
0020
,  // measure 10
0000
0000
0000
0000
0030
0000
1000
0320
,  // measure 11
0000
0000
0100
2000
0000
3000
0001
0200
,  // measure 12
0000
0000
0000
0300
0000
0000
1000
0130
,  // measure 13
1001
0000
0100
0020
0100
0000
1030
0100
,  // measure 14
0110
0100
0110
0000
1000
0000
0001
0010
,  // measure 15
1002
0000
0100
0010
0203
0000
0301
0010
,  // measure 16
0110
0010
0110
0000
0001
0000
1000
0100
,  // measure 17
0011
0000
0001
0020
0100
0000
1000
0031
,  // measure 18
0011
0001
0011
0000
0001
0000
0001
0010
,  // measure 19
2100
0000
3001
2000
0100
0002
3000
1003
,  // measure 20
1100
0100
0110
0000
0010
0000
0001
0100
,  // measure 21
0101
0000
0010
1000
1010
0000
0100
0010
,  // measure 22
0110
0000
1000
0010
0100
0001
1000
0100
,  // measure 23
1100
0000
0001
0010
0011
0000
1000
0001
,  // measure 24
1001
0000
1000
0100
0010
0001
0010
0100
,  // measure 25
2001
0100
0001
0010
,  // measure 26
3002
0100
1000
0100
,  // measure 27
2003
0000
3100
0010
0000
0001
0000
0010
,  // measure 28
0100
0000
0000
0000
0000
0010
0010
0001
,  // measure 29
1000
1000
0100
0100
0000
0010
0010
0001
,  // measure 30
1000
1000
0010
0010
0000
0000
1000
0001
,  // measure 31
0001
0000
0000
1100
0000
0000
0010
0000
0011
0000
0000
0002
0000
0000
0103
0000
,  // measure 32
0010
0000
0010
0001
0000
0010
1000
0000
,  // measure 33
1000
0100
0010
0001
0000
0100
1000
0000
,  // measure 34
1000
0100
0001
0001
0000
1000
0100
0000
,  // measure 35
0001
0000
0100
1000
0100
0000
1000
0000
0011
0000
0000
0000
0000
0000
0000
0000
,  // measure 36
1000
0000
0010
0001
0010
0000
0001
0000
1010
0000
0000
0000
0100
0000
0000
0000
,  // measure 37
1010
0000
0100
0110
0000
0010
0220
0000
,  // measure 38
0000
0000
0000
0000
0000
0000
0000
0330
,  // measure 39
1000
0000
0001
0000
0100
0000
0010
1000
0100
1000
0010
0000
0100
0000
0011
0000
,  // measure 40
1000
0000
0100
0000
0010
0000
0001
1000
0100
0001
0100
0000
1000
0000
0011
0000
,  // measure 41
1000
0100
1000
0100
1000
0000
0001
0000
0001
0010
0001
0010
0001
0000
1000
0000
,  // measure 42
1000
0010
1000
0000
0001
0100
0001
0000
1000
0001
1000
0010
1000
0001
0010
0001
,  // measure 43
0010
0000
0001
0000
1010
0000
0010
1000
0001
0100
0001
0000
0010
0000
1001
0000
,  // measure 44
0100
0000
1000
0000
0100
0000
0010
0100
0010
0100
0010
0000
0100
0000
0011
0000
,  // measure 45
1000
0100
1000
0001
0100
0010
0100
1000
0100
0010
0100
0010
1000
0001
1000
0001
,  // measure 46
1000
0001
0010
0000
0100
0001
1000
0000
0010
0001
1000
0000
0001
0100
0010
0001
,  // measure 47
1000
0000
0100
0000
0110
0000
0001
1000
0001
0010
0100
0000
1000
0000
0101
0000
,  // measure 48
0010
0000
0010
0000
0100
0000
1000
0001
1000
0001
1000
0000
0100
0000
0011
0000
,  // measure 49
0120
1030
2001
3010
1002
1003
0012
0103
,  // measure 50
2010
0100
0010
3001
0102
0010
1000
0013
,  // measure 51
1001
0000
1000
0000
0100
0000
0010
0001
0100
0000
1000
0100
0010
0000
0100
0000
,  // measure 52
1001
0000
0000
0000
0020
0000
0000
0130
,  // measure 53
1001
0000
0000
0000
;

//---------------dance-single - ----------------
#NOTES:
     dance-single:
     :
     Beginner:
     2:
     0.087,0.144,0.044,0.056,0.000:
1001
0000
0000
0000
,
0000
0000
0000
0000
,
0110
0000
0000
0000
,
0000
0000
0000
0000
,
0002
0000
0000
0000
,
0000
0000
0000
0000
,
0000
0000
0000
0000
,
0003
0000
0000
0000
,
2000
0000
0000
0000
,
0000
0000
0000
0000
,
0000
0000
0000
0000
,
3000
0000
0000
0000
,
0020
0000
0000
0000
,
0000
0000
0000
0000
,
0000
0000
0000
0000
,
0030
0000
0000
0000
,
0200
0000
0000
0000
,
0000
0000
0000
0000
,
0000
0000
0000
0000
,
0300
0000
0000
0000
,
0010
0000
0000
0000
,
0010
0000
0000
0000
,
0100
0000
0000
0000
,
0100
0000
0000
0000
,
0001
0000
0000
0000
,
0001
0000
0000
0000
,
1000
0000
0000
0000
,
1000
0000
0000
0000
,
0100
0000
0000
0000
,
0100
0000
0000
0000
,
0010
0000
0000
0000
,
0010
0000
0000
0000
,
0001
0000
0000
0000
,
1000
0000
0000
0000
,
0001
0000
0000
0000
,
1000
0000
0000
0000
,
0010
0000
0000
0000
,
0000
0000
0000
0000
,
0010
0000
0010
0000
,
1000
0000
1000
0000
,
0001
0000
0001
0000
,
1000
0000
1000
0000
,
0100
0000
0100
0000
,
0010
0000
0010
0000
,
0001
0000
0001
0000
,
2000
0000
0000
0000
,
3001
0000
0000
0000
,
0001
0000
0000
0000
,
0100
0000
0100
0000
,
0100
0000
0000
0000
,
0010
0000
0000
0000
,
0110
0000
0000
0000
,
1001
0000
0000
0000
;

//---------------dance-single - ----------------
#NOTES:
     dance-single:
     :
     Easy:
     5:
     0.197,0.260,0.044,0.067,0.000: // measure 1
1000
0100
0000
0010
,  // measure 2
0001
0010
0000
0100
,  // measure 3
1000
0001
0000
0000
,  // measure 4
0000
0000
0000
0000
,  // measure 5
0002
0000
0000
0000
,  // measure 6
1003
0000
0000
0000
,  // measure 7
2000
0000
0000
0000
,  // measure 8
3001
0000
0000
0000
,  // measure 9
0020
0000
0000
0000
,  // measure 10
0130
0000
0000
0000
,  // measure 11
0200
0000
0000
0000
,  // measure 12
0310
0000
0000
0000
,  // measure 13
1001
0000
0000
0000
,  // measure 14
0001
0001
0000
0000
,  // measure 15
1000
0000
0000
0000
,  // measure 16
0010
0010
0000
0000
,  // measure 17
0100
0000
0000
0000
,  // measure 18
0001
0001
0000
0000
,  // measure 19
0100
0000
0000
0000
,  // measure 20
1000
1000
0000
0000
,  // measure 21
0100
0000
0010
0000
,  // measure 22
0010
0000
0000
0000
,  // measure 23
1000
0000
1000
0000
,  // measure 24
1000
0000
0000
0000
,  // measure 25
0002
0000
0000
0000
,  // measure 26
0013
0000
0000
0000
,  // measure 27
0200
0000
0000
0000
,  // measure 28
1300
0000
0000
0000
,  // measure 29
1000
1000
0000
0000
,  // measure 30
0001
0001
0000
0000
,  // measure 31
0100
0000
0100
0000
,  // measure 32
0100
0000
0000
0000
,  // measure 33
0010
0010
0010
0010
,  // measure 34
1000
1000
1000
1000
,  // measure 35
0001
0001
1000
0000
,  // measure 36
1000
1000
0100
0000
,  // measure 37
0110
0000
0000
0000
,  // measure 38
0000
0000
0000
0000
,  // measure 39
1000
0100
1000
0100
,  // measure 40
0010
0001
0010
0001
,  // measure 41
0100
0100
0100
0100
,  // measure 42
0010
0010
0010
0010
,  // measure 43
0001
0010
0001
0010
,  // measure 44
0100
1000
0100
1000
,  // measure 45
0100
0100
0010
0010
,  // measure 46
0001
0010
1000
1000
,  // measure 47
1000
1000
0010
0010
,  // measure 48
0100
0100
0001
0001
,  // measure 49
0010
0001
0010
0100
,  // measure 50
1000
0100
0010
0001
,  // measure 51
1000
0001
1000
0001
,  // measure 52
1001
0000
0000
0000
,  // measure 53
0110
0000
0000
0000
;

//---------------dance-single - ----------------
#NOTES:
     dance-single:
     :
     Medium:
     7:
     0.300,0.347,0.300,0.189,0.000: // measure 1
1000
0001
0000
1000
,  // measure 2
1000
0010
0000
0100
,  // measure 3
0010
0000
0110
0000
0000
1000
0000
1001
,  // measure 4
0000
0100
0000
0001
0000
0010
0000
0000
,  // measure 5
0200
0000
0000
0000
,  // measure 6
0320
0000
0000
0000
,  // measure 7
0032
0000
0000
0000
,  // measure 8
2003
0000
0000
0000
,  // measure 9
3020
0000
0000
0000
,  // measure 10
0230
0000
0000
0000
,  // measure 11
0302
0000
0000
0000
,  // measure 12
2003
0000
0000
0000
0000
0000
0000
3000
,  // measure 13
0001
0100
0010
0100
,  // measure 14
1001
0001
1000
0001
,  // measure 15
0110
1000
0010
0100
,  // measure 16
0011
0001
0100
0010
,  // measure 17
1100
0001
1000
0100
,  // measure 18
1010
1000
0001
0010
,  // measure 19
0101
1000
0001
1000
,  // measure 20
1001
0100
0010
0100
,  // measure 21
0110
0000
1010
0000
,  // measure 22
0011
0000
0100
0010
,  // measure 23
1100
0000
1001
0000
,  // measure 24
0101
0000
0001
0010
,  // measure 25
2000
0000
3002
0000
,  // measure 26
0103
1000
0100
0010
,  // measure 27
1000
0010
0100
1000
,  // measure 28
0001
0000
0000
0000
0000
0001
0000
0010
,  // measure 29
0000
0100
0000
0001
0000
0100
0000
0010
,  // measure 30
0000
0001
0000
0001
0000
0000
1000
0000
,  // measure 31
0020
0000
2030
0000
,  // measure 32
3001
0100
1001
0000
,  // measure 33
1000
1000
0100
0010
,  // measure 34
0001
0001
0010
0100
,  // measure 35
1000
0001
0100
0000
,  // measure 36
0001
1000
0010
0000
,  // measure 37
1100
0000
0000
0110
0000
0000
0022
0000
,  // measure 38
0000
0000
0000
0033
,  // measure 39
1000
0000
0000
0001
0000
1001
0000
0000
,  // measure 40
0100
0000
0000
0010
0000
0110
0000
0000
,  // measure 41
1000
0100
1000
0100
,  // measure 42
0020
0000
0031
0000
,  // measure 43
1000
0000
0001
0000
0000
0110
0000
0000
,  // measure 44
0010
1001
0000
0000
,  // measure 45
1000
1000
0001
0001
,  // measure 46
0200
0000
0000
0000
,  // measure 47
0310
0000
0100
0000
0000
1001
0000
0000
,  // measure 48
1000
0000
0100
0000
0000
0011
0000
0000
,  // measure 49
0001
0100
0010
0001
,  // measure 50
0010
0000
1000
0000
,  // measure 51
0010
0000
1000
0000
0000
0100
0000
0000
,  // measure 52
0101
0000
0000
0000
0200
0000
0000
0300
,  // measure 53
1010
0000
0000
0000
;

//---------------dance-single - ----------------
#NOTES:
     dance-single:
     :
     Hard:
     9:
     0.441,0.462,0.300,0.533,0.044: // measure 1
1001
0000
0001
1000
0000
0010
0100
0010
,  // measure 2
0100
0001
0001
1000
0000
0002
0000
0000
,  // measure 3
1003
1000
1100
0000
0000
0001
0001
0011
,  // measure 4
0000
1000
0010
0100
0001
0010
0100
2000
,  // measure 5
0000
0000
0000
0000
0000
0000
0000
0000
0000
0000
0000
0000
0000
0000
0000
0000
0000
0000
3000
0001
0000
0000
0200
0000
,  // measure 6
0000
0000
0000
0000
0000
0000
0310
0002
,  // measure 7
0000
0000
0000
0000
0000
0000
0103
0000
0000
0020
0000
0000
0000
0000
0000
0000
0000
0000
1030
0000
0000
0000
0200
0000
,  // measure 8
0000
0000
0000
0000
0000
0000
0000
0000
0000
0310
0000
0002
,  // measure 9
0000
0000
0000
0000
0000
0000
0013
0200
,  // measure 10
0000
0000
0000
0000
0000
0000
0301
0200
,  // measure 11
0000
0000
1300
0002
0000
0000
0103
2000
,  // measure 12
0000
0000
0000
0000
0000
0000
3100
0001
,  // measure 13
0100
0000
0200
0001
0000
0000
0310
1000
,  // measure 14
1001
0000
0100
0000
0001
0000
1000
0100
,  // measure 15
0020
0000
0100
0000
0032
0000
0103
1000
,  // measure 16
1100
0200
0000
0300
,  // measure 17
1001
0000
0100
0001
0000
0000
0010
0100
,  // measure 18
0120
0000
0000
0030
,  // measure 19
0011
0000
1000
0100
0000
0100
0000
0020
,  // measure 20
0001
0000
0000
0000
0000
0000
0000
0030
,  // measure 21
1001
0000
0000
1000
0110
0000
0000
0001
,  // measure 22
0110
0000
0000
1000
0100
0010
0001
0100
,  // measure 23
1001
0000
0000
0100
1001
0000
0000
0010
,  // measure 24
1001
0000
0000
1000
0100
0010
0001
0100
,  // measure 25
2000
0000
0000
3200
0000
0000
0310
0000
,  // measure 26
0000
0100
0010
0100
,  // measure 27
0001
0000
1000
0100
0000
0001
0000
0100
,  // measure 28
1000
0000
0000
0000
0000
1000
1000
1000
,  // measure 29
0000
0010
0010
0010
0000
0001
0001
0001
,  // measure 30
0000
0100
0100
0100
0000
0000
1000
0001
,  // measure 31
0020
0000
0000
0100
0000
0000
0031
0000
0200
0000
0000
1000
0000
0000
0310
0000
,  // measure 32
1000
0000
0001
0100
0000
0000
0000
0000
,  // measure 33
1100
0000
0010
0100
0000
0100
0110
0000
,  // measure 34
1001
0000
0100
0010
0000
0001
0011
0000
,  // measure 35
2100
0000
0000
0100
0000
0000
0010
0000
3100
0000
0000
0000
0000
0000
0000
0000
,  // measure 36
0012
0000
0000
0010
0000
0000
0100
0000
0013
0000
0000
0000
0000
0000
0000
0000
,  // measure 37
0012
0000
1003
2100
0000
3001
0022
0000
,  // measure 38
0000
0000
0000
0033
,  // measure 39
1100
0000
1000
0100
0000
0020
0000
0000
,  // measure 40
0031
0000
0100
0010
0000
2000
0000
0000
,  // measure 41
3020
0000
0230
0000
0320
0000
2030
0001
,  // measure 42
3200
0000
0000
0001
1300
0000
0000
0000
,  // measure 43
0110
0000
0010
1000
0000
0020
0000
0000
,  // measure 44
0230
0000
1000
0301
0000
0000
0000
0000
,  // measure 45
2000
3200
0320
0032
,  // measure 46
2003
0000
0000
0000
,  // measure 47
3001
0000
1000
0001
0000
0200
0000
0000
,  // measure 48
0310
0000
1000
0100
0000
0020
0000
0000
,  // measure 49
0032
0010
2003
0100
,  // measure 50
3020
0000
0000
0130
0001
0000
0000
0000
,  // measure 51
1000
0000
0100
0020
0000
0130
0000
0010
,  // measure 52
1001
0000
0000
0000
0020
0000
0000
0031
,  // measure 53
0011
0000
0000
0000
;
