#TITLE:Fight 4 Real;
#SUBTITLE:ストライク・ザ・ブラッド OP1;
#ARTIST:ALTIMA;
#TITLETRANSLIT:Fight 4 Real;
#SUBTITLETRANSLIT:Strike the Blood OP2;
#ARTISTTRANSLIT:ALTIMA;
#GENRE:STRIKE THE BLOOD BEAT#2;
#CREDIT:;
#BANNER:Fight 4 Real.png;
#BACKGROUND:Fight 4 Real-bg.png;
#LYRICSPATH:;
#CDTITLE:cdtitle.png;
#MUSIC:Fight 4 Real.mp3;
#METERTYPE:DDR X;
#MENUCOLOR:0,0,1,1;
#OFFSET:-0.056;
#SAMPLESTART:55.117;
#SAMPLELENGTH:12.000;
#SELECTABLE:YES;
#BPMS:0.000=148.000;
#STOPS:;
#BGCHANGES:;

//---------------dance-single - ----------------
#NOTES:
     dance-single:
     :
     Hard:
     13:
     0.675,0.662,0.301,0.446,0.429:
0000
0000
0000
0000
,
0000
0000
0000
0000
,
0000
0000
0000
0000
,
1100
0000
0000
0101
0000
0000
1100
0000
1000
0000
0100
0000
0001
0000
0100
0000
,
0012
0000
0000
0103
0020
0000
1000
0000
1030
0000
0000
0000
1000
0000
0100
0001
,
0020
0000
0000
0001
0000
0000
0001
0000
0130
0000
0000
0000
1100
0000
0000
0000
,
2000
0000
0000
0010
0000
0000
0001
0000
3020
0000
0000
0100
0000
0000
1030
0000
,
0001
0000
1000
0001
0100
0000
0010
0000
0001
0000
0000
0001
0100
0000
0010
0000
,
0020
0000
0000
2030
0000
0000
0010
0000
3010
0000
0000
0000
0001
0000
0010
0100
,
0010
0000
0100
0010
0000
0001
0010
0000
0010
0000
0001
1000
0000
0001
0010
0000
,
0100
0000
0000
0000
0100
0000
1000
0001
0100
0000
0000
0000
1000
0000
0001
1000
,
0100
0000
0000
0000
0010
0000
0001
1000
0002
0000
0000
2003
0000
0000
3100
0000
,
0010
0000
0010
0000
0100
1000
0100
0010
,
0001
0000
1000
0001
0010
0000
0010
0000
0100
0000
0010
0000
1000
0001
0100
0001
,
0010
0000
0001
0000
0000
1000
0000
0001
1000
0000
0000
0002
0000
0000
1003
0000
,
0000
0000
0010
0000
0000
0100
0000
0100
0010
0000
0000
2000
0000
0000
3001
0000
,
1100
0100
0000
0110
0011
0000
1000
0110
,
0001
0000
0001
0000
0010
0000
0010
0000
0001
1000
0100
0000
0010
0001
1000
0010
,
0100
0000
0000
0100
0000
0000
0010
0000
0000
0000
0100
0000
1000
0000
0100
0000
,
0010
0000
0000
0010
0000
0000
0001
0000
0000
0000
0001
0000
0010
0000
0100
0000
,
1000
0000
0000
1000
0000
0000
0100
0000
0000
0000
0001
0000
0001
0000
0010
0000
,
0100
0000
0000
0100
0000
0000
1000
0000
0100
0000
0010
0000
0001
0000
0010
0000
,
0100
0000
0000
0100
0000
0000
1000
0000
0000
0000
0100
0000
1000
0000
0100
0000
,
0010
0000
0000
0001
0000
0000
0001
0000
0000
0000
0001
0000
0010
0000
0100
0000
,
1000
0000
0000
1000
0000
0000
0100
0000
0020
0000
0000
0000
0031
0000
0000
0000
,
0000
1000
1000
0001
0001
0100
0100
0100
,
0010
0000
0000
1000
0010
0000
1000
0000
0200
0000
0010
0000
0310
0000
0100
0000
,
0010
0000
0000
0010
0001
0000
0010
0000
2000
0000
0010
0000
3010
0000
0010
0000
,
0002
0000
0000
2003
0000
0000
3010
0000
0200
0000
0000
2300
0000
0000
3100
0000
,
0020
0000
0000
0230
0000
0000
0301
0000
0010
0000
0100
0000
0010
0000
0001
0000
,
1000
0000
0000
0010
0100
0000
0010
0000
0002
0000
0010
0000
0013
0000
0100
0000
,
1000
0000
0000
0010
1000
0000
0100
0000
0020
0000
0001
0000
0031
0000
0010
0000
,
0200
0000
0000
0010
0000
0000
0310
0000
1001
0000
0000
0000
1000
0000
0100
0000
,
0011
0000
0000
0110
0000
0000
0010
0000
0001
1000
0010
0000
0100
0001
1000
0000
,
1010
0000
0000
0110
0000
0000
0012
0000
1000
0000
1000
0000
1000
0000
1003
0000
,
1010
0000
0000
0001
0100
0000
0010
0000
0100
0000
0000
0000
0010
0000
0001
0010
,
0002
0000
0000
0010
0000
0000
0010
0000
0103
0000
0000
0000
0010
0000
0000
0000
,
2100
0000
0000
0100
0000
0000
3100
0000
0012
0000
0000
0010
0000
0000
0013
0000
,
1002
0000
0000
1000
0000
0000
1003
0000
0010
0000
0000
0100
0010
0000
0100
0000
,
0010
1000
1000
0010
0010
0000
0010
1000
,
0210
0000
0000
0010
0000
0000
0010
0000
0302
0000
0000
1000
0000
0000
1000
0000
,
1003
0000
0000
0001
0000
0000
0100
0000
0010
0000
0000
0010
0000
0000
0010
0000
,
1000
0100
0010
0001
1000
1000
0001
0001
,
1001
0000
0000
1000
0002
0000
0100
0000
0103
0000
0000
0000
0001
0000
1000
0100
,
2000
0000
0000
0100
0000
0000
0100
0000
3010
0000
0000
0000
0100
0000
0000
0000
,
2010
0000
0000
0010
0000
0000
3010
0000
0102
0000
0000
0100
0000
0000
0103
0000
,
2001
0000
0000
0001
0000
0000
3001
0000
1000
0000
0000
0010
0100
0000
0010
0001
,
0010
0000
0000
0110
0000
0000
0100
0000
0010
0000
0000
0000
0010
0000
0010
0001
,
0020
0000
0000
0100
0000
0000
2030
0000
3002
0000
0000
1000
0000
0000
1003
0000
,
0100
0000
0000
0000
0100
0000
0100
1000
0010
0000
0000
0000
0001
0000
0010
1000
,
0100
0000
0000
0110
0000
0000
1000
0001
0100
0000
0100
0000
0010
0000
0100
0000
,
0001
0000
1000
0000
0100
0010
0001
0010
,
0001
0000
1000
0001
0010
0000
0010
0000
0001
0000
0100
0000
0010
0000
1000
0000
,
1000
0001
2002
0000
0000
0000
0000
0000
,
3003
0000
0000
0000
;

//---------------dance-single - ----------------
#NOTES:
     dance-single:
     :
     Challenge:
     15:
     0.832,0.723,0.491,0.268,0.736: // measure 1
0000
0000
0000
0000
,  // measure 2
0000
0000
0000
0000
,  // measure 3
0000
0000
0000
0000
,  // measure 4
1001
0000
0000
0110
0000
0000
1001
0000
0000
0010
0100
0000
0010
1000
0010
0001
,  // measure 5
0010
0000
1000
0100
0000
1000
0100
0000
0020
0000
0001
0000
0031
0000
0010
0100
,  // measure 6
0010
0000
0010
0001
0000
0001
1000
0000
0001
0000
0100
0000
1001
0000
0011
0000
,  // measure 7
0100
0000
1000
0100
0000
0010
0001
0000
1000
0000
0001
0010
0000
0100
1000
0000
,  // measure 8
0010
0000
0001
1000
0000
0010
0100
0000
0100
0000
0010
1000
0001
0000
0010
0000
,  // measure 9
1000
0000
1000
0100
0000
1000
0010
0000
0001
0000
0010
0000
0100
0000
0001
1000
,  // measure 10
0001
0000
1000
0100
0000
0001
0100
0000
0100
0000
0010
0001
0000
0010
1000
0000
,  // measure 11
0012
0000
0000
0000
0100
0000
0013
0200
0001
0000
0000
0000
0001
0000
0301
0200
,  // measure 12
1000
0000
0000
1300
0100
0000
1000
0002
0100
0000
0000
0010
0000
0000
0013
0000
,  // measure 13
0001
0000
0000
0000
0010
0000
0000
0000
0001
0000
0010
0000
0001
0000
0010
0001
,  // measure 14
0100
0000
1000
0000
0100
0000
0100
0000
0010
1000
0100
0000
0001
0100
0010
1000
,  // measure 15
0001
0000
1000
0000
0000
0002
0000
1003
0200
0000
0000
2000
0300
0000
3100
0000
,  // measure 16
0000
0000
1000
0000
0000
2000
0000
3001
0020
0000
0000
0002
0030
0000
0013
0000
,  // measure 17
1100
0000
0100
0000
0000
0010
0000
0002
0010
0000
0000
1000
0003
0000
0110
0000
,  // measure 18
1000
0000
0001
0000
0110
0000
0100
0000
0001
1000
0100
0000
0010
0001
1000
0010
,  // measure 19
0100
0000
1000
0010
0000
1000
0010
0000
0000
0000
1000
0000
0100
0000
0010
0000
,  // measure 20
0001
0000
0100
0001
0000
0100
0002
0000
0000
0000
1000
0000
0100
0000
0013
0000
,  // measure 21
0001
0000
0100
0010
0000
0100
0010
0000
0000
0000
1000
0000
0100
0000
0010
0000
,  // measure 22
0001
0000
0010
0100
0000
0010
0100
0000
1000
0000
0001
1000
0001
0000
1000
0000
,  // measure 23
1001
0000
1000
0100
0000
0010
0100
0000
0001
0000
0100
0001
0100
0000
0010
0000
,  // measure 24
1001
0000
1000
0100
0000
0001
0100
0000
1000
0000
0010
1000
0001
0000
0010
0000
,  // measure 25
0110
0000
1000
0100
0000
0010
0001
0000
2000
0000
0000
0000
0001
0000
0000
0000
,  // measure 26
3001
0000
0001
0000
1000
0000
0001
0000
0010
0001
1000
0000
0001
0000
0010
0001
,  // measure 27
1000
0000
1000
0001
0010
0000
0001
0000
1000
0000
0100
0000
0010
0000
0100
0000
,  // measure 28
0010
0000
0001
1000
0010
0000
1000
0000
0001
0000
0010
0000
0001
0000
0010
0000
,  // measure 29
0110
0000
1000
0100
0000
1000
0100
0000
0010
0000
0001
0010
0000
0001
0010
0000
,  // measure 30
0110
0000
1000
0100
0000
0100
0010
0000
0001
0000
0010
0100
0010
0000
0001
0000
,  // measure 31
1100
0000
0001
0100
0010
0000
1000
0000
0001
0000
0100
0000
0010
0000
0001
0000
,  // measure 32
0010
0000
0100
0010
0100
0000
1000
0000
0100
0000
0010
0000
0001
0000
0100
0000
,  // measure 33
2100
0000
0000
0100
0000
0000
0100
3000
0110
0000
0000
0000
0010
0000
0100
0000
,  // measure 34
1100
0000
0000
0110
0000
0000
0011
0000
0100
0010
0100
0000
0001
1000
0001
0000
,  // measure 35
0110
0000
0000
0110
0000
0000
1001
0000
0100
1000
0010
0000
0001
1000
0100
0010
,  // measure 36
0001
0000
1000
0001
0000
1000
0001
0000
1000
0000
0100
0000
0010
0000
0100
0010
,  // measure 37
0100
0000
0010
0100
0000
0100
0010
0000
0100
0000
1000
0000
0101
0000
1010
0000
,  // measure 38
1001
0000
0100
0001
0000
0100
0001
0000
1000
0000
0100
0010
0000
0100
0010
0000
,  // measure 39
0100
0000
0001
1000
0000
1000
0001
0000
0100
0000
0010
0100
0010
0000
0110
0000
,  // measure 40
1001
0000
1000
0100
0000
0001
0100
0000
1000
0000
0010
0000
0001
0000
0010
1000
,  // measure 41
0010
0000
1000
0001
0000
0100
0010
0000
0100
0000
0010
0100
0000
0001
0100
0000
,  // measure 42
1002
0000
0000
0200
0000
0300
0013
0000
2001
0000
0000
0020
0000
0030
3100
0000
,  // measure 43
0100
0000
0110
0000
1001
0000
0010
0000
1000
0000
1000
0001
1000
0000
0101
0000
,  // measure 44
1010
0000
1000
0001
0000
1000
0001
0000
1000
0000
0100
0000
0010
0000
0100
0010
,  // measure 45
0100
0000
1000
0100
0000
0010
0100
0000
1000
0000
0001
0000
0011
0000
1100
0000
,  // measure 46
1001
0000
0100
0001
0000
0010
0001
0000
1000
0000
0100
0010
0000
1000
0010
0000
,  // measure 47
0100
0000
0001
0010
0000
0100
1000
0000
0100
0000
0010
0001
0010
0000
0110
0000
,  // measure 48
1001
0000
1000
0010
0000
0100
0001
0000
0100
0000
0010
0000
0001
0000
0100
0010
,  // measure 49
0100
0000
1000
0010
0000
0100
0010
0000
0100
0000
0001
0010
0000
0010
0100
0000
,  // measure 50
1002
0000
0000
0000
1000
0000
1003
0020
1000
0000
0000
0000
1000
0000
1030
0200
,  // measure 51
0001
0000
0000
1000
0000
0000
1300
0100
0010
0000
0000
0110
0000
0000
0101
0000
,  // measure 52
1001
0000
0000
0000
0010
0000
0000
0000
1000
0000
0100
0000
0010
0000
0001
1000
,  // measure 53
0001
0000
1000
0000
0001
0000
0001
0000
0100
0010
0100
0010
0100
0000
0001
0000
,  // measure 54
1000
0010
1000
0000
2002
0000
0000
0000
0000
0000
0000
0000
0000
0000
0000
0000
,  // measure 55
0000
3003
0000
0000
0000
0000
0000
0000
0000
0000
0000
0000
0000
0000
0000
0000
0000
0000
0000
0000
0000
0000
0000
0000
0000
0000
0000
0000
0000
0000
0000
0000
0000
0000
0000
0000
0000
0000
0000
0000
0000
0000
0000
0000
0000
0000
0000
0000
0000
0000
0000
0000
0000
0000
0000
0000
0000
0000
0000
0000
0000
0000
0000
0000
0000
0000
0000
0000
0000
0000
0000
0000
0000
0000
0000
0000
0000
0000
0000
0000
0000
0000
0000
0000
0000
0000
0000
0000
0000
0000
0000
0000
0000
0000
0000
0000
0000
0000
0000
0000
0000
0000
0000
0000
0000
0000
0000
0000
0000
0000
0000
0000
0000
0000
0000
0000
0000
0000
0000
0000
0000
0000
0000
0000
0000
0000
0000
0000
0000
0000
0000
0000
0000
0000
0000
0000
0000
0000
0000
0000
0000
0000
0000
0000
0000
0000
0000
0000
0000
0000
0000
0000
0000
0000
0000
0000
0000
0000
0000
0000
0000
0000
0000
0000
0000
0000
0000
0000
0000
0000
0000
0000
0000
0000
0000
0000
0000
0000
0000
0000
0000
0000
0000
0000
0000
0000
0000
0000
0000
0000
0000
0000
;

//---------------dance-single - ----------------
#NOTES:
     dance-single:
     :
     Beginner:
     4:
     0.231,0.267,0.022,0.022,0.000:
0000
0000
0000
0000
,
0000
0000
0000
0000
,
0000
0000
0000
0000
,
1001
0000
0000
0000
,
0001
0001
0001
0000
,
1000
1000
1000
0000
,
0010
0000
0100
0000
,
0001
1000
0001
0000
,
0001
0000
0001
0000
,
0100
0000
0100
0000
,
0010
0000
1000
0000
,
0001
0000
1000
0001
,
1000
0000
0001
0001
,
0001
0000
0000
0000
,
1000
1000
0001
0001
,
0100
0100
0010
0010
,
1000
0000
0001
0000
,
0001
1000
0001
0000
,
1000
1000
0001
0000
,
0001
0001
1000
0000
,
1000
0100
1000
0000
,
0001
0010
0001
0000
,
1000
0100
0010
0001
,
0010
0100
1000
0000
,
0001
0010
0100
1000
,
0100
0010
0001
0000
,
0001
0001
0001
0000
,
1000
1000
1000
0000
,
0020
0000
0000
0000
,
0030
0000
0000
0000
,
0100
0100
0100
0000
,
0001
0001
0001
0000
,
1000
1000
1000
0000
,
0002
0000
0000
0000
,
0003
0000
0000
0000
,
1000
1000
1000
0000
,
0001
0001
0001
0000
,
0100
0010
0100
0010
,
1000
0001
1000
0001
,
1000
1000
1000
0000
,
0001
0001
0001
0000
,
0100
0010
0100
0010
,
0001
1000
0001
1000
,
0001
0001
0001
0000
,
0100
0100
0100
0000
,
1000
0100
0010
0001
,
0010
0100
1000
0000
,
0001
0010
0001
0000
,
1000
0100
1000
0000
,
0001
1000
0001
0000
,
1000
0010
1000
0000
,
0001
0000
0001
0000
,
0001
0010
0100
1000
,
0000
1001
0000
0000
;

//---------------dance-single - ----------------
#NOTES:
     dance-single:
     :
     Easy:
     6:
     0.349,0.422,0.145,0.190,0.000:
0000
0000
0000
0000
,
0000
0000
0000
0000
,
0000
0000
0000
0000
,
1001
0000
0001
0001
,
0001
1000
0100
0010
,
1000
0010
0100
0000
,
0002
0013
2000
3100
,
0020
0031
0200
1300
,
0010
1000
0010
0001
,
0010
0100
0001
1000
,
0001
0001
0100
0100
,
0010
0010
0001
0010
,
0100
1000
0100
0010
,
1000
0010
1000
0100
,
0010
0001
1000
1000
,
0001
1000
0100
0010
,
1001
0000
1001
0000
,
0110
0000
0010
0010
,
0010
0100
0010
1000
,
0100
0010
0002
0003
,
1000
0100
1000
0100
,
0010
0001
2000
3000
,
0001
0001
0100
0100
,
0010
0010
1000
1000
,
0100
0010
0002
0000
,
0003
0000
0001
0001
,
1000
0100
0010
0010
,
0100
1000
0100
0100
,
0010
0001
1000
0001
,
0001
1000
1000
0000
,
0001
0010
0001
0001
,
0100
0010
1000
1000
,
1001
0000
1001
0000
,
0010
0010
0100
0100
,
0001
1000
0001
1000
,
0001
0001
0001
0100
,
0010
0010
1000
0001
,
2000
3001
0002
1003
,
0200
0310
0020
0130
,
1001
1001
1001
0001
,
0010
0100
1000
1000
,
0100
0010
0001
0001
,
1000
0010
0001
0010
,
1000
0001
0001
1000
,
0010
0100
0010
0100
,
0200
0310
0020
1030
,
2000
3001
0002
1003
,
0110
0110
0110
0100
,
1000
0100
0010
0001
,
0100
0100
0001
1000
,
0001
1000
0010
0100
,
0001
0001
0100
0100
,
0010
0010
1000
0100
,
0010
2002
0000
0000
,
3003
0000
0000
0000
;

//---------------dance-single - ----------------
#NOTES:
     dance-single:
     :
     Medium:
     10:
     0.478,0.452,0.033,0.089,0.323:
0000
0000
0000
0000
,
0000
0000
0000
0000
,
0000
0000
0000
0000
,
1000
0000
0000
0100
0000
0000
0010
0000
0000
0001
0000
0000
0010
0000
0100
0000
,
1000
0000
0000
0001
0000
0000
0100
0000
0100
0000
0000
0000
0001
0000
0000
0000
,
1000
0000
0000
0001
0000
0000
0010
0000
0010
0000
0000
0000
0001
0000
0000
0000
,
0100
0000
0000
0100
0000
0000
0100
0000
0010
0000
0000
0010
0000
0000
0010
0000
,
1000
0000
0000
1000
0000
0000
1000
0000
0001
0000
0000
0000
0001
0000
0000
0000
,
0010
0000
0000
0010
0000
0000
0010
0000
0001
0000
0000
0000
1000
0000
0000
0000
,
0100
0000
0000
0100
0000
0000
0100
0000
1000
0000
0000
1000
0000
0000
1000
0000
,
0001
0000
0100
0010
0100
0000
0001
1000
,
0001
0000
0000
0000
0100
0000
0010
0000
0100
0000
0000
0001
0000
0000
0100
0000
,
0001
0000
0010
0000
0100
1000
0001
0001
,
0100
0000
0000
0200
0000
0000
0000
0000
0000
0000
0000
0000
0000
0000
0000
0000
,
0301
0000
1000
0000
0000
1000
0000
0000
0010
0000
0000
0010
0000
0000
0100
0000
,
0000
0000
0001
0000
0000
0010
0000
0000
0100
0000
0000
0100
0000
0000
0100
0000
,
0010
0000
0001
0000
0000
1000
0000
0000
0100
0000
0000
0100
0000
0000
0100
0000
,
0010
0001
0010
0100
1000
0100
0010
0001
,
1000
0000
0000
1000
0000
0000
1000
0000
0000
0000
0001
0000
0010
0000
0100
0000
,
0010
0000
0000
0010
0000
0000
0020
0000
0000
0000
0031
0000
0100
0000
1000
0000
,
0100
0000
0000
0100
0000
0000
0100
0000
0000
0000
0010
0000
0100
0000
0100
0000
,
0001
0000
0000
0001
0000
0000
0001
0000
0000
0000
1000
0000
0100
0000
0010
0000
,
0001
0000
0000
0001
0000
0000
0001
0000
0000
0000
0100
0000
0001
0000
1000
0000
,
1000
0000
0000
0001
0000
0000
1000
0000
0000
0000
0100
0000
0010
0000
0100
0000
,
0010
0000
0000
0010
0000
0000
0001
0000
0002
0000
0000
0000
0000
0000
0000
0000
,
0000
1003
0100
0010
0001
0100
0010
0100
,
0010
0000
0000
0001
0000
0000
0010
0000
0100
0000
0000
0000
0010
0000
0100
0000
,
1000
0000
0000
0010
0000
0000
0100
0000
0001
0000
0000
0000
0010
0000
0001
0000
,
0010
0000
0000
0010
0000
0000
0010
0000
0100
0000
0000
0100
0000
0000
0100
0000
,
1000
0000
0000
1000
0000
0000
1000
0000
0200
0000
0000
0000
0000
0000
0000
0000
,
0310
0000
0000
0010
0000
0000
0010
0000
0002
0000
0000
0000
0000
0000
0000
0000
,
1003
0000
0000
1000
0000
0000
1000
0000
0020
0000
0000
0000
0000
0000
0000
0000
,
0130
0000
0000
0100
0000
0000
0001
0000
0010
0000
0000
0000
0001
0000
0010
0000
,
0100
0000
0000
0100
0000
0000
0100
0000
0010
0000
0000
0010
0000
0000
0010
0000
,
1001
0000
0000
0100
0000
0000
1001
0000
0000
0000
0001
0000
0010
0000
0001
0000
,
0001
0000
0000
0001
0000
0000
0001
0000
0100
0000
0000
0000
0100
0000
1000
0000
,
0100
0000
0000
0100
0000
0000
0100
0000
0010
0000
0000
0000
0001
0000
0000
0000
,
0010
0000
0000
0010
0000
0000
0010
0000
1000
0000
0000
1000
0000
0000
1000
0000
,
0001
0000
0000
0001
0000
0000
0001
0000
0100
0000
0000
0010
0000
0000
0010
0000
,
0100
0000
0000
0001
0000
0000
1000
0000
0010
0000
0000
0000
0100
0000
0001
0000
,
1000
0000
0000
0100
0000
0000
0100
0000
0010
0000
0000
0001
0000
0000
1000
0000
,
0010
0000
0000
0100
0000
0000
0010
0000
0100
0000
0000
0001
0000
0000
0100
0000
,
0001
0100
0010
1000
0010
0100
0010
0100
,
0001
0000
0000
1000
0000
0000
1000
0000
0100
0000
0000
0000
0010
0000
0100
0000
,
1000
0000
0000
0001
0000
0000
0100
0000
0010
0000
0000
0000
0010
0000
0000
0000
,
1000
0000
0000
0001
0000
0000
1000
0000
0001
0000
0000
1000
0000
0000
0001
0000
,
0100
0000
0000
0010
0000
0000
0100
0000
0010
0000
0000
0100
0000
0000
0010
0000
,
1000
0000
0000
1000
0000
0000
0100
0000
0010
0000
0000
0000
0001
0000
0010
0000
,
0100
0000
0000
0001
0000
0000
0100
0000
0010
0000
0000
0001
0000
0000
1000
0000
,
0001
0000
1000
0001
1000
0000
0001
1000
,
0001
0000
0000
0000
1000
0000
0001
0000
0100
0000
0000
0100
0000
0000
0100
0000
,
0010
0000
0100
0000
0010
0100
0001
0100
,
0010
0000
1000
0000
0100
0000
0010
0000
0100
0000
0000
1000
0000
0000
0010
0000
,
0100
2002
0000
0000
,
0000
3003
0000
0000
0000
0000
0000
0000
0000
0000
0000
0000
0000
0000
0000
0000
0000
0000
0000
0000
0000
0000
0000
0000
0000
0000
0000
0000
0000
0000
0000
0000
0000
0000
0000
0000
0000
0000
0000
0000
0000
0000
0000
0000
0000
0000
0000
0000
0000
0000
0000
0000
0000
0000
0000
0000
0000
0000
0000
0000
0000
0000
0000
0000
0000
0000
0000
0000
0000
0000
0000
0000
0000
0000
0000
0000
0000
0000
0000
0000
0000
0000
0000
0000
0000
0000
0000
0000
0000
0000
0000
0000
0000
0000
0000
0000
0000
0000
0000
0000
0000
0000
0000
0000
0000
0000
0000
0000
0000
0000
0000
0000
0000
0000
0000
0000
0000
0000
0000
0000
0000
0000
0000
0000
0000
0000
0000
0000
0000
0000
0000
0000
0000
0000
0000
0000
0000
0000
0000
0000
0000
0000
0000
0000
0000
0000
0000
0000
0000
0000
0000
0000
0000
0000
0000
0000
0000
0000
0000
0000
0000
0000
0000
0000
0000
0000
0000
0000
0000
0000
0000
0000
0000
0000
0000
0000
0000
0000
0000
0000
0000
0000
0000
0000
0000
0000
0000
0000
0000
0000
0000
0000
;
