#TITLE:Endless Tears;
#SUBTITLE:;
#ARTIST:CLIFF EDGE feat. 中村舞子;
#TITLETRANSLIT:Endless Tears;
#SUBTITLETRANSLIT:;
#ARTISTTRANSLIT:CLIFF EDGE feat. Nakamura Maiko;
#GENRE:SORROWFUL HIPHOP;
#CREDIT:;
#BANNER:Endless Tears (feat. Nakamura Maiko).png;
#BACKGROUND:Endless Tears (feat. Nakamura Maiko)-bg.png;
#LYRICSPATH:;
#CDTITLE:cdtitle.png;
#MUSIC:Endless Tears (feat. Nakamura Maiko).mp3;
#MENUCOLOR:0.4375,0.4375,1,1;
#METERTYPE:DDR X;
#OFFSET:-1.824;
#SAMPLESTART:30.516;
#SAMPLELENGTH:12.000;
#SELECTABLE:YES;
#BPMS:0.000=99.000;
#STOPS:320.000=0.606
;
#BGCHANGES:;

//---------------dance-single - [LEGGENDARIA]----------------
#NOTES:
     dance-single:
     [LEGGENDARIA]:
     Challenge:
     12:
     0.641,0.959,0.386,0.748,0.544:
0000
0000
0000
0000
,
0000
0000
0000
0000
,
0000
0000
0000
0000
,
0000
0000
0000
0000
0000
1000
0010
1000
0001
0010
0100
0010
0000
0000
0010
1000
,
0010
0100
0010
0001
0000
0000
0002
0000
2003
0000
3100
0200
0000
0320
0000
0032
,
0000
0000
0000
0000
0000
1003
0001
0010
0100
0010
0100
1000
0000
0001
0000
0010
,
0100
0010
0100
0010
2000
0000
0000
0000
3010
0000
0001
0100
0000
0010
0000
2000
,
0000
0000
0000
0000
0000
3001
0010
0100
1000
0100
0010
0100
0000
0100
1000
0100
,
0010
0100
0001
0100
0020
0000
0000
0000
2030
0000
0000
3020
0000
0000
0031
0000
,
1000
0000
0000
0001
2000
0000
0000
0000
3001
0000
0000
0000
0002
0000
0000
0000
,
1003
0000
0000
0000
0000
0000
1000
0000
2000
0000
0000
0002
0000
3000
0203
0000
,
0020
0000
0000
0000
0000
0000
0000
0000
0000
0000
0000
0330
1000
0001
1000
0001
,
0100
0000
0000
0200
0000
0000
0310
0000
0200
0000
0000
0310
0000
0000
0010
0000
,
0002
0000
0000
0013
0000
0000
0100
0000
0020
0000
0000
0030
1000
0100
0010
0001
,
0200
0000
0000
0310
0000
0000
0010
0000
2000
0000
0000
3100
0000
0000
0100
0000
,
0020
0000
0000
0031
0000
0000
0010
0000
0200
0000
0000
0000
0000
0000
0301
0000
,
0100
0000
0100
0010
0000
0000
0010
0000
0010
0000
0000
0200
0000
0300
0010
0000
,
0002
0000
0000
0103
0000
0000
0010
0000
1000
0000
0000
0000
2100
0000
0000
0000
,
3001
0000
0012
0000
1003
0000
0000
1000
,
0200
0000
0000
0310
0000
0000
0010
0000
0002
0000
0000
0000
0000
0000
0000
0000
,
1003
0000
0001
0100
1000
0100
0001
0010
1000
0010
0001
0100
0001
0100
0010
1000
,
0010
1000
0001
0001
0100
0100
0010
0010
1000
0000
0000
0000
1000
1000
0001
0001
,
0010
0000
0001
0010
0000
1000
0010
0100
0000
0000
0100
0000
0110
0000
0001
0000
,
0010
0000
0100
0010
0000
0100
0000
0020
0000
0000
0031
0000
0110
0000
0100
0000
,
0100
0000
1000
0100
0001
0000
0010
0000
0100
0000
0010
0000
0100
0000
0010
0000
,
2000
0000
0000
3010
0100
0000
0010
0000
0101
0000
0000
0000
0110
0000
0100
0000
,
1000
0000
0100
1000
0000
0100
0010
1000
0000
0000
1000
0000
0110
0000
0010
0000
,
0110
0000
0100
0010
0000
0100
0000
0002
0000
0000
0013
0000
0110
0000
0100
0000
,
1000
0000
0100
1000
0010
0000
0001
0000
0010
0000
1000
0000
0110
0000
0100
0000
,
2010
0000
0000
0010
3010
0000
0100
0000
0110
0000
0000
0000
0000
0001
1000
0100
,
0010
0001
0100
0010
0100
0000
0000
0000
0010
0010
1000
0001
0000
0000
0000
0001
,
1000
1000
0100
0010
0001
0000
0000
0000
0100
0100
0010
0001
0000
0000
0000
0000
,
1000
0100
0010
0001
0100
0000
0000
0000
0010
0001
0100
0010
0100
0000
0000
0000
,
1000
0100
0010
0000
0001
0100
0010
0000
1000
0100
0010
0001
0100
0000
0000
0000
,
0010
0001
0100
0010
1000
0010
0000
1000
0100
1000
0100
0010
0001
0000
0010
0000
,
0100
0000
0100
0010
0100
0001
1000
0001
1000
0100
0010
0001
0100
0000
0000
0000
,
0100
0001
0100
0010
1000
0001
0100
0010
0100
0010
0100
0010
1000
0000
0000
0010
,
0100
0010
0100
0001
0010
0100
1000
0100
0010
0100
0001
0100
1010
0000
0000
0000
,
0210
0000
0000
0010
0310
0000
0100
0000
0200
0000
0000
0001
0301
0000
1000
0000
,
0200
0000
0300
0100
0010
0000
0001
0000
0020
0000
0000
0000
0130
0010
0100
0010
,
2000
0000
0000
3010
0100
0000
0010
0000
0002
0000
0000
0013
0100
0000
0010
0000
,
0200
0000
0300
0100
0010
0000
0001
0000
0200
0000
0000
0000
0000
0000
1300
0000
,
2000
0000
0100
3100
0010
0000
0100
0000
0002
0000
0000
2003
0010
0000
3010
0000
,
0200
0000
0000
0320
1000
0000
1030
0000
0001
0000
0000
0000
1000
0000
0100
0000
,
0101
0000
0001
0100
1100
0000
0000
1000
,
1020
0000
0000
0100
0000
0000
0100
0030
0200
0000
0000
0000
0302
0000
0103
0000
,
0101
0000
2000
3000
1100
0000
0020
0030
0110
0000
0002
0003
0011
0000
0002
0003
,
0101
0000
2000
3000
1100
0000
1000
0100
0010
0001
0200
0010
0310
0000
0200
0300
,
1100
0000
0020
0030
0110
0000
0002
0003
0011
0000
0200
0300
0101
0000
2000
3000
,
1100
0000
0020
0030
0110
0000
0010
1000
0100
0010
0001
0100
0010
0000
0200
0300
,
0110
0000
2000
3000
1100
0000
0020
0030
0110
0000
0002
0003
0011
0000
0002
0003
,
0101
0000
2000
3000
1100
0000
1000
0100
0010
0001
0100
0010
0100
0000
2000
3000
,
1100
0000
0020
0030
0110
0000
0002
0003
0011
0000
0200
0300
0101
0000
2000
3000
,
1100
0000
2000
3000
1010
0000
2000
0000
3100
0000
0020
0000
0130
0000
0010
0000
,
0010
0000
1000
2000
0000
0000
0000
0000
0000
0000
0000
0000
0000
0000
0000
0000
,
3001
0000
1000
0100
0000
0010
0000
0100
1000
0000
0001
0001
1000
1000
1000
1000
,
0001
0010
0100
0010
0001
0000
0000
1000
0100
0001
0100
1000
1000
0000
0100
0000
,
0010
0000
0100
0010
0000
0000
0001
0000
0001
0010
0001
0100
0100
0000
0000
0001
,
0010
0001
0010
0100
1000
2000
0000
3001
1000
0010
0100
0001
1000
0001
0010
0000
,
0100
0000
0200
0010
0000
0000
0000
1300
1000
0100
0010
0001
0100
0000
0000
0001
,
1000
0001
1000
0010
0100
0000
0000
1000
0100
0100
0001
1000
0010
0000
0000
0000
,
1000
0000
0010
0001
0100
0010
0100
1000
0100
0010
1000
0100
0010
0000
0000
0000
,
0200
0000
0010
0310
0002
0000
0100
0103
0010
0100
0010
1000
0101
0000
0000
0000
,
1000
0100
0010
0002
0000
0203
0000
0310
0000
0010
0100
1000
0200
0000
0000
0000
,
0310
0000
0000
0001
0010
1000
0010
0001
0010
1000
0100
0010
0000
1000
0100
0001
,
0100
0010
1000
0010
0000
0002
0000
0013
2000
0000
3001
0010
0100
1000
0100
0010
,
0100
0001
0100
0010
1000
1000
0010
0010
0100
0001
0100
1000
0000
1000
1000
1000
,
0100
0100
0100
0010
0010
0010
0001
0010
0000
0000
0000
0000
1010
0000
0101
0000
,
0000
0000
2000
0100
3100
0000
0010
0000
0100
0010
0001
1000
0001
0000
0000
0000
,
1000
0001
0100
0010
0001
0100
0010
1000
0001
0010
0100
0001
0100
0010
0001
1000
,
0100
0000
1000
0100
0000
0010
0000
0010
0100
0000
0100
0010
0000
0000
0000
0000
,
0000
1000
0001
0100
0010
0001
1000
0200
0000
0000
0000
0000
0000
0000
0000
0000
,
2300
0000
0000
0100
0000
0000
0100
0000
3020
0000
0000
0100
0000
0000
0100
0000
,
0230
0000
0000
0001
0000
0000
0001
0000
0301
0000
0000
0000
1000
0100
0010
0001
,
0002
0000
0000
0010
0000
0000
0010
0000
0203
0000
0000
0010
0000
0000
0010
0000
,
0320
0000
0000
1000
0000
0000
1000
0000
1030
0000
0000
0000
0000
0000
0001
0000
,
0100
0000
0010
0010
0000
0000
0100
0000
0200
0000
0000
2300
0000
0000
3100
0000
,
0020
0000
0000
0032
0000
0000
1003
0000
0100
0000
0000
0000
0200
0000
0000
0000
,
0310
0000
0002
0000
1003
0000
0000
2000
,
3200
0000
0000
0320
0000
0000
0230
0000
0020
0000
0000
0000
0000
0000
0000
0000
,
0000
0330
0100
0000
0100
0000
0010
0000
0001
0000
0001
0000
0001
0000
1000
0000
0000
0000
0000
0000
1000
0000
0100
0000
0010
0000
0100
0000
1000
0000
1000
0000
,
0000
0000
0020
0000
1030
0000
1000
0100
0000
0010
0000
0002
0000
0000
0000
0000
,
0000
0013
0010
0100
0010
0001
0100
0010
0000
0002
0000
0013
0100
1000
0100
0010
,
0200
0000
0000
0000
0310
0000
1000
0100
0000
0010
0000
0200
0000
0000
0000
0000
,
0000
0301
0100
1000
0010
0010
0001
0010
0000
1000
1000
0100
0010
0100
0100
0001
,
0002
0000
0000
0000
0103
0000
0000
0100
1000
0000
0100
0000
1000
0000
0000
2000
,
0010
0000
0100
3000
0110
0000
0000
0002
0100
0000
0010
0003
1001
0000
0000
0000
,
0000
0000
1100
0000
2000
0000
0000
3010
0100
0000
0100
0000
0220
0000
0000
0330
,
0220
0330
0202
0303
0110
0000
2200
3300
1010
0000
2002
3003
1100
0000
2002
3003
,
0101
0000
2200
3300
1010
0000
0022
0033
0101
0000
1000
0100
0010
0001
0200
0010
,
0310
0000
2020
3030
1001
0000
2002
3003
0110
0000
0220
0330
1001
0000
0202
0303
,
1100
0000
2020
3030
0011
0000
1010
0000
0101
0000
0010
0100
0010
1000
0100
0010
,
0110
0000
2200
3300
0110
0000
0022
0033
0101
0000
2002
3003
0101
0000
0202
0303
,
0011
0000
2200
3300
1100
0000
2002
3003
1001
0000
1000
0100
0010
0001
0100
0010
,
0110
0000
2020
3030
0110
0000
0202
0303
0011
0000
2002
3003
0101
0000
0202
0303
,
1100
0000
0220
0330
0110
0000
0202
0303
2001
0000
3200
0000
0320
0000
0031
0000
,
1001
0000
0001
0000
1000
0000
2000
0010
3010
0000
0200
0000
0310
0000
0002
0000
,
0013
0200
0310
2000
3001
0200
0301
0020
,
0130
0100
0000
0000
0010
0000
0002
0000
1003
0000
0020
0000
0130
0000
0002
0000
,
1003
0200
0310
0200
1300
0002
0013
0200
,
0310
0001
1000
2000
3010
0200
0301
0020
,
0031
0210
0301
1002
0103
0200
0010
0302
,
0010
0203
0001
0320
1000
2030
0001
3200
,
0010
0320
0001
0230
1000
2300
0001
3002
,
0010
0103
0020
0000
0000
0000
0000
0000
,
0000
0000
0000
0030
;

//---------------dance-single - ----------------
#NOTES:
     dance-single:
     :
     Beginner:
     3:
     0.118,0.180,0.004,0.045,0.000:
0000
0000
0000
0000
,
0000
0000
0000
0000
,
0000
0000
0000
0000
,
0000
0000
0000
0000
,
0000
0000
0000
0000
,
0000
0000
0000
0000
,
0000
0000
0000
0000
,
0000
0000
0000
0000
,
0000
0000
0000
0000
,
0000
0000
0000
0000
,
0000
0000
0000
0000
,
2000
0000
0000
0000
,
3000
0000
0001
0000
,
0001
0000
0001
0000
,
0100
0000
0100
0000
,
0100
0000
0020
0000
,
0030
0000
0010
0000
,
0010
0000
1000
0000
,
0001
0000
0001
0000
,
1000
0000
0002
0000
,
0003
0000
0000
0000
,
0000
0000
0000
0000
,
1000
0000
0001
0000
,
0001
0000
0001
0000
,
1000
0000
0001
0000
,
2000
0000
3000
0000
,
1000
0000
0010
0000
,
0010
0000
0100
0000
,
0100
0000
0001
0000
,
0002
0000
0003
0000
,
1000
0000
1000
0000
,
0100
0000
0100
0000
,
0010
0000
0010
0000
,
0001
0000
0001
0000
,
1000
0000
0001
0000
,
1000
0000
0001
0000
,
0100
0000
0010
0000
,
0100
0000
0001
1001
,
1000
0000
1000
0000
,
1000
0000
0001
0000
,
0100
0000
0010
0000
,
0010
0000
1000
0000
,
0001
0000
0001
0000
,
2000
0000
3000
0000
,
0001
0000
0001
0000
,
0001
0000
0000
0000
,
1000
1000
0001
0001
,
0100
0100
0010
0010
,
1000
1000
0100
0100
,
0010
0010
0001
0001
,
1000
1000
0001
0001
,
0100
0100
0010
0010
,
1000
1000
0001
0001
,
1000
1000
0001
1000
,
0001
0000
0000
0000
,
0000
0000
0000
0000
,
0100
0000
0100
0000
,
0100
0000
0010
0000
,
0010
0000
0010
0000
,
2000
0000
0000
0000
,
3000
0000
0001
0000
,
0001
0000
1000
0000
,
0100
0000
0010
0000
,
0001
0000
0000
0000
,
1000
0000
1000
0000
,
0001
0000
1000
0000
,
0001
0001
1000
1000
,
0001
1000
0000
0010
,
0000
0010
0010
0000
,
0100
0100
0100
0000
,
0010
0000
1000
0000
,
0002
0000
0000
0000
,
0003
0000
1000
0000
,
0001
0000
1000
0000
,
1000
0000
1000
0000
,
1000
0000
0000
0000
,
0010
0000
0010
0000
,
0100
0000
0100
0000
,
0010
0000
0010
0000
,
2000
0000
0000
0000
,
3000
1000
0100
0010
,
0001
0001
0000
0000
,
0000
0001
0010
0100
,
1000
1000
0000
0000
,
0000
1000
1000
0001
,
0001
1000
0000
0000
,
0000
0020
0000
0130
,
0000
0200
0000
0310
,
0000
0010
0010
1000
,
1000
0001
0001
0100
,
0100
0001
0001
0010
,
0010
0001
0001
1000
,
1000
0100
0100
1000
,
1000
0001
0001
0100
,
0100
0010
0010
0100
,
0100
0001
0001
1000
,
0001
1000
0000
0100
,
0000
0010
0000
0001
,
0000
1000
0000
0001
,
0000
1000
0000
0001
,
0000
0100
0000
0100
,
0000
0010
0000
0010
,
0000
1000
0000
0001
,
0000
1000
0000
0002
,
0000
0000
0000
0000
,
0000
0000
0000
0003
;

//---------------dance-single - ----------------
#NOTES:
     dance-single:
     :
     Easy:
     5:
     0.163,0.200,0.004,0.072,0.000:
0000
0000
0000
0000
,
0000
0000
0000
0000
,
0000
0000
0000
0000
,
0000
0000
0000
0000
,
0000
0000
0000
0000
,
0000
0000
0000
0000
,
0000
0000
0000
0000
,
0000
0000
0000
0000
,
0000
0000
0000
0000
,
0000
0000
0000
0000
,
0000
0000
0000
0000
,
0002
0000
0000
1000
,
1003
1000
0100
0100
,
0010
0010
0001
0000
,
1000
0001
0100
0010
,
1000
0100
0010
0000
,
0001
0001
1000
1000
,
0002
0000
1003
2000
,
3001
0002
1003
0000
,
1000
0100
0020
0000
,
0031
0000
0000
0000
,
0000
0000
0000
0000
,
1000
0000
1000
0000
,
0001
0000
0001
0000
,
1000
0000
1000
0000
,
0010
0000
0010
0000
,
0100
0000
0001
0000
,
1000
0000
1000
0000
,
0100
0000
0100
0000
,
0020
0000
0031
0000
,
0001
0001
1000
0000
,
1000
1000
0100
0000
,
0010
0010
0001
0000
,
1000
0001
0100
0000
,
0001
1000
0100
0000
,
0010
0010
0100
1000
,
0001
0000
1000
0000
,
1000
0100
0010
1001
,
0001
0000
0001
0000
,
0001
0000
1000
0000
,
0100
0100
0010
0010
,
0001
0001
1000
0000
,
0001
0000
1000
0000
,
0002
0000
1003
2000
,
3100
0020
0031
0000
,
0002
0000
2000
0000
,
3003
0001
0010
0010
,
0100
0100
1000
0100
,
0010
0010
0001
0001
,
1000
1000
0001
0010
,
0100
0100
1000
1000
,
0100
0100
0010
0010
,
0100
0100
1000
1000
,
0001
0001
1000
0100
,
0020
0000
0000
0000
,
0031
0000
0000
0000
,
0001
1000
1000
0100
,
0010
0010
0001
0001
,
1000
0001
0100
0010
,
2000
0000
0000
0000
,
3001
0001
0010
0010
,
0100
0100
1000
1000
,
0001
0100
0010
0010
,
1000
1000
0100
0100
,
0100
0100
0010
0010
,
0001
0001
1000
0000
,
0001
0001
1000
1000
,
0010
0100
0001
0000
,
0001
1000
1000
0010
,
0100
0100
0010
0010
,
0100
0000
0001
0000
,
2000
0000
0000
0000
,
3001
0000
0001
0000
,
0001
0000
0001
0000
,
0010
0000
0010
0000
,
0010
0000
0000
0000
,
0100
0000
0100
0000
,
0100
0000
0000
0000
,
1000
0000
1000
0000
,
2000
0000
0002
0000
,
3003
1000
0001
0100
,
0100
0010
0010
0100
,
0100
0001
0001
0010
,
0010
0001
0001
1000
,
0001
1000
1000
0100
,
0100
0010
0000
0001
,
0000
1000
0001
1000
,
0000
0020
0000
0130
,
0000
0001
0001
1000
,
1000
0001
0001
0100
,
0100
0010
0010
1000
,
1000
0001
0001
0010
,
0010
0001
0001
1000
,
1000
0100
0100
1000
,
1000
0010
0010
0100
,
0100
0001
0001
0010
,
0010
0001
1000
1000
,
1000
0001
0001
0100
,
0010
0000
0000
0010
,
1000
0100
0010
0001
,
0001
1000
0000
0001
,
1000
0001
0001
0100
,
0100
0010
0010
1000
,
1000
0001
1000
1000
,
0002
2000
0000
0000
,
0000
0000
0000
0000
0000
0000
0000
0000
0000
0000
0000
0000
0000
0000
0000
0000
0000
0000
0000
0000
0000
0000
0000
0000
0000
0000
0000
0000
0000
0000
0000
0000
0000
0000
0000
0000
0000
0000
0000
0000
0000
0000
0000
0000
0000
0000
0000
0000
0000
0000
0000
0000
0000
0000
0000
0000
0000
0000
0000
0000
0000
0000
0000
0000
0000
0000
0000
0000
0000
0000
0000
0000
0000
0000
0000
0000
0000
0000
0000
0000
0000
0000
0000
0000
0000
0000
0000
0000
0000
0000
0000
0000
0000
0000
0000
0000
0000
0000
0000
0000
0000
0000
0000
0000
0000
0000
0000
0000
0000
0000
0000
0000
0000
0000
0000
0000
0000
0000
0000
0000
0000
0000
0000
0000
0000
0000
0000
0000
0000
0000
0000
0000
0000
0000
0000
0000
0000
0000
0000
0000
0000
0000
0000
0000
0000
3003
0000
0000
0000
0000
0000
0000
0000
0000
0000
0000
0000
0000
0000
0000
0000
0000
0000
0000
0000
0000
0000
0000
0000
0000
0000
0000
0000
0000
0000
0000
0000
0000
0000
0000
0000
0000
0000
0000
0000
0000
0000
0000
0000
0000
0000
0000
;

//---------------dance-single - ----------------
#NOTES:
     dance-single:
     :
     Medium:
     7:
     0.218,0.280,0.004,0.147,0.000:
0000
0000
0000
0000
,
0000
0000
0000
0000
,
0000
0000
0000
0000
,
0000
0000
0001
0000
,
1000
0000
0100
0000
,
0010
0000
0001
0000
,
0001
0000
1000
0000
,
0001
0000
0100
0000
,
0100
0000
0010
0000
,
0010
0000
1000
0000
,
0001
0000
1000
0000
,
0002
0000
0000
0000
,
0003
0001
0001
0000
,
1000
0000
1000
0000
1000
0000
1000
0100
,
1000
0001
0001
0001
,
0010
0010
0002
0000
,
1003
0100
1000
0010
,
0200
0302
1003
0200
,
0310
0020
0031
0000
,
1000
1000
0002
0000
,
1003
0001
0001
0100
,
0100
0000
0010
0000
0010
0000
1000
0100
,
0010
0010
0001
0001
,
0100
0000
0100
0000
0100
0010
1000
0000
,
1000
0100
0010
0001
,
0002
1003
1000
0100
,
0010
0010
0001
0001
,
1000
0001
0100
0000
,
0010
0010
1000
0001
,
2000
3001
0001
0000
,
1000
0100
0010
0000
,
0001
0010
0100
0000
,
1000
1000
0001
0001
,
1000
0100
1000
0001
,
0010
0001
0100
0001
,
1000
0010
0100
0001
,
1000
1000
0001
1000
,
0001
0001
1000
1001
,
0001
0001
1000
1000
,
0100
0100
0010
0000
,
0001
0001
1000
1000
,
0001
1000
0001
0000
,
0100
0100
0010
0010
,
1000
0001
1000
2000
,
3001
0002
1003
0000
,
2000
0000
3100
0000
0020
0000
0031
1000
,
0001
0000
0000
0001
1000
0000
0000
1000
,
0001
0000
0000
0000
0100
0100
0100
0000
,
0000
0010
0100
0000
0000
0100
0010
0000
,
0000
0010
0100
0000
0001
0001
0001
1000
,
0001
0000
0000
1000
0001
0000
0000
1000
,
0001
0000
0000
0000
0100
0100
0100
0000
,
0001
0000
0000
1000
0001
0000
0000
0001
,
0010
0000
0000
0010
0001
1000
0001
0000
,
2000
0000
0000
0000
,
3001
0000
0000
0000
,
0001
1000
0001
0000
1000
0100
1000
0000
,
0001
0010
0001
0000
0100
0010
0100
0000
,
0010
0010
1000
0001
,
2000
0000
3001
0000
,
0001
0010
0001
0000
1000
0100
1000
0000
,
0001
0100
0001
0000
1000
0100
1000
0000
,
0010
0000
0010
0000
1000
0100
1000
0000
,
0001
0100
0001
0010
,
0001
1000
1000
0001
,
0100
0100
0010
0000
,
1000
0010
1000
0010
0100
0010
0100
0010
,
0100
0001
0010
0001
0000
0000
0001
0001
,
0000
1000
1000
0000
0001
0001
0000
0000
,
0100
0000
0100
0000
0010
0100
0010
0000
,
1000
1000
0001
0000
,
0002
0000
0000
0000
,
2003
0000
0000
0000
,
3200
0000
0000
0000
,
0320
0000
0000
0000
,
0032
0000
0000
0000
,
0023
0000
0000
0000
,
0230
0000
0000
0000
,
2300
0000
0000
0000
,
3002
0000
2000
0000
,
3003
0000
1000
0100
1000
0000
0001
0010
,
0001
1000
1000
0001
,
0000
0000
1000
0100
1000
0000
0001
0100
,
0001
1000
0000
0000
,
0000
0000
1000
0010
1000
0000
0001
0010
,
0002
1003
1000
0100
,
0020
0031
0002
0103
,
0000
0001
1000
0002
,
1003
0100
1000
0000
0001
0010
0001
0000
,
1000
0010
1000
0000
0001
0100
0001
0000
,
1000
0001
1000
0000
0001
1000
0001
0000
,
1000
0100
0010
0000
0001
0010
0100
0000
,
1000
0100
1000
0000
0001
0010
0001
0000
,
1000
0001
1000
0000
0001
1000
0001
0000
,
0100
0010
0100
0000
0010
1000
0010
0000
,
0100
0001
0100
0000
0001
1000
0001
1000
,
1000
0002
0000
1003
,
0000
0200
0000
0310
,
0000
0002
0000
1003
,
0000
2000
0000
3001
,
0000
0002
0000
1003
,
0000
2000
0000
3001
,
0000
0020
0000
0130
,
0000
0200
0000
0310
,
0002
2000
0000
0000
,
0000
0000
0000
3003
;

//---------------dance-single - ----------------
#NOTES:
     dance-single:
     :
     Hard:
     9:
     0.377,0.460,0.057,0.299,0.176: // measure 1
0000
0000
0000
0000
,  // measure 2
0000
0000
0000
0000
,  // measure 3
0000
0000
0000
0000
,  // measure 4
0000
0000
0000
0000
0000
0000
0000
0000
1000
0001
1000
0001
0000
0000
0000
0000
,  // measure 5
0100
0010
0100
0010
0000
0000
0000
0000
0000
0000
0000
0000
0000
0000
0000
0000
,  // measure 6
0000
0000
0000
0000
0000
0000
0000
0000
1000
0001
1000
0001
0000
0000
0000
0000
,  // measure 7
0001
1000
0001
1000
0000
0000
0000
0000
0000
0000
0000
0000
0000
0000
0000
0000
,  // measure 8
0000
0000
0000
0000
0000
0000
0000
0000
0010
0100
0010
0100
0000
0000
0000
0000
,  // measure 9
0010
0100
0010
0100
0000
0000
0000
0000
0000
0000
0000
0000
0000
0000
0000
0000
,  // measure 10
0000
0002
1003
2000
,  // measure 11
3001
0000
0000
0000
0000
0000
0001
0000
2000
0000
0000
3001
0000
0000
0100
0000
,  // measure 12
0020
0000
0000
0000
,  // measure 13
1030
0000
0000
1000
0000
0000
1000
0000
0100
0000
0000
0100
0000
0000
0100
0000
,  // measure 14
0010
0000
0000
0010
0000
0000
0010
0000
0001
0000
0000
0000
0000
0000
0000
0000
,  // measure 15
0001
0000
0000
1000
0000
0000
1000
0000
0001
0000
0000
0001
0000
0000
0001
0000
,  // measure 16
0100
0000
0000
0100
0000
0000
0010
0000
2000
0000
0000
0000
0000
0000
0000
0000
,  // measure 17
3001
0000
1000
0000
0000
0000
1000
0000
0200
0000
0000
0310
0000
0000
0010
0000
,  // measure 18
0020
0000
0000
0031
0000
0000
0001
0000
0001
0000
0000
0000
2000
0000
0000
0000
,  // measure 19
3001
0000
0002
0000
0103
0000
0000
0100
,  // measure 20
0020
0000
0000
1030
0000
0000
1000
0000
0200
0000
0000
0000
0000
0000
0000
0000
,  // measure 21
0320
0000
0000
0000
,  // measure 22
0000
0000
0000
0000
0000
0000
0000
0000
0031
0000
0000
0000
1000
0001
1000
0001
,  // measure 23
1000
0000
0000
1000
0000
0000
1000
0000
0000
0000
0010
0000
0100
0000
0001
0000
,  // measure 24
0100
0000
0000
0001
0000
0000
0001
0000
0000
0000
0001
0000
0100
0000
0000
0000
,  // measure 25
1000
0000
0000
1000
0000
0000
1000
0000
0000
0000
0100
0000
0010
0000
0100
0000
,  // measure 26
0002
0000
0000
0000
0000
0003
0100
0000
1000
0000
0000
0000
0000
0000
1000
0000
,  // measure 27
0100
0000
0000
0100
0000
0000
0100
0000
0000
0000
1000
0000
0010
0000
1000
0000
,  // measure 28
0010
0000
0000
0100
0000
0000
0100
0000
0000
0000
0100
0000
0001
0000
0100
0000
,  // measure 29
0001
0100
0010
0100
0010
1000
0100
0010
,  // measure 30
0200
0000
0000
0301
0100
0000
0000
0000
,  // measure 31
1000
0100
0010
0000
0001
0001
0001
0000
,  // measure 32
1000
0100
1000
0000
0010
0010
0010
0000
,  // measure 33
0100
0001
0100
0000
0001
0010
0001
0000
,  // measure 34
1000
0100
1000
0010
0100
0100
0010
0000
,  // measure 35
0100
0001
0100
0000
0001
0010
0001
0000
,  // measure 36
1000
0100
1000
0000
0010
0100
0010
0000
,  // measure 37
1000
0000
0100
0000
1000
0100
1000
0000
0001
0000
0100
0000
0010
0000
0000
0000
,  // measure 38
0010
0000
0010
0000
0100
0000
0001
0000
0100
0001
0100
0000
1001
0000
0000
0000
,  // measure 39
2000
0000
0000
3100
0000
0000
0010
0000
0200
0000
0000
0310
0000
0000
0100
0000
,  // measure 40
0002
0000
0000
0103
0000
0000
1000
0000
0001
0000
0000
0000
0000
0000
0000
0000
,  // measure 41
2000
0000
0000
3001
0000
0000
0010
0000
0200
0000
0000
0310
0000
0000
0100
0000
,  // measure 42
0020
0000
0000
1030
0000
0000
0010
0000
0002
0000
0000
0000
0000
0000
1003
0000
,  // measure 43
0100
0000
0010
0100
0000
0000
0001
0000
2000
0000
0000
3010
0000
0000
0100
0000
,  // measure 44
2000
0000
0000
3010
0000
0000
0100
0000
0010
0000
0000
0000
2000
0000
0000
0000
,  // measure 45
3100
0000
0000
0000
0200
0000
0000
0300
0010
0000
0000
0000
0000
0000
0010
0000
,  // measure 46
0002
0000
0000
1003
0000
0000
0001
0000
0100
0000
0000
0000
0010
0000
0100
0000
,  // measure 47
0010
1000
1000
0100
0010
0001
0001
0100
,  // measure 48
0010
1000
1000
0010
0100
0100
0001
0100
,  // measure 49
0010
1000
1000
0100
0100
0010
0010
0001
,  // measure 50
0100
1000
1000
0001
0100
0010
1000
0100
,  // measure 51
0001
0100
0100
1000
0010
0001
0001
0010
,  // measure 52
0100
0010
0010
1000
0100
0010
1000
0010
,  // measure 53
0100
0001
0001
0100
1000
0010
0010
1000
,  // measure 54
0100
0010
0010
1000
0010
0001
1000
0100
,  // measure 55
2000
0000
0000
0000
,  // measure 56
3001
0000
0000
0000
0000
0000
0000
0000
0000
0000
0000
0000
1000
0001
1000
0001
,  // measure 57
0100
0010
0100
0010
0100
0000
0000
0010
0100
0010
0100
0010
0100
0000
1000
0000
,  // measure 58
0100
0000
0010
0100
0000
0000
0100
0000
0010
0100
0010
0100
0010
0000
0000
1000
,  // measure 59
0010
0001
0100
0000
0010
0100
0010
0000
,  // measure 60
0200
0000
0301
0000
,  // measure 61
0001
0100
0001
0100
0001
0000
0000
0000
1000
0100
1000
0100
1000
0000
0000
0000
,  // measure 62
0010
0100
0010
0000
0100
0001
0100
0000
,  // measure 63
0001
0010
0010
0001
1000
0001
1000
0000
,  // measure 64
0010
0100
0010
0100
0100
0001
1000
0000
,  // measure 65
0001
0000
0100
0100
0010
0100
0010
0000
,  // measure 66
1000
0100
1000
0001
0100
0100
0000
0010
,  // measure 67
1000
0000
0100
0000
0010
0100
0010
0000
0100
0000
0010
0000
0010
0000
1000
0000
,  // measure 68
0001
0000
0100
0000
0001
0100
0001
0100
0000
0000
0000
0000
0100
0000
0100
0000
,  // measure 69
0000
0000
0010
0000
0010
0000
1000
0000
0010
0100
0010
0000
0001
0000
0000
0000
,  // measure 70
1000
0010
1000
0000
0010
0000
0100
0000
0010
0100
0010
0000
0100
0000
0001
0000
,  // measure 71
0100
0000
0010
0100
0000
0000
0010
0000
0100
0000
0100
0000
0001
0000
0000
0000
,  // measure 72
0000
0001
0100
0000
1000
0000
0001
0000
0000
0000
0000
0000
0000
0000
0000
0000
,  // measure 73
2000
0100
3020
0100
,  // measure 74
0230
0001
0301
0000
,  // measure 75
0002
0100
2003
0010
,  // measure 76
3002
0000
0100
0000
1003
0000
0000
1000
,  // measure 77
0100
0000
0010
0100
0000
0000
0001
0000
0200
0000
0000
0000
0010
0000
0000
0000
,  // measure 78
0302
1000
0103
2000
,  // measure 79
3100
0000
0020
0000
0031
0000
0000
1000
,  // measure 80
2000
3002
2000
0000
,  // measure 81
3003
0000
0000
0000
1000
0010
1000
0010
0000
0000
0100
0010
0100
0010
0100
0010
,  // measure 82
0000
0000
1000
0000
0100
0000
0010
0100
0000
0001
0000
0200
0000
0000
0000
0000
,  // measure 83
0000
0300
1000
0000
1000
0000
0100
0010
0000
0000
0100
0000
0010
0100
0010
0100
,  // measure 84
0020
0000
0000
0000
0031
0000
0100
0010
0000
0100
0000
0020
0000
0000
0000
0000
,  // measure 85
0000
0030
1000
0000
0010
0100
0010
0100
0000
0000
0001
0000
0100
0001
0100
0001
,  // measure 86
2000
0000
0000
0000
3200
0000
0000
0310
0000
0000
0100
0000
0010
0000
0000
1000
,  // measure 87
0020
0000
0000
0000
0100
0000
0000
0030
0200
0000
0000
0000
1300
0000
0000
0000
,  // measure 88
0000
0000
1000
0000
0002
0000
0000
0203
0000
0000
0310
0000
2000
0000
0000
0000
,  // measure 89
3010
0100
0010
0100
0110
1000
0100
0001
,  // measure 90
0101
0000
1000
0000
0010
0000
0100
0000
0110
0000
1000
0000
0100
0010
0100
0010
,  // measure 91
0100
0010
1000
0100
0110
0001
0010
0100
,  // measure 92
0110
0000
1000
0000
0100
0000
0001
0000
1001
0000
0100
0000
0010
0000
0100
0010
,  // measure 93
0100
0010
1000
0010
0110
1000
0001
0100
,  // measure 94
0101
0000
1000
0000
0010
0000
0100
0000
0110
0000
1000
0000
0100
0010
0100
0010
,  // measure 95
0100
1000
0100
0010
0110
0001
0010
0100
,  // measure 96
0110
1000
0100
0001
0101
1000
0100
0001
,  // measure 97
0101
0000
1000
0000
0010
0000
0100
0020
0000
0000
2030
0000
0000
0000
3200
0000
,  // measure 98
0000
0320
0000
0032
0000
2003
0000
3010
,  // measure 99
0100
0010
0000
0000
0100
0000
0020
0000
0000
0000
2030
0000
0000
0000
3200
0000
,  // measure 100
0000
0320
0000
0032
0000
2003
0000
3002
,  // measure 101
0000
0000
0103
0000
0010
0000
0200
0000
0000
0300
0020
0000
0000
0030
2000
0000
,  // measure 102
0000
3001
1001
0002
0000
0203
0000
0320
,  // measure 103
0000
2030
0000
3200
0000
0320
0000
0032
,  // measure 104
0000
0000
2003
0000
0000
0000
3200
0000
0000
0300
0020
0000
0000
0000
0032
0000
,  // measure 105
0000
1003
0002
0000
0000
0000
0000
0000
,  // measure 106
0000
0000
0000
0003
;
