#TITLE:ENERGY;
#SUBTITLE:ビビッドレッド・オペレーション OP;
#ARTIST:earthmind;
#TITLETRANSLIT:ENERGY;
#SUBTITLETRANSLIT:Vividred Operation OP;
#ARTISTTRANSLIT:earthmind;
#GENRE:VIVIDRED ROCK;
#CREDIT:;
#BANNER:ENERGY.png;
#BACKGROUND:ENERGY-bg.png;
#LYRICSPATH:;
#CDTITLE:cdtitle.png;
#MUSIC:ENERGY.mp3;
#METERTYPE:DDR X;
#MENUCOLOR:0,0,1,1;
#OFFSET:-0.244;
#SAMPLESTART:56.710;
#SAMPLELENGTH:12.000;
#SELECTABLE:YES;
#BPMS:0.000=169.000,112.000=84.500,132.000=169.000;
#STOPS:;
#BGCHANGES:;

//---------------dance-single - ----------------
#NOTES:
     dance-single:
     :
     Hard:
     12:
     0.546,0.800,0.187,0.253,0.105: // measure 1
0000
0000
0000
0000
,  // measure 2
0000
0000
0000
0000
,  // measure 3
0000
0000
0000
0000
,  // measure 4
0000
0000
0000
0000
,  // measure 5
0001
0010
0001
0010
0100
0010
0100
0010
,  // measure 6
0000
1000
0000
0010
0000
0000
0000
0000
,  // measure 7
2000
0000
3100
0000
0010
0000
0001
0100
,  // measure 8
0000
0001
0100
0000
0010
0000
0100
0000
,  // measure 9
0110
0000
1000
0001
1000
0001
1000
1000
,  // measure 10
0000
0100
0010
0000
0100
0010
0100
0000
,  // measure 11
0110
0000
0001
0000
0010
0001
0010
0001
,  // measure 12
0000
0100
0010
0000
1000
0100
0010
0000
,  // measure 13
0100
0001
0100
0000
0100
0010
1000
0010
,  // measure 14
0000
1000
0100
0000
0010
0000
0001
0000
,  // measure 15
0100
0001
0100
0000
0010
0001
0010
0100
,  // measure 16
0000
0100
0010
0000
1000
0000
0101
0000
,  // measure 17
0100
0010
0100
0010
1000
0100
0010
0001
,  // measure 18
0000
0100
0000
0010
0000
0000
0000
0000
,  // measure 19
0001
0010
0001
0000
1000
0100
1000
0000
,  // measure 20
0010
0100
0010
0000
0200
0000
0310
0000
,  // measure 21
0100
0010
0100
0000
1000
0100
1000
0100
,  // measure 22
0000
0010
0001
0000
0010
0000
0000
0000
,  // measure 23
0001
0010
0001
0000
0100
1000
0100
0010
,  // measure 24
0000
0100
0010
0000
0100
0000
0001
0000
,  // measure 25
0010
0001
0010
0001
0010
0000
0100
0010
,  // measure 26
0000
0100
1000
0100
0000
0000
0010
0000
,  // measure 27
1000
0000
0001
0000
0100
0010
0100
0000
,  // measure 28
1000
0100
0010
0001
1000
0100
0010
0001
,  // measure 29
2000
0000
0000
0000
0000
0000
0000
0100
0100
0000
0000
0000
0000
0000
0000
0000
,  // measure 30
3002
0000
0000
0000
0000
0000
0000
0100
0100
0000
0000
0000
0000
0000
0000
0000
,  // measure 31
1003
0000
0010
0000
0100
0000
0010
0000
1000
0001
0100
0000
0010
0000
0100
0000
,  // measure 32
1000
0100
0010
0001
0100
1000
0100
0010
0100
1000
0100
0001
0100
1000
0010
0001
,  // measure 33
1000
0010
1000
0010
0100
0010
0100
0010
0001
0010
0001
0010
0100
1000
0100
0010
,  // measure 34
0001
1000
0100
0010
0001
0100
0010
2000
,  // measure 35
0000
3200
0000
0320
0000
0130
0001
0000
,  // measure 36
1000
0100
0001
0100
0010
0001
0010
0200
,  // measure 37
0000
0320
0000
0032
0000
1003
0001
0000
,  // measure 38
0100
1000
0100
0010
0001
0100
0010
0011
,  // measure 39
0000
0100
0001
0100
0000
0001
0100
0020
,  // measure 40
0000
0130
0010
0001
0200
0000
1300
0020
,  // measure 41
0000
1030
0200
0000
0310
0000
0100
0000
,  // measure 42
0110
1000
0100
0001
0100
0010
0001
0020
,  // measure 43
0000
0032
0000
0203
0000
0301
0100
0000
,  // measure 44
1000
0100
0010
1000
0100
0010
0100
0002
,  // measure 45
0000
0203
0000
0310
0000
1000
0001
0010
,  // measure 46
0000
0000
0001
0000
1000
0010
0001
1001
,  // measure 47
0000
0100
0001
0100
0000
0010
0001
0000
,  // measure 48
0200
0301
2000
3010
,  // measure 49
1002
0013
2001
3100
,  // measure 50
0010
0000
0100
0010
0100
1000
0100
0110
,  // measure 51
0000
0010
0100
0000
0101
0100
0001
0000
,  // measure 52
0101
0000
1000
0000
0100
0010
1000
1100
,  // measure 53
0000
0100
0010
0000
1000
0100
0010
0000
,  // measure 54
0110
0000
0011
0000
0100
0010
0100
0110
,  // measure 55
0000
1000
0010
0000
0100
1000
0100
0010
,  // measure 56
1000
1010
0000
0000
0000
0000
0001
0011
;

//---------------dance-single - ----------------
#NOTES:
     dance-single:
     :
     Challenge:
     15:
     0.715,1.000,0.539,0.297,0.297:
0000
0000
0000
0000
,
0000
0000
0000
0000
,
0000
0000
0000
0000
,
0000
0000
0000
0000
,
0001
0100
1000
0100
0010
0001
0010
0200
,
0000
0320
0000
2030
0000
3000
0100
0000
,
0010
0100
1000
0000
0100
1000
0100
0010
,
0100
1000
0100
0000
0010
0000
0110
0000
,
0110
0000
0000
0000
1000
0000
0100
0001
0010
0000
0001
0000
0100
0000
0101
0000
,
0000
0100
0001
1000
0110
0010
0011
0000
,
0011
0000
0000
0000
0100
0000
0001
1000
0010
0000
0010
0000
0100
0000
1100
0000
,
0000
1000
0100
0010
0110
0010
1010
0000
,
1000
0100
1000
0000
1000
0100
0010
0001
,
0100
0010
0001
0000
0001
0000
0100
0000
,
0001
0100
1000
0000
1000
0100
0010
1000
,
0001
0000
1000
0000
0001
0000
0000
0000
0001
0000
0000
0100
0010
0000
0000
0000
,
0100
0001
0100
1000
0100
0001
0100
0020
,
0000
0032
0000
0013
0000
0100
0100
0000
,
0010
0100
1000
0000
1000
0100
0010
1001
,
0000
0000
0100
0000
0001
0000
0100
0000
0001
0010
0100
0010
1000
0010
1000
0001
,
0010
0000
0001
0000
0110
0000
0000
0010
0100
0000
0001
0000
0100
0000
1000
0000
,
0000
0010
0100
0000
1001
0000
0100
0000
,
0001
0010
0100
0100
1000
0100
0010
0001
,
0010
0100
0001
0010
0001
0000
0010
0000
,
0100
1000
0100
0001
1000
0010
1000
0011
,
0000
0001
1000
1010
0000
0010
1000
0010
,
1000
0010
1000
0100
1000
0100
0010
0001
,
1000
0100
0010
0001
1100
1100
0011
0011
,
2002
0000
0000
0000
3000
0000
0000
0010
0020
0000
0000
0000
0030
0000
0000
0000
,
2000
0000
0000
0000
0003
0000
0000
0010
0020
0000
0000
0000
0030
0000
0000
0000
,
3001
0000
0100
0000
0010
0000
0100
0000
0001
1000
0010
0001
0100
1000
0010
0100
,
0011
0010
0100
1000
0010
0001
0010
0100
0010
0001
0010
1000
0010
0001
0100
1000
,
0101
0000
0100
0000
0001
0000
0110
0000
0010
0000
0100
0000
0110
0000
0110
0000
1000
0000
1100
0000
0100
0000
0100
0000
0010
0000
0001
0100
0010
1000
0100
0010
,
1000
0000
0001
0000
0010
0000
0100
0001
1000
0000
0010
0000
0100
0000
0002
0000
,
0000
0023
0000
0230
0000
0310
1000
0000
,
0001
0000
0010
0000
1000
0000
0010
0001
0100
0000
1000
0000
0100
0000
0020
0000
,
0000
0000
0230
0000
0000
0000
2300
0000
0000
0000
3001
0000
1000
0000
0100
0001
,
0010
0001
0011
0100
1000
0010
0100
1100
,
0000
0010
1000
1010
0000
1000
0010
0110
,
0000
0010
0100
1000
0020
0000
0031
0201
,
0000
0000
0301
0000
0020
0000
0000
0000
0130
0010
0100
0010
0100
0001
0100
0001
,
0100
0000
0001
0000
0011
0000
1000
0000
0010
0000
0100
0001
1000
0000
0201
0000
,
0000
2300
0000
3010
0000
0100
0010
0000
,
1001
0000
0010
0000
0100
0000
0001
1000
0010
0000
0100
0000
0010
0000
2010
0000
,
0000
0000
3010
0000
0001
0000
0100
1000
0001
0000
0001
0000
0010
0000
0110
0000
,
0000
0100
0010
0000
0100
0010
0100
0101
,
0000
0010
1000
1010
0000
0100
2000
0010
,
3020
0000
1000
0000
2030
0000
0001
0000
3002
0000
0100
0000
0203
0000
0000
1300
,
0100
0000
0000
0000
0110
0000
0000
0000
1000
0100
1000
0100
0010
0001
0010
0001
,
0100
0000
0110
0100
0010
0001
0010
1100
,
0000
0000
0100
0000
0010
0000
0000
0010
1000
0000
0010
0000
1010
0000
0000
0000
,
1010
0000
0000
0000
0001
0000
0000
1000
0010
0000
0100
0000
1000
0000
1010
0000
,
0000
0000
0010
0000
0100
0000
0000
0000
0001
1000
0010
0001
0100
0010
1000
0010
,
0100
0000
1100
0000
0010
1000
0010
1010
,
0000
0001
0100
0000
0010
0001
0010
0100
,
0101
0101
0000
0000
0000
0000
1100
1100
;

//---------------dance-single - ----------------
#NOTES:
     dance-single:
     :
     Beginner:
     2:
     0.085,0.123,0.033,0.033,0.000:
0000
0000
0000
0000
,
0000
0000
0000
0000
,
0000
0000
0000
0000
,
0000
0000
0000
0000
,
1000
0000
0000
0000
,
1000
0000
0000
0000
,
0001
0000
0000
0000
,
0001
0000
0000
0000
,
1001
0000
0000
0000
,
0000
0000
0000
0000
,
0001
0000
0000
0000
,
0000
0000
0000
0000
,
1000
0000
0000
0000
,
0100
0000
0000
0000
,
0010
0000
0000
0000
,
0001
0000
0000
0000
,
1000
0000
0000
0000
,
1000
0000
0000
0000
,
0010
0000
0000
0000
,
0001
0000
0000
0000
,
1001
0000
0000
0000
,
0010
0000
0000
0000
,
0100
0000
0000
0000
,
1000
0000
0000
0000
,
0001
0000
0000
0000
,
1000
0000
0000
0000
,
0001
0000
0000
0000
,
0001
0000
0000
0000
,
0020
0000
0000
0000
,
0030
0000
0000
0000
,
2000
0000
0000
0000
,
0000
0000
0000
0000
,
0000
0000
0000
0000
,
3000
0000
0000
0000
,
0001
0000
0000
0000
,
0010
0000
0000
0000
,
0010
0000
0000
0000
,
0110
0000
0000
0000
,
0010
0000
0000
0000
,
1000
0000
0000
0000
,
1000
0000
0000
0000
,
0001
0000
0000
0000
,
0010
0000
0000
0000
,
0100
0000
0000
0000
,
0001
0000
0000
0000
,
1000
0000
0000
0000
,
0001
0000
0000
0000
,
0100
0000
0000
0000
,
0020
0000
0000
0000
,
0030
0000
0000
0000
,
0000
0000
1000
1000
,
1000
0000
0000
0000
,
0000
0000
0001
0001
,
0001
0000
0000
0000
,
0000
0000
0010
0000
,
0100
0000
0000
1000
;

//---------------dance-single - ----------------
#NOTES:
     dance-single:
     :
     Easy:
     5:
     0.252,0.277,0.022,0.231,0.000:
0000
0000
0000
0000
,
0000
0000
0000
0000
,
0000
0000
0000
0000
,
0000
0000
0000
0000
,
1000
0000
1000
0000
,
1000
0000
1000
0000
,
0001
0000
0001
0000
,
0001
0000
0001
0000
,
2000
0000
3010
0000
,
0100
0000
0010
0010
,
0020
0000
0000
0000
,
0130
0000
0100
0000
,
1000
0100
0010
0100
,
0010
0100
0010
0000
,
0001
0010
0100
0010
,
0100
0010
0100
0000
,
2000
0000
3001
0000
,
0002
0000
1003
0000
,
0010
1000
0100
0000
,
0010
0001
0100
0000
,
1001
0000
1000
0001
,
1000
0001
1000
0000
,
0001
1000
0001
0000
,
1000
0001
1000
0000
,
0010
0100
0020
0000
,
1030
0010
2000
0000
,
3002
0000
1003
0001
,
2000
0000
3002
0000
,
2003
0000
0000
0000
,
3020
0000
0000
0000
,
2030
0000
3002
0000
,
0203
0320
0000
0000
,
1030
0100
0010
0001
,
1000
0001
1000
0100
,
0010
0001
1000
0000
,
0001
0010
0100
1000
,
0100
0010
0001
0000
,
0001
1000
0001
1000
,
0001
0001
0001
0000
,
1000
0100
0010
0001
,
1000
0001
0001
0000
,
1001
0000
0001
1000
,
0001
1000
1000
0000
,
1000
0001
1000
0001
,
0001
0000
0100
0010
,
0100
0000
0001
1000
,
1000
0000
1000
0001
,
0002
0000
1003
0000
,
2000
0000
3002
0000
,
2003
0000
0000
0000
,
0000
0000
3010
0100
,
0020
0000
0000
0000
,
0000
0000
0130
0010
,
0200
0000
0000
0000
,
0000
0000
0301
1000
,
0001
1000
0000
0000
0000
0000
1000
0001
;

//---------------dance-single - ----------------
#NOTES:
     dance-single:
     :
     Medium:
     8:
     0.450,0.584,0.099,0.462,0.044: // measure 1
0000
0000
0000
0000
,  // measure 2
0000
0000
0000
0000
,  // measure 3
0000
0000
0000
0000
,  // measure 4
0000
0000
0000
0000
,  // measure 5
1000
0100
0010
0100
1000
0100
0001
0200
,  // measure 6
0000
0302
0000
0103
0000
0000
0000
0000
,  // measure 7
0020
0000
0230
0000
0310
0000
0010
0100
,  // measure 8
0000
0010
0100
0000
0001
0000
1000
0000
,  // measure 9
1001
0000
1000
0000
0001
1000
0001
1000
,  // measure 10
0000
0100
0011
1000
,  // measure 11
1010
0000
0100
0000
0010
0000
1000
0001
,  // measure 12
0000
1000
0001
0000
1000
0000
0100
0000
,  // measure 13
2000
0000
3200
0000
1300
0001
0100
1000
,  // measure 14
0000
0100
0010
0000
0010
0000
0001
0000
,  // measure 15
0020
0000
0032
0000
1003
0001
1000
0010
,  // measure 16
0000
0100
0010
0000
0001
0000
0100
0000
,  // measure 17
0001
1000
0001
1000
0200
0000
0310
1000
,  // measure 18
0000
0010
0000
0001
0000
0000
0100
0000
,  // measure 19
0020
0000
2030
0000
3002
0000
0103
1000
,  // measure 20
0000
1000
0100
0000
0010
0000
1001
0000
,  // measure 21
1001
0000
0001
0000
1000
0001
1000
0001
,  // measure 22
0000
0100
0010
0000
0001
0000
0001
0000
,  // measure 23
1000
0001
0100
0000
0100
0010
0001
0100
,  // measure 24
0000
0100
0001
0000
0100
0000
1000
0000
,  // measure 25
0100
1000
0010
0001
1000
0001
0010
0001
,  // measure 26
0000
1000
0001
1000
0000
0000
2000
0000
,  // measure 27
3020
2030
3002
0203
,  // measure 28
2300
0000
3002
0000
,  // measure 29
2003
0000
0010
0000
,  // measure 30
3020
0000
0000
0000
0100
0000
0000
0130
,  // measure 31
0002
0000
0000
0000
0000
0000
1003
0000
0020
0000
0000
0000
0000
0000
1030
0001
,  // measure 32
1000
0000
0000
0100
0020
0000
0000
0000
0000
0000
0000
0000
0000
0000
0000
0000
,  // measure 33
1030
0000
0001
1000
0000
0100
1000
0100
0000
0010
0100
0000
0010
1000
0001
0010
,  // measure 34
1000
0001
1000
0000
0200
0000
0310
0002
,  // measure 35
0000
2003
0000
3002
0000
0000
0000
0000
,  // measure 36
1003
0010
0100
0010
1000
0100
0010
0002
,  // measure 37
0000
1003
0000
0002
0000
0000
0000
0003
,  // measure 38
0010
1000
0001
1000
0100
0010
0100
1000
,  // measure 39
0000
1000
0000
0001
0000
0000
1000
0001
,  // measure 40
0000
0001
1000
0001
1000
0000
0100
0010
,  // measure 41
0000
0010
0002
0000
1003
0000
0000
0000
,  // measure 42
0001
0010
0100
1000
0200
0000
0310
0200
,  // measure 43
0000
0302
0000
1003
0000
0000
0000
0000
,  // measure 44
0001
1000
0100
0010
0001
0100
1000
0002
,  // measure 45
0000
0203
0000
0310
0000
1010
0000
0101
,  // measure 46
0000
0000
1000
0000
0100
0010
0100
1000
,  // measure 47
0000
0100
0000
0010
0000
0000
0100
0000
,  // measure 48
0002
0000
2003
0000
,  // measure 49
3010
0100
0020
0000
,  // measure 50
0032
0000
1000
0000
,  // measure 51
1003
0010
0110
0110
,  // measure 52
2000
0000
0000
0000
0001
0000
0000
3001
,  // measure 53
0000
0100
0010
0100
,  // measure 54
0020
0000
1000
0000
,  // measure 55
1030
0100
0010
0001
,  // measure 56
1000
0001
0000
0000
0000
0000
0001
1000
;
