#TITLE:Dimension tripper!!!!;
#SUBTITLE:超次元ゲイム ネプテューヌ THE ANIMATION OP;
#ARTIST:nao;
#TITLETRANSLIT:Dimension tripper!!!!;
#SUBTITLETRANSLIT:Choujigen Neptune The Animation OP;
#ARTISTTRANSLIT:nao;
#GENRE:HYPERDIMENSION POP;
#CREDIT:;
#BANNER:Dimension tripper!!!!.png;
#BACKGROUND:Dimension tripper!!!!-bg.png;
#LYRICSPATH:;
#CDTITLE:cdtitle.png;
#MUSIC:Dimension tripper!!!!.mp3;
#MENUCOLOR:0,0,1,1;
#METERTYPE:DDR X;
#OFFSET:-0.633;
#SAMPLESTART:58.594;
#SAMPLELENGTH:12.000;
#SELECTABLE:YES;
#BPMS:0.000=188.000;
#STOPS:;
#BGCHANGES:;

//---------------dance-single - ----------------
#NOTES:
     dance-single:
     :
     Hard:
     12:
     0.674,0.632,0.382,0.103,0.000:
0000
0000
0000
0000
,
0000
0000
0000
0000
,
0000
0000
0000
0000
,
0000
0000
0000
0000
0000
0000
0000
1001
,
0000
0001
0010
0000
0010
1000
0010
0100
,
0010
0001
0010
1000
0010
0100
0000
0110
,
0000
1000
0100
0000
0100
0001
0100
0010
,
0100
1000
0100
0001
0100
0010
0000
0110
,
0000
0010
0100
0000
0100
1000
0010
1000
,
0000
0100
0010
0100
1000
0010
0100
1000
,
0100
0010
0100
0010
1000
0100
0001
0100
,
0000
1000
0001
0000
1000
0100
0010
0001
,
0000
0010
0001
0000
0100
0001
0100
0010
,
0001
0010
0100
0001
0100
0010
0000
0101
,
0000
1000
0100
0010
0001
0001
0010
0100
,
1000
0100
0010
0100
0000
1010
0000
0101
,
0000
1000
0100
0000
0001
0100
1000
0010
,
0000
0010
1000
0001
1000
0010
1000
0001
,
0000
1000
0100
0001
1000
0010
0001
0100
,
0000
0100
0010
0001
1000
0100
0010
0010
,
0000
0100
0010
0000
0100
0010
0000
0110
,
0000
0000
0000
0000
1000
0011
0000
0000
,
1010
0000
0100
0000
0100
0010
1000
0010
,
0100
0000
0100
0000
0100
1000
0100
0010
,
0001
0100
0000
0020
0000
0000
0100
0000
,
0100
0100
0100
0100
,
0130
0000
0010
0000
0010
0001
0000
0010
,
2000
0000
0010
0000
3010
0010
0000
0100
,
0010
0100
0000
0100
0010
0100
0010
0100
,
0000
0100
1100
0000
0100
0100
0110
0000
,
1001
0000
0100
0010
0100
0001
0100
1000
,
0000
1000
0100
0000
0010
1000
0100
0010
,
0100
0001
0100
0010
0100
0100
0010
1000
,
0100
0010
0001
0100
0010
0100
0000
0101
,
0000
0100
0010
0100
0010
1000
0100
0010
,
0000
0010
0100
0001
0100
0000
0010
0001
,
0000
0100
0010
0000
0100
1000
0100
0010
,
0001
0100
0010
0100
0000
0100
0000
0100
,
0010
1000
0010
0000
0110
0000
0010
0110
,
0000
1000
0100
0000
0010
0001
0100
0010
,
0000
0100
0100
0010
1000
0100
0010
0010
,
0000
0001
0010
0100
1000
0100
0010
0100
,
0010
0000
0100
0000
0110
0000
1000
0100
,
0000
0010
0001
0000
1000
0100
0010
0001
,
0000
0100
0001
0100
1000
0100
0010
0001
,
2100
0100
3100
0000
0100
0100
0000
0110
,
0000
1000
0100
0000
0010
0001
0100
0110
,
0000
1000
0100
0001
1000
0000
0001
1001
,
0000
1000
0010
0000
1000
1000
0010
0100
,
0000
0100
0110
0000
1000
0100
0010
0110
,
0000
0100
0001
0001
0010
0010
0000
0110
,
0000
0100
1000
1000
0010
0010
0000
0012
,
0000
0100
0010
1000
,
1000
0000
1000
0000
1003
0010
0000
1010
,
0000
0100
0010
0000
0001
0010
0100
0010
,
0000
0100
0010
0000
1000
0000
0100
1000
,
0000
1000
0100
0000
1000
0100
0010
0001
,
0010
0100
1000
0000
0001
0010
0100
1000
,
0000
1000
0100
0010
0001
0100
0000
0100
,
0000
0100
0010
0100
1000
0100
0010
0001
,
0000
0100
0010
0100
0001
1000
0100
0110
,
0000
0100
0010
0010
0100
0010
0000
0110
,
0000
1000
0100
0000
0100
0010
1000
0010
,
1000
0100
0010
0001
0100
0100
0000
0101
,
0000
0100
1000
0100
0010
0001
0100
0010
,
0100
0001
0010
0100
0010
0110
0000
0011
,
0000
1000
0100
0010
0001
0100
0000
0110
,
0000
0100
0010
0000
1000
0100
0010
0110
,
0000
0100
0001
0010
0100
1000
0100
1010
,
0000
0100
0010
1000
0100
0010
0001
0100
,
0022
0000
0033
2020
0000
3030
0101
0202
,
0000
0000
0000
0000
,
0303
0000
0000
0000
;

//---------------dance-couple - ----------------
#NOTES:
     dance-couple:
     :
     Challenge:
     1:
     0.006,0.074,0.021,0.000,0.000:
00000000
00000000
00000000
00000000
,
00000000
00000000
00000000
00000000
,
00000000
00000000
00000000
00000000
,
10010000
00000000
00000000
00000000
,
00000000
00000000
00000000
00000000
,
00000000
00000000
00000000
00000000
,
00000000
00000000
00000000
00000000
,
00000000
00000000
00000000
00000000
,
00000000
00000000
00000000
00000000
,
00000000
00000000
00000000
00000000
,
00000000
00000000
00000000
00000000
,
00000000
00000000
00000000
00000000
,
00000000
00000000
00000000
00000000
,
00000000
00000000
00000000
00000000
,
00000000
00000000
00000000
00000000
,
00000000
00000000
00000000
00000000
,
00000000
00000000
00000000
00000000
,
00000000
00000000
00000000
00000000
,
00000000
00000000
00000000
00000000
,
00000000
00000000
00000000
00000000
,
00000000
00000000
00000000
00000000
,
00000000
00000000
00000000
00000000
,
00000000
00000000
00000000
00000000
,
00000000
00000000
00000000
00000000
,
00000000
00000000
00000000
00000000
,
00000000
00000000
00000000
00000000
,
00000000
00000000
00000000
00000000
,
00000000
00000000
00000000
00000000
,
00000000
00000000
00000000
00000000
,
00000000
00000000
00000000
00000000
,
00000000
00000000
00000000
00000000
,
00000000
00000000
00000000
00000000
,
00000000
00000000
00000000
00000000
,
00000000
00000000
00000000
00000000
,
00000000
00000000
00000000
00000000
,
00000000
00000000
00000000
00000000
,
00000000
00000000
00000000
00000000
,
00000000
00000000
00000000
00000000
,
00000000
00000000
00000000
00000000
,
00000000
00000000
00000000
00000000
,
00000000
00000000
00000000
00000000
,
00000000
00000000
00000000
00000000
,
00000000
00000000
00000000
00000000
,
00000000
00000000
00000000
00000000
,
00000000
00000000
00000000
00000000
,
00000000
00000000
00000000
00000000
,
00000000
00000000
00000000
00000000
,
00000000
00000000
00000000
00000000
,
00000000
00000000
00000000
00000000
,
00000000
00000000
00000000
00000000
,
00000000
00000000
00000000
00000000
,
00000000
00000000
00000000
00000000
,
00000000
00000000
00000000
00000000
,
00000000
00000000
00000000
00000000
,
00000000
00000000
00000000
00000000
,
00000000
00000000
00000000
00000000
,
00000000
00000000
00000000
00000000
,
00000000
00000000
00000000
00000000
,
00000000
00000000
00000000
00000000
,
00000000
00000000
00000000
00000000
,
00000000
00000000
00000000
00000000
,
00000000
00000000
00000000
00000000
,
00000000
00000000
00000000
00000000
,
00000000
00000000
00000000
00000000
,
00000000
00000000
00000000
00000000
,
00000000
00000000
00000000
00000000
,
00000000
00000000
00000000
00000000
,
00000000
00000000
00000000
00000000
,
00000000
00000000
00000000
00000000
,
00000000
00000000
00000000
00000000
,
00000000
00000000
00000000
00000000
,
00000000
00000000
00000000
00000000
,
10010000
00000000
00000000
00000000
;

//---------------dance-single - ----------------
#NOTES:
     dance-single:
     :
     Beginner:
     2:
     0.094,0.223,0.041,0.062,0.000:
0000
0000
0000
0000
,
0000
0000
0000
0000
,
0000
0000
0000
0000
,
0000
0000
0000
0000
,
0000
0000
0000
0000
,
1000
0000
0000
0000
,
0000
0000
0000
0000
,
0010
0000
0000
0000
,
0000
0000
0000
0000
,
0100
0000
0000
0000
,
0000
0000
0000
0000
,
0001
0000
0000
0000
,
0000
0000
0000
0000
,
0010
0000
0000
0000
,
0000
0000
0000
0000
,
0100
0000
0000
0000
,
0000
0000
0000
0000
,
0010
0000
0000
0000
,
0000
0000
0000
0000
,
0001
0000
0000
0000
,
1000
0000
0000
0000
,
0000
0000
0000
0000
,
1001
0000
0000
0000
,
0001
0000
0000
0000
,
0002
0000
0000
0000
,
0003
0000
0000
0000
,
0010
0000
0000
0000
,
0020
0000
0000
0000
,
0000
0000
0000
0000
,
0030
0000
0000
0000
,
1000
0000
0000
0000
,
1000
0000
0000
0000
,
0200
0000
0000
0000
,
0000
0000
0000
0000
,
0300
0000
0000
0000
,
0010
0000
0000
0000
,
0001
0000
0000
0000
,
1000
0000
1000
0000
,
1000
0000
0000
0000
,
0001
0000
0001
0000
,
0001
0000
0000
0000
,
0010
0000
0000
0000
,
0000
0000
0000
0000
,
0100
0000
0000
0000
,
0010
0000
0000
0000
,
0001
0000
0000
0000
,
1000
0000
0000
0000
,
1000
0000
0000
0000
,
0001
0000
0000
0000
,
0020
0000
0000
0000
,
0030
0000
0000
0000
,
0100
0000
0000
0000
,
0001
0000
0000
0000
,
0001
0000
0000
0000
,
1001
0000
0000
0000
,
0010
0000
0000
0000
,
0001
0000
0000
0000
,
0001
0000
0000
0000
,
1000
0000
0000
0000
,
1000
0000
0000
0000
,
0100
0000
0000
0000
,
0010
0000
0000
0000
,
0001
0000
0000
0000
,
0001
0000
0000
0000
,
0001
0000
0000
0000
,
1000
0000
0000
0000
,
1000
0000
0000
0000
,
0010
0000
0000
0000
,
0100
0000
0000
0000
,
0010
0000
0000
0000
,
1001
0000
0000
0000
,
2002
0000
0000
0000
,
3003
0000
0000
0000
;

//---------------dance-single - ----------------
#NOTES:
     dance-single:
     :
     Easy:
     6:
     0.227,0.335,0.010,0.093,0.000:
0000
0000
0000
0000
,
0000
0000
0000
0000
,
0000
0000
0000
0000
,
0000
0000
0000
0000
,
0001
0000
0001
0000
,
0001
0000
0000
0000
,
0000
0000
1000
0000
,
1000
0000
1000
0000
,
0000
0000
0100
0000
,
0100
0000
0000
0000
,
0010
0000
0010
0000
,
0010
0000
0000
0000
,
1000
0000
1000
0000
,
1000
0000
0000
0000
,
0000
0000
0001
0000
,
0001
0000
0001
0000
,
0000
0000
0100
0000
,
0100
0000
0000
0000
,
0010
0000
0010
0000
,
0010
0000
0000
0000
,
1000
0000
1000
0000
,
1000
0000
0000
0000
,
1001
0000
0001
0000
,
0001
0000
0000
0000
,
1000
0000
0100
0000
,
0010
0000
0001
0000
,
0001
0000
1000
0000
,
2000
0000
3000
0000
,
0001
0000
0002
0000
,
0003
0000
1000
0000
,
0001
0000
0100
0000
,
0010
0000
0000
0000
,
1000
0000
0001
0000
,
1000
0000
0100
0000
,
0010
0000
0010
0000
,
1000
0000
1000
0000
,
0001
0000
0100
0000
,
0010
0000
1000
0000
,
0002
0000
0000
0000
,
1003
0100
0010
0001
,
1000
0000
0100
0010
,
0100
0000
0001
0010
,
0000
0001
1000
0000
,
1000
0100
0010
0000
,
2000
0000
0000
0000
,
0000
0000
3000
0000
,
0001
0100
0001
0100
,
0001
0000
0000
0100
,
0010
0100
1000
0100
,
0010
0100
0000
0001
,
0010
0100
0010
0001
,
0000
1000
0100
0001
,
0100
1000
0000
1000
,
0001
1000
0000
0000
,
0020
0000
0130
0100
,
0100
0000
0000
0000
,
2000
0001
3001
0000
,
0000
0100
0000
0000
,
0010
0010
0010
0000
,
1000
0100
0010
0001
,
0010
0100
1000
1000
,
2000
0000
0000
0000
,
3001
0100
0001
0100
,
0001
0100
0001
0001
,
0001
0000
1000
0100
,
1000
0100
0010
0010
,
0010
0000
0100
0010
,
0001
0000
0100
0010
,
0001
0000
0001
0100
,
1000
0000
1000
0100
,
0002
2000
0000
0000
,
0000
0000
0000
0000
,
3003
0000
0000
0000
;

//---------------dance-single - ----------------
#NOTES:
     dance-single:
     :
     Medium:
     9:
     0.362,0.446,0.010,0.269,0.000:
0000
0000
0000
0000
,
0000
0000
0000
0000
,
0000
0000
0000
0000
,
0000
0000
0000
0000
,
0000
1000
0100
1000
,
0100
1000
0100
0010
,
0010
0000
0100
0010
,
0001
0100
0010
0001
,
0000
1000
0001
1000
,
0001
0000
0100
0010
,
0100
0000
1000
0100
,
0020
0000
0002
0000
,
0033
0000
1000
0100
,
1000
0100
0010
0000
,
0000
0001
0010
0001
,
0010
0100
0010
0100
,
1000
0000
1000
0100
,
0010
0000
0100
0010
,
0001
0000
0001
0010
,
0100
0010
0100
1000
,
0100
0000
0000
0000
0020
0000
0000
0030
,
1000
0000
0000
0000
,
0110
1000
0100
0010
,
0002
0000
0000
0000
,
1003
0100
0020
0000
,
0000
0000
2030
0000
,
3010
0100
0100
0010
,
0020
0000
0000
0000
0000
0000
0000
0030
,
0002
0000
0000
2000
0000
0000
0000
3003
,
0000
0100
0010
0100
,
0000
1000
0100
0010
,
0002
0000
0000
0103
,
0100
0010
1000
0100
,
0010
0010
0100
0010
,
0001
0100
0100
0001
,
1000
0100
0010
0001
,
0001
1000
0001
0100
,
0010
0001
1000
0001
,
2000
0000
3001
0100
,
0001
0100
0000
0100
,
1000
0100
0010
0001
,
0100
0010
0001
1000
,
0000
1000
0001
0001
,
1000
0001
0100
0010
,
0100
0100
0100
0010
,
1000
0000
1000
0100
,
0020
0000
0000
0000
,
0002
0000
0033
1000
,
0100
0010
0001
0100
,
0002
0000
0000
1003
0000
0000
0100
0000
,
1000
0000
0100
0000
0000
0000
0000
0100
,
0010
0100
0010
0100
,
0020
0000
0002
0000
,
0033
0001
0010
0100
,
2000
0000
0000
0000
0200
0000
0000
3300
,
0000
0100
0010
0100
,
0020
0000
0000
0000
0200
0000
0000
0330
,
0000
0100
1000
0100
,
0020
0000
0000
0000
2000
0000
0000
3030
,
0000
0100
0010
0100
,
0002
0000
0000
0000
2000
0000
0000
3003
,
0000
0100
0010
0000
,
1000
0000
0100
0000
0010
0100
0010
0000
,
1000
0100
0010
0000
0100
0000
0010
0000
,
0001
0000
1000
0100
1000
0000
0001
0010
,
0001
0000
0100
0000
0010
0100
0000
0010
,
0000
1000
0100
0000
1000
0100
0010
0001
,
0000
0100
0010
0100
0010
0100
0000
0010
,
0000
0100
1000
0000
0100
0000
0010
0100
,
0000
1000
0100
0000
0010
0000
0001
0000
,
1000
0001
0000
1000
0001
0000
2000
0002
,
0000
0000
0000
0000
,
3000
0003
0000
0000
0000
0000
0000
0000
0000
0000
0000
0000
0000
0000
0000
0000
0000
0000
0000
0000
0000
0000
0000
0000
0000
0000
0000
0000
0000
0000
0000
0000
0000
0000
0000
0000
0000
0000
0000
0000
0000
0000
0000
0000
0000
0000
0000
0000
0000
0000
0000
0000
0000
0000
0000
0000
0000
0000
0000
0000
0000
0000
0000
0000
0000
0000
0000
0000
0000
0000
0000
0000
0000
0000
0000
0000
0000
0000
0000
0000
0000
0000
0000
0000
0000
0000
0000
0000
0000
0000
0000
0000
0000
0000
0000
0000
0000
0000
0000
0000
0000
0000
0000
0000
0000
0000
0000
0000
0000
0000
0000
0000
0000
0000
0000
0000
0000
0000
0000
0000
0000
0000
0000
0000
0000
0000
0000
0000
0000
0000
0000
0000
0000
0000
0000
0000
0000
0000
0000
0000
0000
0000
0000
0000
0000
0000
0000
0000
0000
0000
0000
0000
0000
0000
0000
0000
0000
0000
0000
0000
0000
0000
0000
0000
0000
0000
0000
0000
0000
0000
0000
0000
0000
0000
0000
0000
0000
0000
0000
0000
0000
0000
0000
0000
0000
0000
0000
0000
0000
0000
0000
0000
;

//---------------dance-single - ----------------
#NOTES:
     dance-single:
     :
     Challenge:
     17:
     0.947,0.930,1.000,0.072,0.315: // measure 1
0000
0000
0000
0000
,  // measure 2
0000
0000
0000
0000
,  // measure 3
0000
0000
0000
0000
,  // measure 4
0000
0000
0000
0000
0000
0000
0000
0110
,  // measure 5
0000
0100
0001
0100
0001
0010
0001
1000
,  // measure 6
0001
0100
0001
0010
0001
1001
0000
1001
,  // measure 7
0000
0010
1000
0010
1000
0100
1000
0001
,  // measure 8
1000
0010
1000
0100
1000
1001
0000
1001
,  // measure 9
0000
0001
1000
0000
1100
0011
1001
0110
,  // measure 10
0000
0000
1000
0000
0001
1000
0001
1000
0010
0000
0001
0000
1000
0000
1010
0000
,  // measure 11
1000
0001
1000
0001
0010
1100
0100
0011
,  // measure 12
0000
0010
0100
0000
0110
1100
0011
1100
,  // measure 13
0000
0000
0001
0000
0100
0000
0010
0000
1000
0100
1000
0000
0001
0010
0001
0000
,  // measure 14
0100
0001
1000
0100
1000
0001
0100
1100
,  // measure 15
0100
0000
0010
0000
1000
0000
0001
0000
0100
0010
0100
0000
0001
1000
0001
0000
,  // measure 16
0010
1000
0001
1000
0100
0011
0010
1100
,  // measure 17
1000
0000
0010
0001
1000
0000
0010
0000
0100
0001
1000
0000
0110
0000
0011
0000
,  // measure 18
0000
0001
0010
1100
0010
0001
0010
1100
,  // measure 19
0000
0000
0010
0000
1000
0000
0100
0000
0010
1000
0001
0000
0100
0000
1010
0000
,  // measure 20
0000
1000
0001
0100
0010
1000
0001
1002
,  // measure 21
0000
1000
1000
0000
1000
1003
0000
1001
,  // measure 22
0000
0000
0000
0000
0000
0000
0000
1000
0010
0000
0101
0000
0000
0000
0000
0000
,  // measure 23
0011
0000
1000
0000
1000
0001
0010
0002
,  // measure 24
1000
0000
1000
0000
1003
0010
1000
0001
,  // measure 25
0100
1000
0100
0002
0000
0000
1000
0000
,  // measure 26
1000
1000
1000
1000
,  // measure 27
1003
0000
0001
0000
0001
0100
0000
0001
,  // measure 28
0020
0000
0001
0000
0031
0001
0000
1000
,  // measure 29
0001
0000
1000
0000
0000
0000
1000
0000
0001
0000
1000
0000
0001
1000
0001
0000
,  // measure 30
0001
0000
1000
0000
1010
0000
0000
0001
1000
0000
1001
0000
1001
0000
0001
1000
,  // measure 31
0010
0000
0100
0000
1100
0000
0001
1000
0001
0000
0100
0000
1010
0000
0010
1000
,  // measure 32
0001
0000
0010
0000
1010
0000
0010
0100
0001
0000
0010
0000
1100
0000
0001
0100
,  // measure 33
1000
0000
0100
0000
1001
0000
0001
1000
0001
0000
1000
0000
0101
0000
0010
0001
,  // measure 34
1000
0000
0001
0000
0101
0000
0001
1000
0001
0000
1100
0000
0001
0000
0101
0000
,  // measure 35
0000
0000
1100
0000
0101
0000
1000
0001
1000
0001
0010
0000
1000
0000
0011
0000
,  // measure 36
0000
0000
0001
0000
1000
0001
0100
0000
0110
0000
0000
0000
1001
0000
1100
0000
,  // measure 37
0000
1000
0011
0000
1000
0010
1000
0001
,  // measure 38
0100
1100
0011
1010
0000
0011
0000
1100
,  // measure 39
1001
0010
0101
0000
1001
0000
0001
1001
,  // measure 40
0000
0010
1000
0000
0001
0100
1000
0001
,  // measure 41
0000
0000
1000
0000
1000
0000
0001
1000
0010
0000
1000
0001
0010
0000
0001
0000
,  // measure 42
0000
0100
0001
1000
0010
1000
0001
1000
,  // measure 43
0101
0000
1000
0000
1001
0000
0010
1010
,  // measure 44
0000
0001
0101
0000
0010
1000
0001
0100
,  // measure 45
0000
1000
0100
1000
0010
1000
0001
0100
,  // measure 46
1010
0000
1001
0000
1100
0000
0001
0000
1000
0001
1000
0001
0000
0000
1001
0000
,  // measure 47
0100
0000
0010
0000
1000
0000
0001
0000
0001
0010
0100
1000
0001
0000
1001
0000
,  // measure 48
0100
0000
0010
0001
1000
0001
0100
0000
0010
0000
1000
0000
0100
0000
0110
0000
,  // measure 49
0001
0000
0010
0001
0100
0001
1000
0000
0010
0001
0010
0000
0001
0000
1001
0000
,  // measure 50
0100
0000
1000
0000
1001
0000
1000
0000
0010
0001
1000
0001
1000
0000
1001
0000
,  // measure 51
0001
0000
1000
0000
0100
0010
0100
0000
1000
0001
1000
0000
0001
0000
1001
0000
,  // measure 52
0001
0000
1000
0000
0010
0001
0010
0000
0001
0010
0001
0000
1000
0000
0201
0000
,  // measure 53
0001
0010
1300
0010
0001
1000
0010
0011
,  // measure 54
0010
0000
0100
0000
0010
0000
1000
0000
0010
1000
0001
0000
1000
0000
0011
0000
,  // measure 55
0001
1000
0101
0100
0100
0001
1000
1001
,  // measure 56
0001
1000
0001
1000
0010
0001
1000
1010
,  // measure 57
0010
0000
1010
0000
1000
0000
0010
0000
0010
0000
1000
0000
0001
0010
0100
0010
,  // measure 58
0001
1000
0010
1000
0100
0001
1000
0110
,  // measure 59
0010
0000
0010
0000
1000
0000
0001
0010
0100
0000
1000
0100
1000
0000
0100
0010
,  // measure 60
0100
0000
0010
0001
0010
0000
0001
1000
0001
0000
1000
0000
0001
0000
0110
0000
,  // measure 61
0010
0001
1000
0100
0010
0100
0010
0001
0010
0100
0010
0100
1000
0000
1001
0000
,  // measure 62
0000
1000
0001
0001
1000
0011
0000
1001
,  // measure 63
0001
0000
0010
0000
1100
0000
0001
0000
1000
0100
0010
0100
0010
0000
0001
0000
,  // measure 64
0010
0000
1000
0000
0001
0000
0100
1000
0100
1000
0100
0000
0100
0000
1100
0000
,  // measure 65
0010
0000
1000
0000
0010
0000
1000
0000
0001
0010
0100
0010
1000
0000
0001
0000
,  // measure 66
1000
0000
0100
0000
0001
1000
0001
0000
0001
0000
1001
0000
0001
0000
0101
0000
,  // measure 67
1000
0010
1010
0001
0100
1000
0001
1001
,  // measure 68
0001
1000
0001
1000
0010
1000
0001
1001
,  // measure 69
0001
1000
0100
0001
1000
0010
1000
0011
,  // measure 70
0000
1000
0001
0010
1000
1001
0110
1001
,  // measure 71
0101
0101
0101
0011
0011
0011
1100
2200
,  // measure 72
0000
0000
0000
0000
,  // measure 73
3300
0000
0000
0000
;
