#TITLE:デート・ア・ライブ;
#SUBTITLE:デート・ア・ライブ OP;
#ARTIST:sweet ARMS;
#TITLETRANSLIT:Date a Live;
#SUBTITLETRANSLIT:Date a Live OP;
#ARTISTTRANSLIT:sweet ARMS;
#GENRE:SPIRIT GIRL POP;
#CREDIT:;
#BANNER:Date a Live.png;
#BACKGROUND:Date a Live-bg.png;
#LYRICSPATH:;
#CDTITLE:cdtitle.png;
#MUSIC:Date a Live.mp3;
#METERTYPE:DDR X;
#MENUCOLOR:0,0,1,1;
#OFFSET:-0.354;
#SAMPLESTART:34.062;
#SAMPLELENGTH:12.000;
#SELECTABLE:YES;
#DISPLAYBPM:89:178;
#BPMS:0.000=178.000,128.000=89.000,130.000=178.000,162.000=89.000,174.000=178.000,179.500=89.000,180.500=178.000,240.500=89.000,243.000=118.667,244.000=178.000,276.500=44.500;
#STOPS:244.500=0.337
;
#BGCHANGES:;

//---------------dance-single - ----------------
#NOTES:
     dance-single:
     :
     Hard:
     11:
     0.534,0.705,0.107,0.184,0.102: // measure 1
0000
0000
0000
0000
,  // measure 2
0000
0000
0000
0000
,  // measure 3
0000
0000
0000
0000
,  // measure 4
0000
0000
0000
0000
,  // measure 5
0002
0000
0000
0000
,  // measure 6
0000
0000
0000
0000
,  // measure 7
2003
0000
0000
0000
,  // measure 8
3020
0000
0000
0000
,  // measure 9
0230
0000
0000
1000
0000
0000
0320
0000
,  // measure 10
0000
0001
0000
0000
1030
0000
1000
0000
,  // measure 11
0100
0000
0000
0001
0000
0000
0100
0000
,  // measure 12
0010
0001
0100
0100
,  // measure 13
0010
0000
0000
0001
0000
0000
0010
0000
,  // measure 14
1000
0100
0001
0001
,  // measure 15
0100
0010
0001
0100
,  // measure 16
0010
0000
1000
0000
0100
0010
0100
0010
,  // measure 17
0100
0000
0010
0000
0001
0100
0010
1000
,  // measure 18
0000
0100
0010
0000
0010
0001
0100
0110
,  // measure 19
0000
0100
0010
0000
0001
0010
0100
0000
,  // measure 20
0001
0010
0100
0000
0010
0000
0001
0000
,  // measure 21
1002
0000
0103
0000
0010
0001
0010
0100
,  // measure 22
0000
0010
0100
1000
1000
0100
0010
0000
,  // measure 23
0100
0000
0010
0000
0100
0001
0100
0000
,  // measure 24
0010
0100
0020
0000
1030
0100
0010
0000
,  // measure 25
0100
0001
0100
0001
0100
0020
0000
0000
,  // measure 26
0130
0000
0100
0000
0100
0010
0010
0100
,  // measure 27
0010
0000
0010
0200
0000
0302
0000
0103
,  // measure 28
0010
0001
0100
0000
0010
0000
0100
0000
,  // measure 29
0002
0000
0103
2000
0000
3100
0010
0001
,  // measure 30
0010
0000
0100
0000
0010
0100
0001
0010
,  // measure 31
0100
0000
0100
1000
0100
0010
0100
0000
,  // measure 32
0002
0000
0103
0010
0200
0000
0301
0000
,  // measure 33
0002
0000
0000
2003
0000
0000
3100
0000
1001
0000
0000
0000
0001
0000
0010
0000
,  // measure 34
0100
0100
0010
0001
0100
0000
0100
0001
,  // measure 35
0100
0010
1000
0100
0010
0100
0001
0000
,  // measure 36
0001
0000
0001
0000
0100
0000
1000
0100
,  // measure 37
0000
0100
0010
0100
0010
0000
0010
0000
,  // measure 38
0001
0010
0001
0010
1000
0000
1000
0010
,  // measure 39
0000
0010
0100
0000
0010
0000
0001
0000
,  // measure 40
0100
0000
0100
0000
1000
0000
1000
0100
,  // measure 41
0000
0000
0010
0000
0100
0000
0000
0000
0101
0000
0100
0010
0000
1000
0100
0010
,  // measure 42
0001
0000
0001
0010
0000
0100
0000
1000
0010
1000
0010
0100
0000
0100
0010
0000
,  // measure 43
1000
0010
0100
0010
0000
1000
0010
0000
0100
0000
0100
0010
0000
0001
0010
1000
,  // measure 44
0100
0000
1000
0100
0000
1000
0010
0000
1000
0000
0010
0000
0001
0000
1000
0000
,  // measure 45
0000
0000
1000
0000
0100
0000
0000
0000
0100
0000
0010
0000
0001
0000
0000
0001
,  // measure 46
0010
0100
1000
0000
0000
0000
1000
0000
0100
0000
0001
0000
0001
0000
1000
0000
,  // measure 47
0100
0011
0000
0001
0010
0100
1000
1000
,  // measure 48
0100
0100
0000
0100
0010
0100
0000
0100
,  // measure 49
1000
0100
0000
1000
1000
0001
0000
0000
,  // measure 50
0100
0010
0100
0000
1000
0100
0000
0100
,  // measure 51
0001
0000
0100
0000
0010
0001
0010
0000
,  // measure 52
0100
0000
0010
0000
0100
0000
1000
0100
,  // measure 53
0010
0001
0000
0100
0100
0000
0001
1000
,  // measure 54
0100
0010
0000
0001
0100
1000
0100
0010
,  // measure 55
0100
0010
0000
0010
0100
1000
0100
0100
,  // measure 56
0001
1000
0000
1000
0100
0010
0000
0100
,  // measure 57
0010
0001
0000
0001
0010
0100
0000
1000
,  // measure 58
0010
2000
0000
0001
,  // measure 59
3001
0000
1000
0000
0010
0000
0100
0010
,  // measure 60
0100
0000
0001
1000
0000
0001
0000
0010
,  // measure 61
0000
0000
0102
0000
1000
2000
0000
0000
0000
0000
0000
0000
0000
0000
3003
0000
,  // measure 62
1001
1001
1001
0000
0001
0000
0010
0001
,  // measure 63
1000
0100
0000
0010
0001
0100
0001
0010
,  // measure 64
0000
1100
0000
0000
1000
0000
0100
0010
,  // measure 65
0010
0010
0100
0100
0100
0000
1000
0100
,  // measure 66
0010
0000
1001
0000
0100
0000
0010
0001
,  // measure 67
0010
0100
0000
0010
0100
0000
0010
1000
,  // measure 68
0010
0100
0010
0000
1000
0000
0100
0010
,  // measure 69
0100
0000
1000
0100
0010
0001
0100
0100
,  // measure 70
0001
0001
0000
0000
0000
0000
0000
0000
;

//---------------dance-single - ----------------
#NOTES:
     dance-single:
     :
     Beginner:
     2:
     0.121,0.134,0.019,0.087,0.000:
0000
0000
0000
0000
,
0000
0000
0000
0000
,
0000
0000
0000
0000
,
0000
0000
0000
0000
,
0002
0000
0000
0000
,
0003
0000
0000
0000
,
2000
0000
0000
0000
,
3000
0000
0000
0000
,
0200
0000
0000
0000
,
0300
0000
0000
0000
,
0020
0000
0000
0000
,
0030
0000
0000
0000
,
0002
0000
0000
0000
,
0003
0000
0000
0000
,
0001
0000
0001
0000
,
0002
0000
0000
0000
,
0003
0000
0000
0000
,
1000
0000
0000
0000
,
1000
0000
0000
0000
,
0010
0000
0000
0000
,
0100
0000
0000
0000
,
0010
0000
0000
0000
,
0001
0000
0000
0000
,
0001
0000
0000
0000
,
1000
0000
0000
0000
,
0110
0000
0000
0000
,
0010
0000
0000
0000
,
0100
0000
0000
0000
,
0010
0000
0010
0000
,
0010
0000
0000
0000
,
1000
0000
1000
0000
,
1000
0000
0000
0000
,
0001
0000
1001
0000
,
0000
0000
0001
0000
,
0000
0000
0100
0000
,
0000
0000
0010
0000
,
0010
0000
0010
0000
,
0000
0000
1000
0000
,
1000
0000
1000
0000
,
0000
0000
1000
0000
,
0000
0000
1000
0000
,
1000
0000
1000
0000
,
1000
0000
0001
0000
,
0001
0000
0001
0000
,
0000
0000
0000
0200
,
0000
0300
0000
0000
0000
0000
1000
0000
,
0000
1000
0000
0000
,
0000
0100
0000
0100
,
0000
0100
0000
0100
,
0000
0010
0000
0000
,
0000
0001
0000
0001
,
0000
0001
0000
0000
,
0000
1000
0000
0000
,
0000
0100
0000
0000
,
0000
0100
0000
0000
,
0000
0010
0000
0010
,
0000
0010
0000
0000
,
0000
0002
0000
0000
,
0000
0000
0000
0000
,
0000
1000
0000
0000
,
0000
2000
0000
0000
0000
0000
0000
0000
,
0000
3003
0000
0000
0000
0000
1000
0000
,
0000
1000
0000
0010
,
0000
0010
0000
0100
,
0000
0100
0000
0000
,
0000
0001
0000
0001
,
0000
0001
0000
0000
,
0000
1000
0000
1000
,
0000
1000
0000
0000
,
0001
0000
0000
0000
;

//---------------dance-single - ----------------
#NOTES:
     dance-single:
     :
     Easy:
     5:
     0.232,0.268,0.000,0.233,0.000:
0000
0000
0000
0000
,
0000
0000
0000
0000
,
0000
0000
0000
0000
,
0000
0000
0000
0000
,
0002
0000
0000
0000
,
0000
0000
0000
0000
,
2003
0000
0000
0000
,
3020
0000
0000
0000
,
0230
0000
0000
0000
,
0000
0000
0000
0000
,
0302
0000
0000
0000
,
0000
0000
0000
0000
0000
0000
0000
0003
,
2000
0000
0000
0000
,
3020
0000
0000
0000
,
0230
0000
0000
0000
,
0302
0000
0000
0000
,
1003
0000
0100
0000
0010
0000
0000
0010
,
0000
0000
0100
0000
0100
0000
0000
0100
,
0000
0010
0010
0010
,
0000
0001
0001
0000
,
1000
0000
0000
0000
1000
0000
0000
1000
,
0000
0010
0010
0000
,
0010
0000
0200
0000
,
0320
0000
0000
0000
,
2030
0000
0000
0000
0000
0000
0000
3000
,
0001
0000
0100
0000
,
0010
0010
0000
0000
,
0001
0001
0000
0000
,
1000
0000
0000
0100
0000
0100
0000
0200
,
0000
0000
0000
0000
,
0310
0000
0010
0000
,
0001
0000
1000
0000
,
1000
1000
1000
0000
,
0000
0000
0010
0100
,
0000
0000
0010
0000
0100
0000
0010
0020
,
0000
0000
2030
0000
,
3020
0000
0230
0000
,
0301
0000
0001
0000
,
1000
0000
0002
0000
,
0023
0000
0000
0000
0230
0000
0000
0300
,
2000
0000
3000
0100
,
0010
0001
1000
0001
,
1000
0100
0010
0000
,
0001
0100
0010
0010
,
0010
0010
0000
1000
,
0000
1000
0000
0000
0100
0000
0100
0000
,
0000
0100
0000
0000
0010
0000
0010
0000
,
0000
0010
0000
0000
0001
0000
0000
0000
,
0001
0000
1000
0000
,
0100
0100
0000
0010
,
0000
0010
0000
0001
,
0000
0001
0000
1000
,
0000
1000
0000
0000
0100
0000
0100
0000
,
0000
0010
0000
0000
0010
0000
0100
0000
,
0000
0100
0000
0000
0001
0000
0001
0000
,
0000
1000
0000
0000
0100
0000
0000
0000
,
0010
0000
0001
1000
,
0001
2000
0000
0000
,
0000
3002
0000
0000
,
0000
0000
1003
0000
0000
0100
0000
0000
,
0000
2000
0000
0000
0000
0000
0000
0000
,
0000
3001
0100
0010
,
0100
0000
0100
0010
,
0010
0000
1000
0100
,
0010
0001
0000
0001
,
0010
0100
0000
0010
,
0100
1000
0000
1000
,
0100
0001
0001
0100
,
1000
1000
0100
0001
,
0100
0100
0000
0000
0000
0000
0000
0000
;

//---------------dance-single - ----------------
#NOTES:
     dance-single:
     :
     Medium:
     9:
     0.375,0.537,0.010,0.291,0.078:
0000
0000
0000
0000
,
0000
0000
0000
0000
,
0000
0000
0000
0000
,
0000
0000
0000
0000
,
2000
0000
0000
0000
,
0000
0000
0000
0000
,
3200
0000
0000
0000
,
0320
0000
0000
0000
,
0032
0000
0000
0000
,
0000
0000
0000
0000
,
0203
0000
0000
0000
,
0000
0000
0000
0000
,
0320
0000
0000
0000
,
2030
0000
0000
0000
,
3002
0000
0000
0000
,
1003
0100
0010
0001
,
1000
1000
0010
0100
,
0100
0000
0010
0000
0100
0000
0100
0010
,
0000
0010
0100
1000
,
0100
0010
0001
0010
,
0001
0000
0001
0000
1000
0000
1000
0100
,
0000
0010
0100
0000
0010
0000
0100
0000
,
1000
0010
0100
0001
,
2000
0000
0000
3002
0000
0000
0103
0000
,
0010
0000
0000
0000
0100
0010
0000
0000
,
2000
0000
0000
0000
0000
3100
0010
0100
,
0010
0000
0010
0100
0000
0100
0000
0010
,
0000
1000
0020
0000
0000
0000
0000
0030
,
1000
0000
0000
0010
0000
0100
0000
0002
,
0000
0000
0000
0103
,
0001
0000
1000
0000
0100
0010
0000
0000
,
0001
0100
1000
0010
,
1000
0000
0000
0010
0000
0000
0100
0000
1001
0000
0000
0000
0100
0000
0000
0000
,
0010
0000
0100
0010
0100
0000
1000
0100
,
0000
0010
0000
0001
0000
1000
0002
0000
,
0000
0000
0000
0000
0203
0000
0000
0310
,
0000
1000
0000
0200
0000
0000
0000
0000
,
0000
0310
1000
0010
0100
0000
0100
0010
,
0000
0001
0000
0000
0200
0000
0000
0000
,
0302
0000
0000
0000
2003
0000
0000
3010
,
0000
0000
0100
0000
0010
0000
0000
0000
1000
0000
0000
0010
0000
0100
0010
0100
,
0010
0000
1000
0100
0000
0010
0000
0100
0010
0100
0010
0200
0000
0000
0000
0000
,
0000
0000
0000
0000
0000
0000
0000
0300
2000
0000
0000
0000
0000
3001
1000
0001
,
1000
0000
0100
0010
0000
0010
0000
0000
0002
0000
0000
0000
0000
0000
2003
0000
,
0000
0000
0000
0000
3002
0000
0000
0000
0000
0000
0000
0000
0000
0000
0000
1003
,
0100
0010
0001
0000
0000
0000
1000
0000
1000
0000
0000
0000
0001
0000
0000
0000
,
0100
0010
0000
0100
0010
1000
0100
0010
,
0001
0100
0000
0100
0000
0010
0000
0010
,
0000
0001
0000
0001
0000
1000
0000
0000
,
0100
0000
0010
0000
0010
0001
0000
0000
,
0010
1000
1000
0100
,
0010
0000
0001
0000
0000
0000
1000
0001
,
1000
0001
0000
0000
0000
0000
0100
0010
,
0100
0010
0000
1000
0100
0000
0010
0100
,
0010
0100
0000
0001
0010
0000
0100
1000
,
0100
0010
0000
0100
0000
0010
0000
0001
,
0000
0100
0000
0100
0000
2000
0000
0000
,
3001
0002
0000
0000
,
0000
1000
0000
1000
,
0000
0000
1003
0000
0000
0010
0000
0100
,
0000
0000
0002
0000
1000
2000
0000
0000
0000
0000
0000
0000
0000
0000
3003
0000
,
0001
1000
0010
0000
0100
0000
1000
0100
,
0010
0001
0000
0100
0010
0000
1000
0100
,
0001
0100
0000
0100
0010
0000
0001
0100
,
0010
0000
0001
0000
0100
0000
0010
0100
,
0010
0000
1000
0000
0100
0000
0010
0001
,
0100
0010
0000
0100
0010
0000
1000
0100
,
0010
2000
0000
3002
,
0000
0000
0103
0000
0010
0000
1000
0100
,
0010
0001
0000
0000
0000
0000
0000
0000
;
