#TITLE:Broken 8cmix;
#SUBTITLE:;
#ARTIST:iroha(sasaki);
#TITLETRANSLIT:;
#SUBTITLETRANSLIT:;
#ARTISTTRANSLIT:;
#CREDIT:;
#GENRE:TRANCE REMIX;
#BANNER:Broken 8cmix.png;
#BACKGROUND:Broken 8cmix-bg.png;
#LYRICSPATH:;
#CDTITLE:cdtitle.png;
#MUSIC:Broken 8cmix.mp3;
#MENUCOLOR:1,0,0,1;
#METERTYPE:DDR X;
#OFFSET:0.144;
#SAMPLESTART:60.730;
#SAMPLELENGTH:12.000;
#SELECTABLE:YES;
#BPMS:0.000=150.000;
#STOPS:;
#BGCHANGES:;

//---------------dance-single - ----------------
#NOTES:
     dance-single:
     :
     Hard:
     12:
     0.500,0.642,0.105,0.545,0.091:
0000
0000
0000
0000
,
0000
0000
0000
0000
,
1000
0000
0002
0000
0000
0023
0230
2300
,
0000
0010
0010
0010
,
3020
0000
0001
0000
0000
0031
1000
0200
,
0000
0000
0000
0000
0301
0000
0000
0000
0001
0000
1000
0001
1000
0000
0001
0000
,
1000
0000
1000
0000
0002
0000
0023
2030
,
0000
0000
0010
0000
0010
0000
3010
0100
,
0020
0000
0000
0000
0000
2030
3002
0203
,
0000
0000
0000
0000
,
0301
0000
1000
0100
0010
0001
1000
0002
,
1000
1000
1000
1000
,
2003
0000
0010
0000
0000
0001
0001
0002
,
3000
0100
0000
0100
,
0203
0000
0010
0000
0010
0000
0010
0020
,
0300
0100
0000
0100
,
1030
0000
0010
0000
1000
0010
1000
0100
,
0001
1000
0001
0000
0100
0010
0100
0000
,
1000
0000
0010
0100
0000
0100
0010
0200
,
0000
0000
0000
0000
0000
0000
0000
0000
0301
0000
0010
0000
0001
1000
0001
0000
,
0020
0000
1030
0100
0000
0010
0001
2000
,
0000
0000
0000
0000
3010
0100
0010
0100
,
0102
0000
0000
0000
0000
0000
1003
2000
,
0000
0000
0000
0010
,
3020
0000
0000
0000
0000
0000
1030
0002
,
0000
0103
0010
1000
,
0001
0000
1000
0001
2000
0000
0000
0000
,
0000
3010
0100
0010
,
0002
0000
0000
0000
0000
0000
1003
0001
,
0000
0000
0000
0000
0100
0000
0000
0000
0010
0000
0000
0001
1000
0000
0001
0000
,
2000
0000
0000
0000
3001
1000
0001
0020
,
0000
0000
0000
0000
0130
0000
0001
1000
,
0002
0000
0103
0020
0000
2030
0000
3200
,
0000
0000
0310
0000
1000
0000
0001
1000
,
2000
0000
0000
0000
,
3001
0000
0100
0000
0020
0000
1030
0001
,
2000
0001
0001
0001
,
3001
1000
0001
0000
1000
0001
1000
0000
,
0002
0000
0103
0001
0100
0010
1000
0010
,
0200
0000
0010
0000
0010
0310
1000
0010
,
0200
0000
0310
1000
0002
0000
0103
0010
,
0002
0000
0203
0000
0310
0100
0010
1000
,
0200
0000
0301
0200
0000
0000
0301
0000
,
0110
0000
0100
0000
0010
0100
0100
0000
,
0001
1001
0000
1000
1001
0000
0001
1001
,
0000
0000
1000
0000
0001
0000
0000
0000
1000
0000
0001
0000
1000
0001
1000
0001
,
2000
0000
3010
0200
0000
0000
0301
0010
,
0002
0000
0000
0203
0000
0000
0310
1000
,
0020
0000
1030
0200
0000
0302
0000
0203
,
0000
0000
0000
0000
0310
1000
0010
1000
,
0020
0000
0000
0000
,
2000
0000
0000
3030
,
1000
0001
0100
0000
0100
0000
0010
0000
,
1001
0000
0000
0000
1001
0000
0000
0000
0110
0000
0000
0110
0000
0000
1001
0000
,
1001
0000
0000
0001
0100
0000
0001
0000
0100
0000
1000
0010
1000
0000
0001
0000
,
0100
0000
0000
0001
1000
0000
0100
0000
0010
0000
0001
0000
0100
0000
0010
0000
,
0100
0000
0001
1000
0001
0000
0100
0000
1000
0000
0001
0010
0100
0000
1000
0000
,
0100
0000
0010
0000
1000
0000
0001
1000
0001
0000
0001
1000
0000
0001
0100
0000
,
0001
0100
0001
0100
0001
1000
0100
0010
,
0001
0000
0000
0000
1000
0100
1000
0100
0010
0001
0010
0001
0100
0000
0010
0000
,
1000
0000
0001
1000
0001
0000
1000
0010
,
2000
0000
0000
0000
3001
0000
0100
0001
0010
0000
0010
0000
0200
0000
0000
0000
,
0301
2000
0001
0000
,
0000
0000
0000
0000
,
3000
0000
0000
0000
;

//---------------dance-single - ----------------
#NOTES:
     dance-single:
     :
     Medium:
     8:
     0.314,0.459,0.029,0.411,0.029:
0000
0000
0000
0000
,
0000
0000
0000
0000
,
1000
0002
0000
0000
,
2003
0000
0000
0000
,
3020
0000
0000
0000
,
0230
0000
0000
0000
,
0301
1000
0002
0000
,
2003
0000
0000
0000
,
3020
0000
0000
0000
,
0230
0000
0000
0000
,
0301
1000
0010
0001
,
2000
0000
0000
0000
,
3002
0000
0000
0000
,
0203
0000
0000
0000
,
0310
1000
0001
0100
,
0020
0000
0000
0000
,
2030
0000
0000
0000
,
3002
0000
1000
0000
,
1003
0000
0000
0100
0000
0000
0000
0010
,
0000
0000
0001
1000
,
0001
0000
0000
0100
0000
0000
0000
0020
,
0000
0000
1030
0001
,
2000
0000
0000
0000
,
3020
0000
0000
0130
,
0002
0000
0000
1003
,
0001
0100
0010
0001
,
2000
0000
3002
0000
,
0000
0003
1000
0000
0001
0000
1000
0000
,
0002
0000
0000
0000
0000
0000
1003
0001
,
0000
0000
1000
0000
0010
0000
1000
0002
,
0000
0000
0000
0000
,
2003
0000
0000
3001
,
0001
0000
0001
1000
0000
0001
0000
2000
,
0000
3010
1000
0001
,
0200
0000
0000
0000
,
1300
0000
2000
0000
,
3002
0000
0000
0000
,
1003
0001
1000
0001
,
1000
0000
0001
1000
0000
0001
1000
0002
,
0000
0000
0000
0000
0000
0000
1003
0002
,
0000
0000
0000
2003
0000
0000
0000
3010
,
0100
0000
0010
0000
0100
0010
0000
2000
,
0000
0000
0000
3002
0000
0000
0000
0000
,
1003
0000
0001
1000
,
0001
0010
0000
0010
0100
0000
0100
1000
,
0000
0000
1000
0001
1000
0001
1000
0001
,
0002
0000
0000
2003
0000
0000
3010
0100
,
0020
0000
0000
0230
0000
0000
0301
1000
,
0001
0000
1000
0100
0000
0010
0000
0002
,
0000
0000
0000
0003
1000
0001
1000
0001
,
2000
0000
0000
0000
,
3001
0000
0020
0000
,
0200
0000
0000
0330
,
0110
0000
0000
0000
0110
0000
0000
0000
0110
0000
0000
0010
0000
0000
0010
0000
,
0010
0000
0000
1000
0000
0000
0001
0000
1000
0000
0000
0010
0000
0000
0100
0000
,
0020
0000
1030
0100
1000
0010
0100
0001
,
0010
0000
0000
0100
0000
0000
0010
0000
0100
0000
0000
0001
0000
0000
0010
0000
,
2000
0000
0000
0000
3001
0000
0010
0000
0100
0000
0000
0100
0000
0000
0100
0000
,
0010
0000
0001
0000
0100
0000
0010
0100
,
0010
0000
1000
0100
0010
0000
0001
0010
,
0100
0000
1000
0001
1000
0001
1000
0010
,
0100
0000
0100
0010
1000
0100
0001
0100
,
0001
2000
0000
0000
,
0000
0000
0000
0000
,
3000
0000
0000
0000
;

//---------------dance-single - ----------------
#NOTES:
     dance-single:
     :
     Easy:
     5:
     0.265,0.367,0.000,0.315,0.000:
0000
0000
0000
0000
,
0000
0000
0000
0000
,
1000
0002
0000
0000
,
0000
0000
0000
0000
,
2003
0000
0000
0000
,
3020
0000
0000
0000
,
0030
0000
0002
0000
,
0000
0000
0000
0000
,
2003
0000
0000
0000
,
3002
0000
0000
0000
,
1003
0100
0010
0001
,
2000
0000
0000
0000
,
3002
0000
0000
0000
,
2003
0000
0000
0000
,
3001
1000
0100
0010
,
0002
0000
0000
0000
,
2003
0000
0000
0000
,
3020
0000
0000
0000
,
0130
0000
0010
0000
,
1000
0000
0001
1000
,
0001
0000
0100
0000
,
0010
0000
1000
0001
,
2000
0000
0000
0000
,
3002
0000
0000
0000
,
0203
0000
0000
0000
,
0310
1000
0100
0001
,
0100
1000
0020
0000
,
0000
0031
0100
0010
,
2000
0000
3001
0100
,
0010
0000
0001
0000
1000
0001
1000
0000
,
0020
0000
0000
0000
,
0230
0000
0000
0301
,
1000
0001
0100
0010
,
0001
1000
0001
0001
,
2000
0000
0000
0000
,
3001
0100
0010
0001
,
1000
0001
1000
0001
,
0100
0100
0010
0010
,
1000
0100
0010
0001
,
1000
0001
1000
0100
,
0020
0000
0032
0000
,
1003
0100
0001
0100
,
1000
0010
1000
0010
,
1000
0100
0010
0001
,
1000
1000
0000
0001
0001
0000
1000
1000
,
0000
0000
0001
1000
,
0001
0100
0010
0001
,
1000
0100
0010
0001
,
1000
0001
1000
0001
,
1000
0000
0010
0100
,
0020
0000
0000
0000
,
0130
0000
2000
0000
,
3002
0000
0000
0000
,
1003
0001
1000
0001
,
1000
0001
0001
0100
,
0010
0001
1000
0001
,
0100
1000
0100
0010
,
0001
0100
0002
2003
,
3001
0100
0010
0001
,
0100
2000
3020
0230
,
0301
1000
0100
0010
,
2000
0000
3002
0000
,
1003
0200
0000
0000
,
0000
0000
0000
0000
,
0300
0000
0000
0000
;

//---------------dance-single - ----------------
#NOTES:
     dance-single:
     :
     Beginner:
     2:
     0.098,0.178,0.038,0.019,0.000: // measure 1
0000
0000
0000
0000
,  // measure 2
0000
0000
0000
0000
,  // measure 3
1000
0000
0000
0000
,  // measure 4
1000
0000
0000
0000
,  // measure 5
0001
0000
0000
0000
,  // measure 6
0100
0000
0000
0000
,  // measure 7
0010
0000
0000
0000
,  // measure 8
1000
0000
0000
0000
,  // measure 9
0100
0000
0000
0000
,  // measure 10
0010
0000
0000
0000
,  // measure 11
0001
0000
0000
0000
,  // measure 12
0001
0000
0000
0000
,  // measure 13
0100
0000
0000
0000
,  // measure 14
0100
0000
0000
0000
,  // measure 15
0010
0000
0000
0000
,  // measure 16
0010
0000
0000
0000
,  // measure 17
0001
0000
0000
0000
,  // measure 18
0001
0000
0000
0000
,  // measure 19
1000
0000
0000
0000
,  // measure 20
0100
0000
0000
0000
,  // measure 21
0010
0000
0000
0000
,  // measure 22
0001
0000
0000
0000
,  // measure 23
1001
0000
0000
0000
,  // measure 24
0001
0000
0000
0000
,  // measure 25
0001
0000
0000
0000
,  // measure 26
0100
0000
0000
0000
,  // measure 27
0100
0000
0000
0000
,  // measure 28
0010
0000
0000
0000
,  // measure 29
0010
0000
0000
0000
,  // measure 30
1000
0000
0000
0000
,  // measure 31
1001
0000
0000
0000
,  // measure 32
0001
0000
0000
0000
,  // measure 33
0001
0000
0000
0000
,  // measure 34
0001
0000
0000
0000
,  // measure 35
0010
0000
0000
0000
,  // measure 36
0010
0000
0000
0000
,  // measure 37
0100
0000
0000
0000
,  // measure 38
0100
0000
0000
0000
,  // measure 39
1000
0000
0000
0000
,  // measure 40
1000
0000
0000
0000
,  // measure 41
0001
0000
0000
0000
,  // measure 42
1000
0000
0000
0000
,  // measure 43
1001
0000
0000
0000
,  // measure 44
0001
0000
0000
0000
,  // measure 45
0110
0000
0000
0000
,  // measure 46
1000
0000
0000
0000
,  // measure 47
0001
0000
0000
0000
,  // measure 48
0001
0000
0000
0000
,  // measure 49
0100
0000
0000
0000
,  // measure 50
0100
0000
0000
0000
,  // measure 51
2000
0000
0000
0000
,  // measure 52
3000
0000
0000
0000
,  // measure 53
0002
0000
0000
0000
,  // measure 54
0003
0000
0001
0000
,  // measure 55
0001
0000
0000
0000
,  // measure 56
1000
0000
0000
0000
,  // measure 57
0100
0000
0000
0000
,  // measure 58
0010
0000
0001
0001
,  // measure 59
0001
0000
0000
0000
,  // measure 60
1000
0000
0100
0000
,  // measure 61
0100
0000
0010
0000
,  // measure 62
0010
0000
0010
0010
,  // measure 63
0010
0000
0000
0000
;
