#TITLE:Born to be;
#SUBTITLE:魔法戦争 ED;
#ARTIST:ナノ;
#TITLETRANSLIT:Born to be;
#SUBTITLETRANSLIT:Mahou Sensou ED;
#ARTISTTRANSLIT:nano;
#GENRE:MAGICAL ROCK;
#CREDIT:;
#BANNER:Born to be.png;
#BACKGROUND:Born to be-bg.png;
#LYRICSPATH:;
#CDTITLE:cdtitle.png;
#MUSIC:Born to be.mp3;
#METERTYPE:DDR X;
#MENUCOLOR:0,0,1,1;
#OFFSET:0.278;
#SAMPLESTART:60.745;
#SAMPLELENGTH:12.000;
#SELECTABLE:YES;
#BPMS:0.000=192.000;
#STOPS:194.500=0.313
,195.000=0.469
,195.500=0.469
;
#BGCHANGES:;

//---------------dance-single - ----------------
#NOTES:
     dance-single:
     :
     Hard:
     14:
     0.854,0.918,0.700,0.489,0.050: // measure 1
0000
0000
0000
0000
,  // measure 2
0000
0000
0000
0000
,  // measure 3
0000
0000
0000
0000
,  // measure 4
0000
0000
0000
0000
0000
0000
0000
0000
1000
0001
0100
0001
1000
0000
0000
0000
,  // measure 5
1000
1000
0100
0010
0001
0100
0010
0010
,  // measure 6
0100
0010
0001
0020
0100
0100
0130
0000
,  // measure 7
1000
1000
0100
0010
0001
0010
0100
0200
,  // measure 8
0000
1300
0010
0100
0001
0001
0002
0003
,  // measure 9
0001
0001
0010
0100
1000
0010
0100
0100
,  // measure 10
0010
0100
1000
0200
0010
0010
0310
0000
,  // measure 11
0001
0001
0010
0100
1000
0100
0010
0020
,  // measure 12
0000
0031
0100
0010
1000
1000
1000
0000
,  // measure 13
2002
0000
0000
0000
,  // measure 14
0000
0000
0000
3003
,  // measure 15
0220
0030
0000
0000
2000
3000
0000
0000
,  // measure 16
0002
0000
0303
0000
1001
0000
0001
1000
0001
0000
1001
0000
0010
0000
0000
0000
,  // measure 17
2002
3003
1000
0100
0110
0000
0100
1100
,  // measure 18
0000
0100
0001
0010
0110
0100
0010
0001
,  // measure 19
0110
0000
1000
0010
0101
0000
0001
0100
,  // measure 20
0010
1000
0010
0100
1010
1000
1000
0000
,  // measure 21
2020
0000
3030
0000
0100
0000
0010
1000
0100
0000
0000
0000
0100
0000
2000
0000
,  // measure 22
3000
0000
0001
0000
0010
0000
0010
0001
1000
0000
1000
0000
0100
0000
0010
0000
,  // measure 23
1100
0000
0000
0000
1001
0000
0010
0001
0100
0000
0000
0000
0001
0000
0110
0000
,  // measure 24
0000
0010
0001
0010
0110
0100
0100
0100
,  // measure 25
0220
0330
1000
0100
0010
0001
0010
0100
,  // measure 26
1000
0100
0010
0001
0010
0010
0001
0000
,  // measure 27
2200
3300
1000
0010
0100
0001
0100
0010
,  // measure 28
1000
0100
0010
0002
0100
0100
0103
0000
,  // measure 29
0220
0330
1000
0100
0010
0100
1000
0010
,  // measure 30
1000
0100
0010
0100
1000
1000
1000
0000
,  // measure 31
0220
0330
0001
0100
0010
0100
0001
0010
,  // measure 32
0001
0000
0100
0000
0010
0000
0100
0000
0010
0001
0010
0000
0100
0000
0010
0000
,  // measure 33
1100
0100
0011
0001
0100
0010
0110
0100
,  // measure 34
0010
1000
1100
0100
1000
0010
0101
0100
,  // measure 35
0001
0010
1001
0100
1000
0100
0120
0000
,  // measure 36
0100
0000
0100
0000
0130
0001
1001
0000
,  // measure 37
0010
1000
1100
0100
0010
0100
0110
0001
,  // measure 38
1000
0100
0011
0001
0100
0010
1010
0001
,  // measure 39
0100
0010
1001
0010
1000
0010
0101
1000
,  // measure 40
0100
0000
0010
0000
0011
0000
0001
0000
0110
0000
0011
0000
1100
0000
0001
1000
,  // measure 41
0200
0000
1300
0001
0110
0000
0100
0010
,  // measure 42
0000
0100
0010
0100
0101
0000
0010
0001
,  // measure 43
0011
0000
1000
0100
0110
0000
1000
0100
,  // measure 44
0000
0010
0001
0010
0110
0100
1000
0100
,  // measure 45
2100
0100
0100
3100
,  // measure 46
0021
0001
0001
0031
,  // measure 47
1000
1000
0100
0100
0010
0010
0001
0001
,  // measure 48
0010
1000
0010
0100
0001
0100
0001
1000
,  // measure 49
0000
0000
0001
0000
0001
0000
0001
0000
0001
0000
0002
0003
2020
3030
0202
0303
,  // measure 50
1001
0001
0010
0001
0010
0100
0010
0100
,  // measure 51
0010
0100
2100
3002
0100
0103
0000
0000
,  // measure 52
0100
0100
0010
1000
0100
0010
0100
0001
,  // measure 53
1000
0010
0002
0000
1000
1000
0013
0000
,  // measure 54
2100
0000
0000
0000
0000
0100
0100
3002
,  // measure 55
0000
1000
1000
0000
0000
1003
0100
0001
,  // measure 56
0100
1000
0010
0001
0010
1000
0001
0020
,  // measure 57
0000
0000
0130
0000
1000
0000
0100
0000
0010
0000
0001
0000
0100
0000
0100
0010
,  // measure 58
0100
1000
0100
0001
0010
0100
1000
0001
,  // measure 59
0001
0010
0002
0000
0100
0103
0000
0000
,  // measure 60
1000
0001
0010
0001
1000
0100
1000
0001
,  // measure 61
0010
0100
2100
0000
0010
0010
3100
0010
,  // measure 62
1020
0000
1000
0000
0000
1000
0000
0002
,  // measure 63
0000
0030
0013
0000
0000
0010
1000
0001
,  // measure 64
0110
0001
0100
0010
0100
0001
0100
0010
,  // measure 65
1001
0010
0000
0100
0100
0010
0000
0000
,  // measure 66
1100
0000
0100
0010
0101
0001
0100
0010
,  // measure 67
0000
0010
1000
0010
0110
1000
0001
0000
,  // measure 68
0110
0000
0010
0001
0011
0000
0100
0010
,  // measure 69
0000
0100
0010
0100
1100
0011
0101
1010
;

//---------------dance-single - ----------------
#NOTES:
     dance-single:
     :
     Medium:
     10:
     0.562,0.612,0.089,0.122,0.000: // measure 1
0000
0000
0000
0000
,  // measure 2
0000
0000
0000
0000
,  // measure 3
0000
0000
0000
0000
,  // measure 4
0000
0000
0000
0000
1000
0001
1000
0000
,  // measure 5
0001
0000
0100
0001
0100
0000
1000
0100
,  // measure 6
0000
0010
0100
0000
0010
0100
0010
0000
,  // measure 7
1000
0100
0000
0010
0000
0001
0010
0001
,  // measure 8
0000
0010
0100
0010
0000
0001
1000
0000
,  // measure 9
0010
0000
0100
0010
0100
0000
0001
0100
,  // measure 10
0000
1000
0001
0010
0100
0000
0010
0000
,  // measure 11
0001
0100
0000
0010
0000
0100
0000
0001
,  // measure 12
0000
1000
0100
0010
0000
0100
0010
0000
,  // measure 13
2002
0000
0000
0000
,  // measure 14
0000
0000
3003
0000
,  // measure 15
0200
0000
1000
0000
,  // measure 16
0010
0001
0001
0301
,  // measure 17
1001
0000
0000
0000
0110
0000
0100
0010
,  // measure 18
0000
1000
0001
0010
0001
1000
0100
0000
,  // measure 19
1000
0000
0001
0100
0010
0000
0100
0001
,  // measure 20
0000
0100
0000
0010
1000
0100
0010
0000
,  // measure 21
1100
0000
0000
0001
1000
0000
0100
0010
,  // measure 22
0000
0100
1000
0100
0010
0001
0010
0001
,  // measure 23
1000
0001
1000
0010
0100
0000
0010
1000
,  // measure 24
0000
0010
1000
0010
0001
0001
0001
0000
,  // measure 25
1000
0000
0000
0001
1000
0000
0010
0100
,  // measure 26
0000
0001
1000
0010
0100
0100
0010
0000
,  // measure 27
0110
0000
0000
0100
0010
0010
1000
1000
,  // measure 28
0000
0001
0001
0100
0010
0010
1000
0000
,  // measure 29
1001
0000
0000
1000
1000
0100
0010
0010
,  // measure 30
0000
0001
0010
0100
1000
1000
0010
0000
,  // measure 31
1001
0000
0000
0100
0010
0000
0100
0010
,  // measure 32
0000
1000
0001
0010
0001
0001
0100
0010
,  // measure 33
0000
0000
1000
0001
0010
0000
0001
1000
,  // measure 34
0100
1000
0100
0010
0010
0010
0001
0000
,  // measure 35
0100
0000
1000
0100
0000
0100
0020
0000
,  // measure 36
0000
0000
0000
0000
,  // measure 37
1030
0000
1000
0100
0010
0000
0100
0010
,  // measure 38
0000
1000
0000
0010
0001
0010
0001
0010
,  // measure 39
0100
0100
0010
0001
0000
1000
0000
0100
,  // measure 40
0000
0010
0002
0000
0100
0000
0010
0000
,  // measure 41
1003
0000
1000
0000
0001
0010
0000
0100
,  // measure 42
0000
0010
0000
1000
0010
0000
0001
0010
,  // measure 43
0100
0000
1000
0000
0100
0000
0010
0001
,  // measure 44
0000
0100
0000
0010
0010
0100
0010
0100
,  // measure 45
1000
0000
0100
0000
0010
0001
0000
0100
,  // measure 46
0000
0010
0000
0100
0000
0100
0010
0100
,  // measure 47
0010
0000
1000
0100
0000
0010
0000
0001
,  // measure 48
0200
0000
0000
0310
2000
0000
0000
3010
,  // measure 49
0000
1000
0001
1000
0001
1000
0001
0001
,  // measure 50
1000
0100
0010
0001
0100
0010
0100
0010
,  // measure 51
1000
0100
0010
0001
0100
0100
0000
0000
,  // measure 52
1000
0100
0010
0001
0100
0000
0010
0100
,  // measure 53
0010
1000
0100
0000
1000
0100
0010
0000
,  // measure 54
0002
0000
0000
0000
0000
1003
0000
2000
,  // measure 55
0000
0000
0000
0000
0000
3100
0000
0010
,  // measure 56
0000
1000
0100
0000
0010
0100
0001
0001
,  // measure 57
0000
0100
0000
0001
0000
0100
0000
0000
,  // measure 58
1000
0100
0000
0010
0001
0100
0010
0100
,  // measure 59
0001
1000
0100
0000
0100
0100
0000
0000
,  // measure 60
1000
0100
0000
0010
0000
0100
0010
0100
,  // measure 61
0010
0100
0010
0000
1000
0100
0010
0000
,  // measure 62
2001
0000
0000
0000
0000
3010
0000
0002
,  // measure 63
0000
0000
0000
0000
0000
0013
0000
0010
,  // measure 64
0000
0100
1000
0000
0100
0000
0010
1000
,  // measure 65
0000
0010
0000
1000
0100
0010
0000
0000
,  // measure 66
1000
0000
0001
0100
0001
1000
0100
0010
,  // measure 67
0000
0100
0000
0100
0010
0100
0010
0000
,  // measure 68
1000
0000
1000
0001
1000
0010
0100
0010
,  // measure 69
0000
0100
0000
0000
1000
0001
1000
0001
;

//---------------dance-single - ----------------
#NOTES:
     dance-single:
     :
     Beginner:
     4:
     0.186,0.267,0.044,0.100,0.000: // measure 1
0000
0000
0000
0000
,  // measure 2
0000
0000
0000
0000
,  // measure 3
0000
0000
0000
0000
,  // measure 4
0000
0000
0000
0000
,  // measure 5
0001
0000
0001
0000
,  // measure 6
1000
0000
1000
0000
,  // measure 7
0010
0000
0010
0000
,  // measure 8
0100
0000
0001
0000
,  // measure 9
1000
0000
0100
0000
,  // measure 10
0010
0000
0001
0000
,  // measure 11
1000
0000
0001
0000
,  // measure 12
1000
0000
0001
0000
,  // measure 13
2000
0000
0000
0000
,  // measure 14
0000
0000
0000
0000
,  // measure 15
3000
0000
0000
0000
,  // measure 16
0000
0001
0001
0001
,  // measure 17
0001
0000
0010
0000
,  // measure 18
0010
0000
0100
0100
,  // measure 19
0100
0000
1000
0000
,  // measure 20
1000
0000
0001
0001
,  // measure 21
0001
0000
1000
0000
,  // measure 22
1000
0000
0010
0010
,  // measure 23
0010
0000
0100
0000
,  // measure 24
0001
0000
0001
0000
,  // measure 25
1001
0000
0001
0000
,  // measure 26
0010
0000
0100
0000
,  // measure 27
1001
0000
1000
0000
,  // measure 28
0100
0000
0010
0000
,  // measure 29
0110
0000
0010
0000
,  // measure 30
0100
0000
0010
0000
,  // measure 31
0110
0000
0001
0000
,  // measure 32
1000
0000
0001
0000
,  // measure 33
0001
0000
0010
0000
,  // measure 34
0100
0000
1000
0000
,  // measure 35
0001
0000
0001
0000
,  // measure 36
0001
0000
1000
0000
,  // measure 37
1000
0000
0010
0000
,  // measure 38
0100
0000
0001
0000
,  // measure 39
0010
0000
0001
0000
,  // measure 40
1000
0000
0010
0000
,  // measure 41
2000
0000
0000
0000
,  // measure 42
3000
0000
0000
0000
,  // measure 43
0200
0000
0000
0000
,  // measure 44
0300
0000
0000
0000
,  // measure 45
0020
0000
0000
0000
,  // measure 46
0030
0000
0000
0000
,  // measure 47
0002
0000
0000
0000
,  // measure 48
0003
0000
0000
0000
,  // measure 49
2000
0000
0000
0000
,  // measure 50
3000
0000
0000
0000
,  // measure 51
0001
0000
0001
0000
,  // measure 52
0000
0000
0000
0000
,  // measure 53
0100
0000
0100
0000
,  // measure 54
0200
0000
0000
0000
,  // measure 55
0300
0000
0000
0000
,  // measure 56
0010
0000
0010
0000
,  // measure 57
1000
0000
1000
0000
,  // measure 58
0001
0000
0001
0000
,  // measure 59
0001
0000
0001
0000
,  // measure 60
0010
0000
0010
0000
,  // measure 61
0100
0000
0100
0000
,  // measure 62
2000
0000
0000
0000
,  // measure 63
3000
0000
0000
0000
,  // measure 64
0001
0000
0000
0000
,  // measure 65
0002
0000
0000
0000
,  // measure 66
0003
0000
1000
0000
,  // measure 67
0001
0000
0100
0000
,  // measure 68
0010
0000
1000
0000
,  // measure 69
0001
0000
1000
0001
;

//---------------dance-single - ----------------
#NOTES:
     dance-single:
     :
     Easy:
     7:
     0.319,0.344,0.067,0.100,0.000: // measure 1
0000
0000
0000
0000
,  // measure 2
0000
0000
0000
0000
,  // measure 3
0000
0000
0000
0000
,  // measure 4
0000
0000
0000
0000
,  // measure 5
1000
0000
0001
0000
,  // measure 6
1000
0000
0001
0001
,  // measure 7
0001
0000
0100
0000
,  // measure 8
0010
0000
1000
1000
,  // measure 9
0001
0000
0100
0000
,  // measure 10
0010
0000
1000
1000
,  // measure 11
0100
0000
0010
0000
,  // measure 12
0001
0000
0100
0001
,  // measure 13
0200
0000
0000
0000
,  // measure 14
0000
0000
0000
0000
,  // measure 15
0302
0000
1000
0000
,  // measure 16
1003
1000
0001
1000
,  // measure 17
1001
0000
0001
0000
,  // measure 18
0001
0000
0010
0010
,  // measure 19
0100
0100
0100
0000
,  // measure 20
1000
0000
1000
0001
,  // measure 21
1001
0000
0010
0000
,  // measure 22
0010
0000
0100
0100
,  // measure 23
0100
0000
0001
0000
,  // measure 24
0010
0000
0001
0001
,  // measure 25
1001
0000
0100
0100
,  // measure 26
0100
0100
0100
0000
,  // measure 27
1001
0000
0010
0010
,  // measure 28
0010
0010
0010
0000
,  // measure 29
0110
0000
1000
1000
,  // measure 30
1000
1000
1000
0000
,  // measure 31
0110
0000
0001
0001
,  // measure 32
0001
0001
0001
0000
,  // measure 33
1000
0100
0010
0001
,  // measure 34
1000
0010
1000
0010
,  // measure 35
0001
0100
0010
2000
,  // measure 36
0000
0000
0000
0000
,  // measure 37
3001
0100
0001
1000
,  // measure 38
0010
1000
0001
1000
,  // measure 39
0100
0010
0001
1000
,  // measure 40
0001
1000
0001
0000
,  // measure 41
2000
0000
0000
0000
,  // measure 42
0001
0000
0001
0000
,  // measure 43
3002
0000
0000
0000
,  // measure 44
1000
0000
1000
0000
,  // measure 45
1003
0100
0010
0001
,  // measure 46
1000
0100
0010
0001
,  // measure 47
0001
0010
0100
1000
,  // measure 48
0001
0010
0100
1000
,  // measure 49
0001
0000
1000
0000
,  // measure 50
1000
0100
0010
0001
,  // measure 51
1000
0001
0010
0000
,  // measure 52
0010
0100
1000
0100
,  // measure 53
0010
0100
0010
0100
,  // measure 54
2000
0000
0000
0000
,  // measure 55
3000
0000
0000
0001
,  // measure 56
0100
0001
0100
0001
,  // measure 57
0010
0001
0010
0001
,  // measure 58
1000
0010
1000
0001
,  // measure 59
1000
0001
1000
0000
,  // measure 60
0001
0001
0100
0001
,  // measure 61
0100
0001
0010
0001
,  // measure 62
2000
0000
0001
0000
,  // measure 63
3002
0000
0000
0000
,  // measure 64
1003
0100
0010
0001
,  // measure 65
2000
0000
0000
0000
,  // measure 66
3001
0100
0001
0100
,  // measure 67
1000
0100
0010
0000
,  // measure 68
0001
0100
0001
0100
,  // measure 69
1000
0100
0010
1000
;
