#TITLE:Born to be -Changing BPM version-;
#SUBTITLE:魔法戦争 ED;
#ARTIST:ナノ;
#TITLETRANSLIT:Born to be;
#SUBTITLETRANSLIT:Mahou Sensou ED;
#ARTISTTRANSLIT:nano;
#GENRE:MAGICAL ROCK;
#CREDIT:;
#BANNER:../Born to be/Born to be.png;
#BACKGROUND:../Born to be/Born to be-bg.png;
#LYRICSPATH:;
#CDTITLE:cdtitle.png;
#MUSIC:../Born to be/Born to be.mp3;
#METERTYPE:DDR X;
#MENUCOLOR:0,0,1,1;
#OFFSET:0.278;
#SAMPLESTART:60.745;
#SELECTABLE:YES;
#BPMS:0.000=192.000,16.000=384.000,80.000=96.000,84.000=384.000,85.000=192.000,86.500=384.000,87.500=192.000,89.000=384.000,90.000=192.000,93.500=383.999,94.000=192.000,109.750=384.000,110.250=192.000,126.000=384.000,126.500=192.000,134.250=384.000,134.750=192.000,142.500=384.000,143.000=192.000,150.750=384.000,151.250=192.000,159.000=384.000,223.000=192.000,239.000=384.000,271.000=96.000,273.000=383.998,393.000=96.000,395.000=192.000,409.000=384.000;
#STOPS:272.250=0.313
,272.500=0.469
,272.750=0.469
;
#BGCHANGES:;

//---------------dance-single - ----------------
#NOTES:
     dance-single:
     :
     Challenge:
     15:
     0.854,1.000,0.700,0.489,0.378: // measure 1
0000
0000
0000
0000
,  // measure 2
0000
0000
0000
0000
,  // measure 3
0000
0000
0000
0000
,  // measure 4
0000
0000
0000
0000
0000
0000
0000
0000
1000
0001
0100
0001
1000
0000
0000
0000
,  // measure 5
1000
1000
0100
0010
,  // measure 6
0001
0100
0010
0010
,  // measure 7
0100
0010
0001
0020
,  // measure 8
0100
0100
0130
0000
,  // measure 9
1000
1000
0100
0010
,  // measure 10
0001
0010
0100
0200
,  // measure 11
0000
1300
0010
0100
,  // measure 12
0001
0001
0002
0003
,  // measure 13
0001
0001
0010
0100
,  // measure 14
1000
0010
0100
0100
,  // measure 15
0010
0100
1000
0200
,  // measure 16
0010
0010
0310
0000
,  // measure 17
0001
0001
0010
0100
,  // measure 18
1000
0100
0010
0020
,  // measure 19
0000
0031
0100
0010
,  // measure 20
1000
1000
1000
0000
,  // measure 21
2002
0000
0000
0000
0000
0000
0000
3003
,  // measure 22
0220
0000
0030
0000
0000
2000
0000
3000
,  // measure 23
0000
0000
0000
0000
0002
0000
0000
0000
0303
0000
1001
0000
0001
1000
0001
0000
,  // measure 24
1001
0000
0010
0000
0000
0000
2002
0000
3003
0000
0000
1000
0000
0100
0000
0110
,  // measure 25
0000
0000
0000
0100
0000
1100
0000
0000
0000
0100
0000
0001
0000
0010
0000
0110
,  // measure 26
0000
0100
0000
0010
0000
0001
0000
0110
0000
0000
0000
1000
0000
0010
0000
0101
,  // measure 27
0000
0000
0000
0001
0000
0100
0000
0010
0000
1000
0000
0010
0000
0100
0000
1010
,  // measure 28
0000
1000
0000
1000
0000
0000
0000
2020
0000
3030
0000
0000
0100
0000
0010
1000
,  // measure 29
0100
0000
0000
0000
0100
0000
2000
0000
3000
0000
0001
0000
0010
0000
0010
0001
,  // measure 30
1000
0000
1000
0000
0100
0000
0010
0000
1100
0000
0000
0000
1001
0000
0010
0001
,  // measure 31
0100
0000
0001
0110
0000
0010
0001
0010
,  // measure 32
0110
0000
0100
0000
0100
0000
0100
0000
0220
0000
0330
0000
0000
1000
0000
0100
,  // measure 33
0000
0010
0000
0001
0000
0010
0000
0100
0000
1000
0000
0100
0000
0010
0000
0001
,  // measure 34
0000
0010
0000
0010
0000
0001
0000
0000
0000
2200
0000
3300
0000
0000
1000
0000
,  // measure 35
0010
0100
0001
0100
0010
1000
0100
0010
,  // measure 36
0002
0000
0100
0000
0100
0000
0103
0000
0000
0000
0220
0000
0330
0000
0000
1000
,  // measure 37
0000
0100
0000
0010
0000
0100
0000
1000
0000
0010
0000
1000
0000
0100
0000
0010
,  // measure 38
0000
0100
0000
1000
0000
1000
0000
1000
0000
0000
0000
0220
0000
0330
0000
0000
,  // measure 39
0001
0100
0010
0100
0001
0010
0001
0100
,  // measure 40
0010
0000
0100
0000
0010
0001
0010
0000
0100
0000
0010
0000
1100
0000
0000
0000
,  // measure 41
0100
0011
0001
0100
,  // measure 42
0010
0110
0100
0010
,  // measure 43
1000
1100
0100
1000
,  // measure 44
0010
0101
0100
0001
,  // measure 45
0010
1001
0100
1000
,  // measure 46
0100
0120
0000
0100
,  // measure 47
0000
0100
0000
0130
,  // measure 48
0001
1001
0000
0010
,  // measure 49
1000
1100
0100
0010
,  // measure 50
0100
0110
0001
1000
,  // measure 51
0100
0011
0001
0100
,  // measure 52
0010
1010
0001
0100
,  // measure 53
0010
1001
0010
1000
,  // measure 54
0010
0101
1000
0100
,  // measure 55
0010
0011
0001
0110
,  // measure 56
0011
0000
1100
0000
0001
1000
0200
0000
,  // measure 57
1300
0001
0110
0000
0100
0010
0000
0100
,  // measure 58
0010
0100
0101
0000
0010
0001
0011
0000
,  // measure 59
1000
0100
0110
0000
1000
0100
0000
0010
,  // measure 60
0001
0010
0110
0100
1000
0100
2100
0000
,  // measure 61
0000
0100
0000
0100
,  // measure 62
0000
3100
0000
0021
,  // measure 63
0000
0001
0000
0001
,  // measure 64
0000
0031
0000
1000
,  // measure 65
1000
0100
0100
0010
,  // measure 66
0010
0001
0001
0010
,  // measure 67
1000
0010
0100
0001
,  // measure 68
1000
0000
0000
0000
0001
0000
0000
0000
1000
0000
0000
0000
0000
0001
0001
0001
,  // measure 69
0001
0000
0002
0003
2020
3030
0202
0303
1001
0000
0000
0000
0000
0000
0000
0000
0001
0000
0000
0000
0000
0000
0000
0000
0010
0000
0000
0000
0000
0000
0000
0000
,  // measure 70
0001
0010
0100
0010
,  // measure 71
0100
0010
0100
2100
,  // measure 72
3002
0100
0103
0000
,  // measure 73
0000
0100
0100
0010
,  // measure 74
1000
0100
0010
0100
,  // measure 75
0001
1000
0010
0002
,  // measure 76
0000
1000
1000
0013
,  // measure 77
0000
2100
0000
0000
,  // measure 78
0000
0000
0100
0100
,  // measure 79
3002
0000
1000
1000
,  // measure 80
0000
0000
1003
0100
,  // measure 81
0001
0100
1000
0010
,  // measure 82
0001
0010
1000
0001
,  // measure 83
0020
0000
0130
1000
,  // measure 84
0100
0010
0001
0100
,  // measure 85
0100
0010
0100
0000
1000
0000
0100
0000
,  // measure 86
0001
0010
0100
1000
,  // measure 87
0001
0001
0010
0002
,  // measure 88
0000
0100
0103
0000
,  // measure 89
0000
1000
0001
0010
,  // measure 90
0001
1000
0100
1000
,  // measure 91
0001
0010
0100
2100
,  // measure 92
0000
0010
0010
3100
,  // measure 93
0010
1020
0000
1000
,  // measure 94
0000
0000
1000
0000
,  // measure 95
0002
0000
0030
0013
,  // measure 96
0000
0000
0010
1000
,  // measure 97
0001
0110
0001
0100
,  // measure 98
0010
0100
0001
0100
,  // measure 99
0010
0000
0000
0000
1001
0010
0000
0100
0100
0010
0000
0000
1100
0000
0000
0000
,  // measure 100
0100
0010
0101
0001
0100
0010
0000
0010
,  // measure 101
1000
0010
0110
1000
0001
0000
0110
0000
,  // measure 102
0010
0001
0011
0000
0100
0010
0000
0100
,  // measure 103
0010
0100
1100
0000
0011
0000
0101
0000
,  // measure 104
1010
0000
0000
0000
;
