#TITLE:僕らは今のなかで;
#SUBTITLE:ラブライブ! アニメ OP;
#ARTIST:μ's;
#TITLETRANSLIT:Bokura wa Ima no Naka de;
#SUBTITLETRANSLIT:Love Live! Anime OP;
#ARTISTTRANSLIT:μ's;
#GENRE:IDOL POP;
#CREDIT:;
#BANNER:Bokura wa Ima no Naka de.png;
#BACKGROUND:Bokura wa Ima no Naka de-bg.png;
#LYRICSPATH:;
#CDTITLE:cdtitle.png;
#MUSIC:Bokura wa Ima no Naka de.mp3;
#METERTYPE:DDR X;
#MENUCOLOR:0,0,1,1;
#OFFSET:-0.393;
#SAMPLESTART:50.000;
#SAMPLELENGTH:12.000;
#SELECTABLE:YES;
#BPMS:0.000=196.000;
#STOPS:;
#BGCHANGES:;

//---------------dance-single - ----------------
#NOTES:
     dance-single:
     :
     Beginner:
     3:
     0.125,0.200,0.011,0.044,0.000:
0000
0000
0000
0000
,
0000
0000
0000
0000
,
0000
0000
0000
0000
,
0000
0000
0000
0000
,
1001
0000
0000
0000
,
1000
0000
0000
0000
,
0001
0000
0000
0000
,
0100
0000
0000
0000
,
0010
0000
0000
0000
,
1000
0000
0000
0000
,
0001
0000
0000
0000
,
0001
0000
0000
0000
,
1000
0000
0000
0000
,
1000
0000
0000
0000
,
0100
0000
0000
0000
,
0100
0000
0000
0000
,
0010
0000
0000
0000
,
0001
0000
0000
0000
,
0001
0000
0000
0000
,
1000
0000
0000
0000
,
1000
0000
0000
0000
,
0010
0000
0000
0000
,
0010
0000
0000
0000
,
0010
0000
0000
0000
,
0001
0000
0000
0000
,
0000
0000
0000
0000
,
1000
0000
0000
0000
,
0010
0000
0000
0000
,
0100
0000
0000
0000
,
0001
0000
0000
0000
,
0100
0000
0000
0000
,
0010
0000
0000
0000
,
1000
0000
0000
0000
,
0001
0000
0000
0000
,
0001
0000
0000
0000
,
0001
0000
0000
0000
,
0001
0000
0000
0000
,
0001
0000
0000
0000
,
1000
0000
0000
0000
,
0100
0000
0000
0000
,
0010
0000
0000
0000
,
0001
0000
0000
0000
,
2000
0000
0000
0000
,
3001
0000
0001
0000
,
0001
0000
0000
0000
,
0100
0000
0000
0000
,
1000
0000
0010
0000
,
0010
0000
0000
0000
,
0001
0000
0010
0000
,
0010
0000
0000
0000
,
0002
0000
0000
0000
,
1003
0000
1000
0000
,
1000
0000
0000
0000
,
0010
0000
0000
0000
,
1000
0000
0100
0000
,
0100
0000
0000
0000
,
0001
0000
0100
0000
,
0100
0000
0000
0000
,
1000
0000
1000
0000
,
1000
0000
0000
0000
,
0001
0000
0000
0000
,
0001
0000
0000
0000
,
0010
0010
0010
0010
,
0000
0000
0000
0000
,
1000
0000
0000
0000
,
1000
0000
0000
0000
,
0002
0000
0000
0000
,
0000
0000
0000
0000
,
1003
0000
0000
0000
,
1000
0000
0000
0000
,
2000
0000
0000
0000
,
0000
0000
0000
0000
,
3000
0000
0000
0000
;

//---------------dance-single - ----------------
#NOTES:
     dance-single:
     :
     Hard:
     13:
     0.673,0.640,0.156,0.322,0.022: // measure 1
0000
0000
0000
0000
,  // measure 2
0000
0000
0000
0000
,  // measure 3
0000
0000
0000
0000
,  // measure 4
0000
0000
0000
0000
,  // measure 5
1000
0000
0010
0001
0000
0010
0001
0010
,  // measure 6
0000
0010
0100
0000
1000
0100
0010
0000
,  // measure 7
1000
0000
0100
0001
0000
0001
0100
0010
,  // measure 8
0000
1000
0100
0000
0010
0000
0100
0000
,  // measure 9
2000
0000
0001
0000
0100
0000
3001
0011
,  // measure 10
0000
0110
0000
1100
0000
1000
0100
0000
,  // measure 11
0010
0000
0100
0001
0000
1000
0100
0010
,  // measure 12
0001
0000
0100
0010
0000
0001
0010
0100
,  // measure 13
2000
0000
3100
0010
0001
0010
0100
0020
,  // measure 14
0000
0130
0001
1000
0010
0002
0000
0003
,  // measure 15
1000
0000
0001
0100
0000
0001
0100
0010
,  // measure 16
1000
0000
1000
0100
0000
0010
0001
0000
,  // measure 17
1000
0000
0100
0010
0100
0001
1000
1100
,  // measure 18
0000
0110
0000
0011
0000
0100
0010
0000
,  // measure 19
0110
0000
1000
0100
0000
0010
0001
0100
,  // measure 20
0010
0000
0100
0010
0000
0100
1000
0001
,  // measure 21
0100
0000
0100
0001
0100
0010
1000
0100
,  // measure 22
0000
0010
0100
0000
0001
0000
0100
0010
,  // measure 23
2000
0000
3002
0000
0023
0000
0031
0100
,  // measure 24
0000
0010
0100
1000
0100
0001
0100
1000
,  // measure 25
0010
0000
1000
0010
0000
0100
0010
1000
,  // measure 26
0000
1000
0100
0010
0001
0100
0010
0000
,  // measure 27
0110
0100
1000
0100
0010
0000
1000
0100
,  // measure 28
0010
0000
0001
0100
0010
0000
0100
1000
,  // measure 29
0100
0000
0010
0000
0100
0010
1000
0010
,  // measure 30
0000
1000
0100
0010
1000
0000
0100
0001
,  // measure 31
0100
0000
1000
0100
0010
0000
0100
0010
,  // measure 32
0100
0001
0010
0100
0000
1000
0100
0010
,  // measure 33
0100
0000
0001
0000
0100
0000
0010
1000
,  // measure 34
0000
0100
0010
0000
1000
0100
0010
0001
,  // measure 35
0100
0000
0010
0100
0010
0000
1000
0100
,  // measure 36
0010
0000
0100
0001
0000
0100
0010
1000
,  // measure 37
0100
0000
0010
0100
0001
1000
0001
0010
,  // measure 38
0000
0100
0001
0000
0100
0010
0100
0020
,  // measure 39
0000
0000
0000
0000
2030
0000
3001
2000
,  // measure 40
0000
0000
3020
0000
0230
0000
1300
0002
,  // measure 41
0000
0000
0103
0000
1000
0001
1000
0001
,  // measure 42
0000
0100
0000
0010
0001
1000
0100
0010
,  // measure 43
2000
0000
0100
0000
0010
0000
3001
0200
,  // measure 44
0000
0301
0100
0000
1000
0000
0100
0000
,  // measure 45
1001
1000
0001
1001
0000
0100
0010
0002
,  // measure 46
0000
0103
0010
0000
1000
0000
0001
0020
,  // measure 47
0001
0000
0031
0000
0100
0000
0010
0002
,  // measure 48
0010
0000
1003
0000
0010
0000
1000
0200
,  // measure 49
1000
0000
0320
0000
2030
0000
3100
0010
,  // measure 50
0000
0001
0100
0001
1000
0001
0100
1000
,  // measure 51
0002
0000
0100
0000
1000
0000
0013
0200
,  // measure 52
0000
0000
0301
1000
0001
0000
0100
0000
,  // measure 53
0001
0100
0010
1010
0000
0100
0010
0011
,  // measure 54
0000
0100
0010
0000
0100
0001
1000
0020
,  // measure 55
0100
0000
1030
0000
0010
0000
0100
0002
,  // measure 56
0010
0000
2003
0000
3010
0000
1000
0010
,  // measure 57
0100
0100
0010
1000
0000
0010
0100
0010
,  // measure 58
0000
1000
0100
0000
0010
0001
0001
0100
,  // measure 59
0010
0000
0100
0001
0100
0000
0010
0000
,  // measure 60
0100
0000
0010
1000
0000
0100
0010
0000
,  // measure 61
1010
0010
0100
0002
0000
0203
0000
0301
,  // measure 62
0100
0010
1000
0100
0000
0010
0001
0000
,  // measure 63
1000
0100
0000
0000
0001
0010
0000
0000
0100
0010
0000
0000
1000
0001
0000
0000
,  // measure 64
0100
0010
0100
0010
0000
1000
0100
0000
,  // measure 65
1000
0010
0010
0010
0000
1000
0100
0001
,  // measure 66
0000
1000
0010
0000
1000
1000
0100
0001
,  // measure 67
0001
0000
0100
0000
0010
1000
0010
1000
,  // measure 68
0000
0100
0001
0000
0100
0100
0010
0010
,  // measure 69
0000
0001
1000
0000
1100
1000
0001
0010
,  // measure 70
0000
0010
1000
0001
0100
0010
0100
0010
,  // measure 71
0010
0000
0100
0020
0000
0000
0000
0000
,  // measure 72
0000
0000
0000
0000
,  // measure 73
0030
0000
0000
0000
;

//---------------dance-single - ----------------
#NOTES:
     dance-single:
     :
     Medium:
     9:
     0.511,0.560,0.100,0.545,0.000:
0000
0000
0000
0000
,
0000
0000
0000
0000
,
0000
0000
0000
0000
,
0000
0000
0000
0000
,
1001
0000
1000
0001
0000
0100
0000
0010
,
0000
1000
0100
0010
,
0001
0000
0100
0001
0000
1000
0100
0010
,
0000
0001
0100
0001
,
0020
0000
0100
0000
0000
1030
0001
0100
,
0000
0110
0000
1001
0000
0000
0001
0000
,
1000
0000
0010
0200
0000
0000
0000
0310
,
1000
0000
0001
0200
0000
0000
0000
0310
,
0002
0000
0000
1003
0100
0010
0001
0020
,
0000
0000
0000
0000
0000
0030
1000
0000
,
0010
0000
0100
0002
0000
0000
0000
1003
,
0200
0000
0310
2000
0000
0000
3000
0010
,
0200
0000
0000
1300
0100
0010
0001
0010
,
0000
0110
0000
0110
0000
0000
1000
0000
,
0200
0000
0310
2000
0000
0000
3000
0010
,
0100
0000
0001
0020
0000
0000
0000
0130
,
0020
0000
0000
0031
0010
0100
1000
0200
,
0000
0000
0000
0320
,
2030
0000
3002
0000
0203
0000
0310
0100
,
0000
0000
0001
1000
0002
0000
1003
0000
,
0100
0000
0010
2000
0000
0000
0000
0000
,
0000
0000
0000
0000
3001
0000
1000
0001
,
0000
0000
0100
0000
0010
0000
0100
0010
,
1000
0000
0010
0200
0000
0000
0000
0000
,
0310
0000
1000
0000
0010
0100
0010
0200
,
0000
0000
0000
0000
0301
0000
0010
0200
,
0000
0000
0310
0000
0002
0000
0000
1003
,
0001
1000
0001
1000
0000
0010
0000
0200
,
0000
0000
0000
0000
0000
0000
0000
0002
,
0000
0000
0000
0000
0303
0000
0010
0100
,
0000
0000
0010
0100
0010
0000
0100
0000
,
0010
0000
1000
0100
0000
0000
0000
0010
,
0001
0000
0100
0010
0000
0001
1000
0010
,
0000
0000
0100
0000
0001
0000
0010
0200
,
0000
0000
0000
0000
0310
0000
0010
0200
,
0000
0300
0010
0000
0001
0000
0010
0200
,
0000
0000
0000
0000
0000
0000
0000
0301
,
0000
1000
0000
0100
0010
0001
0100
0010
,
0020
0000
0000
0000
0000
0000
1030
0002
,
0000
0203
0320
2030
,
3001
0000
1000
0010
0000
0100
0001
0020
,
0000
0000
0000
0030
1000
0000
0010
0200
,
0000
0000
1300
0000
0020
0000
0000
2030
,
0000
0000
3001
0000
0100
0000
0000
0020
,
0000
0000
0130
0000
0001
0000
0100
0020
,
0000
0000
0030
0001
0010
0100
0001
0100
,
0020
0000
0000
0000
0000
0030
0100
0002
,
0000
1003
0100
0010
,
1000
0000
0010
0100
0000
0100
0010
0002
,
0000
0003
0000
0000
0100
0000
0010
0200
,
0000
0000
0310
0000
0100
0000
0000
0020
,
0000
0000
1030
0000
0100
0000
0010
0001
,
0010
0000
0100
0010
0000
0100
0000
0020
,
0000
0000
0000
0000
1030
0001
1000
0001
,
1000
0001
0100
0010
,
1000
0000
0100
0010
0000
0000
0000
0000
,
1000
0100
1000
0100
0000
0010
0000
0000
,
0001
0010
0001
0010
0000
0000
0000
0000
,
1100
0110
0011
1001
,
0100
0000
0010
0100
0000
0000
1000
0000
,
0100
0010
0100
0010
0000
1000
0100
0020
,
0000
0000
0000
0000
0000
1030
0001
2000
,
0001
0000
0000
0000
3001
0100
0001
0100
,
0000
0000
0001
0000
1000
0000
0100
0010
,
0000
0000
0100
0000
0001
0000
0100
0010
,
0000
1000
0000
0001
0010
0001
0100
0010
,
1000
0000
0100
0020
0000
0000
0000
0000
,
0000
0000
0000
0000
,
0030
0000
0000
0000
;

//---------------dance-single - ----------------
#NOTES:
     dance-single:
     :
     Easy:
     6:
     0.284,0.320,0.000,0.100,0.000:
0000
0000
0000
0000
,
0000
0000
0000
0000
,
0000
0000
0000
0000
,
0000
0000
0000
0000
,
1000
0000
1000
0000
0000
0010
0000
0010
,
0000
0001
0001
0000
,
1000
0010
0000
0010
,
0010
0001
0001
0000
,
1000
0000
0000
0000
0001
0000
0000
1000
,
0000
1000
0000
1000
0000
0000
0000
0000
,
0010
0000
0000
0200
0000
0000
0000
0000
,
0310
0000
0000
0002
0000
0000
0000
0000
,
1003
0000
0000
0000
0100
0000
0000
0100
,
0000
0000
0000
0010
,
0010
0000
0000
0000
,
0001
0000
0000
0000
,
1000
0000
0000
0000
0001
0000
0000
1000
,
0000
1000
0000
1000
0000
0000
0000
0000
,
0010
0000
0000
0000
,
0200
0000
0000
0000
,
0301
0000
0001
0000
,
0001
0000
0000
1000
,
1000
0100
0100
0010
,
0010
0000
0001
0000
,
1000
0001
0000
0000
,
0000
0000
0100
0100
,
0100
0000
0010
0000
,
2000
0000
0000
0000
,
3001
0000
0001
0000
,
0001
0000
0100
0000
,
0100
0000
0010
0000
,
0001
0000
0001
0000
,
1000
0000
0001
0000
,
0001
0000
1000
1000
,
1000
0000
0010
0000
,
0100
0100
0100
0000
,
0010
0000
0001
0000
,
1000
0000
1000
1000
,
1000
0010
0010
0000
,
0010
0010
0010
0001
,
0001
0000
0000
0000
0000
0000
0000
1000
,
0000
1000
0000
1000
0000
0000
0000
0000
,
0020
0000
0000
0000
,
0032
0000
1003
0000
,
1000
1000
0001
1000
,
0001
0000
0100
0100
,
0100
0000
0010
0000
,
0100
0100
0100
0000
,
0001
1000
0001
1000
,
0001
0000
0100
0100
,
0020
0000
0000
0000
,
2030
0000
3001
1000
,
0001
0000
0001
0001
,
0001
0000
0100
0010
,
0100
0010
0010
0000
,
1000
0001
1000
0000
,
0010
0000
0001
0000
0010
0000
0000
0001
,
0000
0000
1000
0001
,
1000
0010
0010
0100
,
0100
0001
0001
0000
,
1000
1000
0001
0001
,
1000
0010
0100
0000
,
1000
0100
0010
0001
,
1000
1000
0001
0000
,
1000
1000
0100
0010
,
0001
0000
0001
0100
,
1000
0000
1000
0100
,
0010
0000
0100
0010
,
0001
0000
1000
0000
,
0001
0000
1000
0001
,
1000
0000
0000
0020
0000
0000
0000
0000
,
0000
0000
0000
0000
,
0030
0000
0000
0000
;
