#TITLE:SAVIOR OF SONG;
#SUBTITLE:[FULL SONG] 蒼き鋼のアルペジオ -アルス・ノヴァ- OP;
#ARTIST:ナノ feat. MY FIRST STORY;
#TITLETRANSLIT:SAVIOR OF SONG;
#SUBTITLETRANSLIT:[FULL SONG] Aoki Hagane no Arpeggio -Ars Nova-;
#ARTISTTRANSLIT:Nano feat. MY FIRST STORY;
#GENRE:NOVA ROCK FULL LENGTH;
#CREDIT:;
#BANNER:[Full Song] SAVIOR OF SONG.png;
#BACKGROUND:[Full Song] SAVIOR OF SONG-bg.png;
#LYRICSPATH:;
#CDTITLE:cdtitle.png;
#MUSIC:[Full Song] SAVIOR OF SONG.mp3;
#METERTYPE:DDR X;
#MENUCOLOR:0,0,1,1;
#OFFSET:-0.627;
#SAMPLESTART:45.693;
#SAMPLELENGTH:12.000;
#SELECTABLE:YES;
#DISPLAYBPM:96.000:384.000;
#BPMS:0.000=192.000,24.000=96.000,28.000=384.000,92.000=96.000,96.000=192.000,128.000=384.000,184.000=192.000,195.000=384.000,452.000=192.000,457.000=384.000,458.000=192.000,460.000=384.000,524.000=96.000,536.000=383.998,544.000=192.000,555.000=383.998,748.000=192.000,762.000=383.999,763.001=192.000,769.000=96.000,770.000=192.000,810.001=383.999,874.001=96.000,890.001=383.998,937.001=48.000,939.001=383.998,1260.001=24.000;
#STOPS:179.000=0.156
,184.000=0.625
,457.000=0.039
,457.250=0.039
,457.500=0.039
,457.750=0.039
,539.000=0.156
,544.000=0.625
,762.000=0.469
,938.500=1.250
;
#BGCHANGES:;

//---------------dance-single - ----------------
#NOTES:
     dance-single:
     :
     Challenge:
     18:
     1.000,1.000,1.000,0.252,0.152: // measure 1
0000
0000
0000
0000
,  // measure 2
0000
0000
0000
0000
,  // measure 3
0000
0000
0000
0000
,  // measure 4
0000
0000
0000
0000
,  // measure 5
0000
0000
0000
0000
,  // measure 6
0000
0000
0000
0000
,  // measure 7
0000
0000
0000
0000
0000
0000
0000
0000
0000
0000
0000
0000
0000
0000
0000
0000
0000
0000
0000
0000
0000
0000
0000
0000
1000
0100
0010
0001
0100
0010
1000
0000
,  // measure 8
0000
0000
0001
0010
0100
0010
0001
0010
,  // measure 9
0200
0000
1000
0000
0000
0000
0320
0001
,  // measure 10
0000
0000
0032
0100
0000
0000
0203
0010
,  // measure 11
0000
0000
0310
1000
0100
0000
1100
0000
,  // measure 12
0000
0000
1000
0100
0010
0100
1000
0100
,  // measure 13
0020
0000
0001
0000
0000
0000
0230
1000
,  // measure 14
0000
0000
0010
0301
1000
0000
0101
0000
,  // measure 15
0101
1100
1001
0101
,  // measure 16
0000
0000
0100
0001
1000
0001
0100
0001
,  // measure 17
2000
0000
0001
0000
0000
0000
3020
0100
,  // measure 18
0000
0000
2030
0100
0000
0000
3002
0010
,  // measure 19
0000
0103
0010
0001
,  // measure 20
0000
0000
0010
1000
0001
1000
0010
1000
,  // measure 21
0002
0100
0100
0103
,  // measure 22
0001
1000
0001
0000
1000
0001
1000
0000
,  // measure 23
1000
0100
0001
1000
0010
0001
1000
0100
,  // measure 24
2000
0000
0000
0000
0001
0100
3002
0000
0000
0000
1000
0010
2003
0000
0000
0000
0100
3020
0001
0000
0000
0000
0001
0130
1000
0000
1000
0100
0002
0000
0100
0000
,  // measure 25
2003
0000
0100
3002
0000
1000
0203
0000
,  // measure 26
0001
0320
0000
0001
0032
0000
2003
0000
,  // measure 27
3200
0000
0010
0320
0000
0001
0032
0000
,  // measure 28
1000
0000
2003
0000
0000
0000
0000
0000
3001
1000
0010
0000
0100
0000
0000
0000
,  // measure 29
0100
0010
0001
0010
0100
0001
2000
0100
,  // measure 30
0010
3001
0001
0100
,  // measure 31
1000
0000
0000
0000
0100
0020
0100
0000
0000
0000
0001
0230
0001
0000
0000
0000
,  // measure 32
1000
0302
1000
0000
0000
0000
0010
1003
0010
0000
0200
0000
0010
0000
0310
0000
,  // measure 33
1001
0000
0001
0000
1000
0100
1000
0000
,  // measure 34
0100
0000
0001
0100
0010
0000
1000
0000
,  // measure 35
0002
0000
0000
0000
0103
1000
0020
0000
,  // measure 36
0000
0000
1030
0100
0002
0000
0000
0000
,  // measure 37
0103
0000
1000
0001
0100
0001
0010
0000
,  // measure 38
1000
0000
0100
0000
0001
0000
0010
0001
,  // measure 39
1000
0000
0001
0000
0010
1000
0100
0010
,  // measure 40
0001
1000
0001
0010
0100
0000
0001
0000
,  // measure 41
0100
0000
0001
0000
0001
1000
0100
1000
,  // measure 42
0010
1000
0100
0010
,  // measure 43
0001
1000
0100
0001
0010
0100
1000
0000
,  // measure 44
0000
0000
0100
1000
0010
0100
0001
0000
,  // measure 45
1100
0101
0011
1010
,  // measure 46
0000
1001
0110
0011
,  // measure 47
1100
0000
0000
2000
0100
0010
3002
0010
,  // measure 48
0100
2003
0100
0001
3020
0100
1000
1030
,  // measure 49
0100
0010
0000
0010
0000
0000
1001
0000
,  // measure 50
0001
0000
0100
0000
0010
0000
0010
1000
,  // measure 51
0100
0010
0011
1100
,  // measure 52
0010
0000
0100
0001
0100
0000
1000
0000
,  // measure 53
0100
0000
0001
0010
1000
0000
0011
0000
,  // measure 54
0110
0000
1010
0000
1001
0000
0010
1000
,  // measure 55
0001
0110
1010
0110
,  // measure 56
0001
0000
1000
0001
0010
0000
0101
0000
,  // measure 57
1001
0000
0100
0001
1000
0001
0100
0000
,  // measure 58
0110
0000
0100
0001
1000
0000
0100
1000
,  // measure 59
0010
0100
0001
0000
0100
0001
0010
0000
,  // measure 60
0100
1000
0010
0100
0010
0000
0001
0000
,  // measure 61
0010
0100
1000
0001
,  // measure 62
1100
0000
0000
1000
0100
0000
0010
0001
,  // measure 63
0100
0010
1000
0100
0010
0000
1001
0000
,  // measure 64
0000
0001
1000
0000
0001
0100
1000
0010
,  // measure 65
0100
0001
0100
1000
0001
0010
1000
0000
,  // measure 66
0010
0000
0001
0000
0010
1000
0100
0000
,  // measure 67
0100
0000
0001
0000
0100
1000
0001
0000
,  // measure 68
0101
0100
0001
0010
,  // measure 69
0100
0000
1000
0001
0100
0000
0110
0000
,  // measure 70
0001
0000
0100
0001
1000
0000
0100
0010
,  // measure 71
0001
0000
0010
0001
0100
0000
1001
0000
,  // measure 72
0010
0000
0110
0000
0010
1000
0001
1000
,  // measure 73
0100
1000
0010
0000
0101
0000
1000
0000
,  // measure 74
0100
0000
0010
0000
0001
1000
0010
0000
,  // measure 75
0100
0000
1000
0000
0100
1000
0010
0100
,  // measure 76
0001
0000
0100
0000
0010
0000
1000
0010
,  // measure 77
0100
0010
0001
0000
1000
0000
1000
0100
,  // measure 78
1000
0000
1000
0100
1000
0000
0001
0010
,  // measure 79
0001
0000
0001
0010
0001
0000
0100
0010
,  // measure 80
0100
0000
0010
0100
0010
0000
1000
0100
,  // measure 81
0001
1000
0010
0001
1000
0100
0001
0000
,  // measure 82
2100
0100
3001
0102
,  // measure 83
0000
1000
1000
0100
,  // measure 84
0000
0010
0000
2003
,  // measure 85
0000
0100
3100
0000
,  // measure 86
0012
0010
1003
2010
,  // measure 87
0000
0001
0001
0010
,  // measure 88
0000
0100
0001
3100
,  // measure 89
0100
0000
0100
0001
,  // measure 90
1100
1000
1100
0100
,  // measure 91
1100
1000
1100
0010
,  // measure 92
0011
0001
0011
0010
,  // measure 93
0011
0001
0011
0100
,  // measure 94
1010
0010
1010
1000
,  // measure 95
1010
0010
1010
0010
,  // measure 96
0101
0001
0101
0100
,  // measure 97
0001
0010
0001
0100
0001
1000
0001
0000
,  // measure 98
0100
0000
0010
0000
1000
0001
0100
1000
,  // measure 99
0100
0010
0001
0000
1000
0000
0001
0010
,  // measure 100
0001
0000
0010
0100
0010
0000
0100
0010
,  // measure 101
0001
0100
1000
0000
0100
0000
0010
0000
,  // measure 102
1000
0000
0001
1000
0010
0001
0100
0010
,  // measure 103
1000
0000
0100
0010
0100
0000
0010
0100
,  // measure 104
0010
0000
0001
1000
0100
0001
1000
0000
,  // measure 105
0110
0011
1100
0101
,  // measure 106
1001
0000
0010
0100
0001
1000
0010
1000
,  // measure 107
0001
0000
0100
0010
0001
0000
1000
0100
,  // measure 108
1000
0000
0100
0010
0100
0000
0010
0100
,  // measure 109
0010
1000
0010
0000
0001
0000
0010
0000
,  // measure 110
1000
0000
1000
0001
0100
0010
0001
0010
,  // measure 111
0100
0110
0010
1010
,  // measure 112
0001
0011
0000
1001
,  // measure 113
0001
0100
1000
0001
0010
1000
0010
0000
,  // measure 114
1000
0001
1000
0001
1000
0000
0010
0100
0010
0100
0010
0000
0100
0010
0100
0010
,  // measure 115
0100
0000
0001
1000
0001
1000
0001
1000
0010
0000
1000
0000
0001
1000
0001
0000
,  // measure 116
1100
0110
0101
1001
,  // measure 117
0100
0001
0100
0000
1010
0000
1001
0000
,  // measure 118
0110
0000
0101
0000
0001
1000
0010
0000
,  // measure 119
0110
0101
0110
0011
,  // measure 120
0011
1001
0101
1001
,  // measure 121
0010
0100
0010
0000
1100
0000
1001
0000
,  // measure 122
1010
0000
1001
0000
0001
0100
0001
0000
,  // measure 123
0110
1010
0110
0101
,  // measure 124
1001
0101
1100
1001
,  // measure 125
1000
0001
0100
0000
1001
0000
1010
0000
,  // measure 126
0011
0000
1001
0000
0001
1000
0100
0000
,  // measure 127
1100
1001
0101
1000
,  // measure 128
0110
1010
0101
0110
,  // measure 129
0100
0010
0100
0000
0110
0000
1100
0000
,  // measure 130
0011
0000
1001
0000
0010
1000
0001
0000
,  // measure 131
0011
0000
1001
0000
1010
0000
0010
0001
,  // measure 132
2000
0000
0100
0000
0001
0000
0010
0000
0001
0000
0100
0100
0000
0001
0001
0000
,  // measure 133
3002
0000
1000
0000
0100
0000
1000
1000
1000
0000
0010
0000
1000
0000
0100
0000
,  // measure 134
2003
0000
0001
0000
0010
0000
0001
0000
0100
0000
0001
0001
0000
0000
0100
0000
,  // measure 135
3001
0010
0100
1000
0100
0010
0001
0000
,  // measure 136
0000
0000
1000
0100
0010
0001
0010
0100
,  // measure 137
1000
0000
0000
0001
0002
0010
0023
0100
,  // measure 138
0230
1000
2300
0010
3020
0100
0230
0001
,  // measure 139
0302
0103
0000
0000
0000
0000
1001
0000
,  // measure 140
1000
0000
0010
0000
0100
0000
0100
0001
,  // measure 141
0010
0100
1010
0011
,  // measure 142
0100
0000
0010
1000
0010
0000
0001
0000
,  // measure 143
0010
0000
0001
0100
0001
0000
0110
0000
,  // measure 144
1000
0000
0001
1000
0010
0000
0100
0001
,  // measure 145
1000
0001
0010
0000
0100
0000
0110
0000
,  // measure 146
1010
0000
0001
1000
0100
0000
0010
0001
,  // measure 147
1000
0000
0010
0100
0001
1000
0100
0000
,  // measure 148
0110
0000
0010
0001
0100
0000
0010
1000
,  // measure 149
0100
0010
0001
0000
0010
0100
1000
0000
,  // measure 150
0010
0001
1000
0001
0100
0000
1000
0001
,  // measure 151
0100
0000
0011
0000
1000
0001
1000
0000
,  // measure 152
1001
0000
0000
0001
0010
0000
0010
0001
,  // measure 153
0010
0100
0010
0001
0010
0000
1100
0000
,  // measure 154
0000
1000
0100
0000
0100
0010
0100
1000
,  // measure 155
0100
0010
0100
1000
0001
0100
0001
0000
,  // measure 156
0100
0001
1000
0000
0100
0001
0010
0001
,  // measure 157
0010
0000
0001
0000
0010
0001
1000
0000
,  // measure 158
1010
0000
0010
1000
0001
1000
0100
0000
,  // measure 159
1010
0000
0001
1000
0010
0100
0010
0000
,  // measure 160
1000
0001
0010
1000
0001
1000
0100
0010
,  // measure 161
0001
1000
0010
1000
0001
0000
1001
0000
,  // measure 162
0100
0000
0110
0000
0100
0010
1000
0001
,  // measure 163
0100
0001
0100
0001
1000
0000
0001
0000
,  // measure 164
0110
0000
0100
0001
1000
0001
0100
0000
,  // measure 165
0001
1000
0100
0000
1000
0010
0100
0010
,  // measure 166
1000
0000
0001
0100
0010
0000
0100
0001
,  // measure 167
0010
0100
1000
0000
0001
0000
0001
0100
,  // measure 168
0001
0000
0001
0100
0001
0010
0100
0010
,  // measure 169
0001
1000
0100
0000
1000
0000
0010
0100
,  // measure 170
0010
0000
0100
0010
0100
1000
0001
0010
,  // measure 171
1000
0001
0100
1000
0001
0010
1000
0000
,  // measure 172
0012
0010
1003
2010
,  // measure 173
0000
3001
0101
0021
,  // measure 174
0000
0130
1010
2001
,  // measure 175
0000
0010
3010
0000
,  // measure 176
1200
1000
1300
0102
,  // measure 177
0000
1003
1010
2100
,  // measure 178
0000
0000
3010
1000
0001
0000
0110
0000
,  // measure 179
0010
0010
0010
1000
,  // measure 180
0011
1000
0011
1000
,  // measure 181
0011
1000
0011
0001
,  // measure 182
1100
0001
1100
0001
,  // measure 183
1100
0001
1100
0010
,  // measure 184
0101
0000
0010
0000
0001
0100
0010
0000
,  // measure 185
0100
0001
0010
0000
0101
0000
0100
0000
,  // measure 186
1000
0010
0100
0000
0010
1000
0100
0000
,  // measure 187
1000
0100
1000
0010
1000
0001
1000
0000
,  // measure 188
1001
0101
0000
1000
1100
0100
0010
0110
,  // measure 189
0000
0000
1001
0000
1100
0000
0100
0010
0100
0000
0110
0000
0101
0000
0000
0000
,  // measure 190
1001
0000
0011
0000
0000
0000
0010
0000
0110
0000
0010
0100
0010
0000
1010
0000
,  // measure 191
0000
1001
0001
1001
1002
0000
0103
1010
,  // measure 192
0000
0000
0010
0000
0101
0000
0001
1000
0001
0000
0011
0000
0000
0000
0101
0000
,  // measure 193
0101
0000
0000
1000
0000
0000
0110
0000
0101
0000
1010
0000
1001
0000
0000
0101
0000
0000
0000
0000
0000
0001
0000
0000
,  // measure 194
0101
0000
0001
0000
1001
0000
0101
0000
0000
0000
1100
0000
0100
0010
0100
0000
,  // measure 195
0011
1000
1100
0010
1010
0010
0000
0101
,  // measure 196
1001
0000
1100
1001
0000
0011
1001
0100
,  // measure 197
0001
1000
0010
0100
0001
0000
0010
0000
0110
0000
0110
0000
0000
0000
0101
0000
,  // measure 198
0101
0000
1010
1100
0000
0011
0101
0000
,  // measure 199
1100
0110
0110
1001
1001
0101
0000
1001
,  // measure 200
1001
0000
0101
1001
0000
0110
1001
0001
,  // measure 201
0001
1000
0100
1000
0010
0000
0100
0000
0110
0000
0110
0000
0000
0000
0110
0000
,  // measure 202
0110
0000
0101
0101
0000
1010
1010
0100
,  // measure 203
0010
0001
1000
0001
1001
0000
0010
1000
,  // measure 204
0100
0010
0011
1000
,  // measure 205
0001
1000
0001
1000
0100
0000
1000
0000
,  // measure 206
0100
0000
0010
0000
1000
0100
0001
0100
,  // measure 207
1000
0001
1000
0011
,  // measure 208
1000
0100
1000
0000
0110
0000
0010
0000
,  // measure 209
0011
0000
0101
0000
0001
1000
0001
0000
,  // measure 210
1000
0100
1000
0000
0010
1000
0001
0010
,  // measure 211
0100
0000
0010
0000
0110
0000
0100
0001
,  // measure 212
0100
0001
0100
0000
0110
0000
1001
0000
,  // measure 213
1100
0000
0110
0000
0001
1000
0100
0001
,  // measure 214
1000
0000
0010
0001
0010
0100
1000
0000
,  // measure 215
1001
0001
1100
0001
,  // measure 216
1000
0001
0100
0000
0011
0000
0001
1000
,  // measure 217
0001
0000
0110
0000
0001
0000
0001
1000
,  // measure 218
0100
0100
0110
0001
,  // measure 219
1000
0000
0000
0000
1000
0000
0000
0000
1001
0000
0001
0010
1000
0000
1000
0010
,  // measure 220
0001
0100
1000
0100
0000
0001
1000
0100
0000
0010
0100
1000
0001
0000
0010
0100
,  // measure 221
0000
0010
0000
0001
0000
0000
0000
1000
0000
0010
0100
0010
1000
0000
0001
0100
,  // measure 222
0010
0100
0001
1000
0000
0001
0000
0100
0000
0100
0010
1000
0010
0000
0010
1000
,  // measure 223
0001
0000
0100
0001
0000
1000
0000
0000
1001
0000
0000
0000
0000
0000
0000
0000
,  // measure 224
1010
0010
1100
0000
,  // measure 225
0011
0010
0000
1001
,  // measure 226
0000
0110
0000
0110
,  // measure 227
1000
0011
0000
1100
,  // measure 228
0001
0010
0101
0000
,  // measure 229
1000
0100
0010
0000
0000
0000
0011
0000
,  // measure 230
0000
0101
0000
0000
,  // measure 231
0000
1001
0000
0011
,  // measure 232
0010
0100
1100
0000
,  // measure 233
0101
0000
0110
0001
,  // measure 234
0001
1001
0000
0110
,  // measure 235
0000
0000
0000
0000
0000
0000
0000
0000
1001
0000
0000
0100
0000
0010
0000
0001
1000
0001
0000
2000
0001
3001
1000
0000
1001
0000
0000
0000
0000
0000
0000
0000
,  // measure 236
0001
0000
0100
1000
0010
0000
0010
1000
,  // measure 237
0100
0000
0001
0000
0010
1000
0100
1000
,  // measure 238
0010
0000
0100
0001
0100
0000
0001
0000
,  // measure 239
0010
0000
0001
0010
1000
0000
1010
0000
,  // measure 240
0100
0000
1000
0010
0100
0001
0010
0100
,  // measure 241
0010
0000
0100
0000
0010
0001
1000
0000
,  // measure 242
0100
1000
0001
0000
0010
1000
0100
0000
,  // measure 243
0001
0010
0100
1000
0001
0000
0100
0000
,  // measure 244
0110
0000
0100
0001
1000
0000
0100
0000
,  // measure 245
0001
0100
0001
1000
0100
1000
0001
0000
,  // measure 246
0010
0100
1000
0100
0010
0000
1000
0000
,  // measure 247
0110
0000
0100
0000
1001
0000
0001
0010
,  // measure 248
0100
0000
1000
0010
0100
0001
0010
0100
,  // measure 249
0010
0100
1000
0100
0010
0000
0001
1000
,  // measure 250
0000
0001
1000
0010
0001
0010
1000
0010
,  // measure 251
0100
0001
0100
1000
0100
0010
1000
0000
,  // measure 252
0010
0000
0001
0000
0010
1000
0100
0000
,  // measure 253
0100
0010
0001
0000
0001
1000
0100
0000
,  // measure 254
0100
0001
0100
0000
0001
0000
0100
0000
,  // measure 255
0010
0000
0001
1000
0100
0010
0100
0000
,  // measure 256
0010
0000
0100
1000
0001
0000
0100
0010
,  // measure 257
0001
0000
0010
0001
0100
0000
1001
0000
,  // measure 258
0010
0000
0010
0001
0010
1000
0001
1000
,  // measure 259
0100
1000
0010
0100
0001
0000
1000
0000
,  // measure 260
0110
0000
0010
0000
0001
1000
0010
0000
,  // measure 261
0100
0001
1000
0000
1000
0100
1000
0100
,  // measure 262
1000
0000
0001
0000
0010
0001
0010
0001
,  // measure 263
0100
0010
0001
0000
1000
0000
1000
0100
,  // measure 264
1000
0000
1000
0100
1000
0100
0001
0000
,  // measure 265
0001
1000
0001
0010
0001
0000
0100
0010
,  // measure 266
0100
0000
0010
0100
0010
0000
1000
0100
,  // measure 267
0001
1000
0010
0001
1000
0100
0001
0000
,  // measure 268
1100
0101
1001
0110
,  // measure 269
1000
0000
0001
0100
0001
0010
0001
0000
,  // measure 270
0100
0000
1000
0001
1000
0010
1000
0000
,  // measure 271
0100
0110
0011
1000
,  // measure 272
0100
0001
0100
0010
0100
1000
0100
0000
,  // measure 273
0010
0011
0101
0011
,  // measure 274
0100
0000
1000
0001
1000
0010
1000
0000
,  // measure 275
0001
0000
0100
0000
0010
0000
0001
0100
,  // measure 276
1000
0100
0101
0010
,  // measure 277
1001
0000
0100
0001
1000
0000
0100
1000
,  // measure 278
0001
0100
1001
0100
,  // measure 279
1001
0000
0100
1000
0001
1000
0100
1000
,  // measure 280
0001
0100
1001
0100
,  // measure 281
1001
0000
0100
0001
1000
0001
0100
0001
,  // measure 282
1000
0100
1001
0100
,  // measure 283
0001
0010
0100
1000
0100
0010
0001
0000
,  // measure 284
0000
0000
1000
0100
1000
0100
0010
0001
,  // measure 285
0010
0001
1000
0000
0000
0000
0001
1000
,  // measure 286
0001
0000
0001
1000
0001
0000
1000
0001
,  // measure 287
1000
0000
1000
0001
1000
0000
1001
0000
,  // measure 288
0000
0000
0001
0010
0001
0010
0100
1000
,  // measure 289
0100
1000
0001
0000
0000
0000
1000
0001
,  // measure 290
1000
0000
0001
0010
0001
1000
0001
0100
,  // measure 291
0001
1000
0001
0010
0001
1000
0001
0000
,  // measure 292
0000
0000
0010
1000
0010
1000
0001
0100
,  // measure 293
0001
0100
0001
0000
0000
0000
0010
0100
,  // measure 294
0010
0000
0100
0010
0100
0000
0100
0010
,  // measure 295
0100
0000
0100
0010
0100
0000
0110
0000
,  // measure 296
0000
0000
0001
0100
0001
0100
0010
1000
,  // measure 297
0010
1000
0001
0000
0000
0000
0100
0010
,  // measure 298
0100
0000
0010
0100
0010
0000
0100
0000
,  // measure 299
1000
0010
0100
0001
0010
0100
1000
0001
,  // measure 300
1000
0000
1000
0001
1000
0001
0100
0010
,  // measure 301
0100
0010
1000
0000
0000
0000
0001
0100
,  // measure 302
0001
0000
1000
0010
1000
0000
0001
0010
,  // measure 303
0001
0000
1000
0100
1000
0000
1001
0000
,  // measure 304
0000
0000
0100
0010
0100
0010
1000
0001
,  // measure 305
1000
0001
0100
0000
0000
0000
0010
0100
,  // measure 306
0010
0000
1000
0100
0010
0001
0100
0010
,  // measure 307
1000
0100
0010
0001
0100
0010
1000
0000
,  // measure 308
0000
0000
0010
1000
0010
0000
0110
0000
,  // measure 309
1010
0101
0001
0011
,  // measure 310
1000
0001
0100
0000
1001
0000
0110
0000
,  // measure 311
0101
0000
0001
0010
0100
0010
0001
0000
,  // measure 312
0000
0000
1000
0100
0010
0000
1010
0000
,  // measure 313
1100
0000
1000
0001
0100
0010
1000
0100
,  // measure 314
1000
0100
1000
0100
0010
0001
1000
0001
,  // measure 315
1000
0100
0001
1000
0010
0001
1000
0100
,  // measure 316
0002
0003
0000
0000
0000
0000
0000
0000
0000
0000
0000
0000
0000
0000
0000
0000
0000
0000
0000
0000
0000
0000
0000
0000
0000
0000
0000
0000
0000
0000
0000
0000
;
