#TITLE:fantastic future;
#SUBTITLE:変態王子と笑わない猫。 OP;
#ARTIST:田村 ゆかり;
#TITLETRANSLIT:fantastic future;
#SUBTITLETRANSLIT:Hentai Ouji to Warawanai Neko. OP;
#ARTISTTRANSLIT:Yukari Tamura;
#GENRE:FANTASTIC POP;
#CREDIT:;
#BANNER:fantastic future.png;
#BACKGROUND:fantastic future-bg.png;
#LYRICSPATH:;
#CDTITLE:cdtitle.png;
#MUSIC:fantastic future.mp3;
#METERTYPE:DDR X;
#MENUCOLOR:1,0.625,0,1;
#OFFSET:-0.372;
#SAMPLESTART:65.810;
#SAMPLELENGTH:12.000;
#SELECTABLE:YES;
#BPMS:0.000=344.080,288.000=172.040,312.000=344.080;
#STOPS:;
#BGCHANGES:;

//---------------dance-single - ----------------
#NOTES:
     dance-single:
     :
     Challenge:
     18:
     1.000,1.000,1.000,0.334,0.106: // measure 1
0000
0000
0000
0000
,  // measure 2
0000
0000
0000
0000
,  // measure 3
0000
0000
0000
0000
,  // measure 4
0000
0000
0000
0000
,  // measure 5
0000
0000
0000
0000
,  // measure 6
0000
0000
0000
0000
,  // measure 7
0000
0000
0000
0000
,  // measure 8
0000
0000
0000
0000
,  // measure 9
1000
0010
1000
0010
,  // measure 10
0100
0001
0100
0001
,  // measure 11
1000
0001
0100
0010
,  // measure 12
0001
0010
0100
1000
,  // measure 13
0011
0100
1100
0010
,  // measure 14
0010
0100
1000
0100
0010
0001
0010
0100
,  // measure 15
0010
0001
1000
0001
,  // measure 16
0010
0000
0010
0100
1001
0000
0000
0000
,  // measure 17
1001
1000
1100
0010
,  // measure 18
0001
0000
1000
0001
0100
0000
0010
0000
,  // measure 19
0001
0000
1000
0000
0100
0001
0010
0001
,  // measure 20
0100
0100
1010
0001
,  // measure 21
1010
0010
0110
0001
,  // measure 22
0101
1000
1100
0001
,  // measure 23
1001
0010
0011
0100
,  // measure 24
0001
1000
0001
0100
0001
0000
0010
0000
,  // measure 25
0001
0100
1100
0010
,  // measure 26
0001
0000
1000
0001
1000
0000
0100
0000
,  // measure 27
0010
0000
0001
0000
0100
0010
1000
0010
,  // measure 28
0001
0010
1100
1000
,  // measure 29
0011
1010
1010
1100
,  // measure 30
0100
0001
0100
0010
0100
1000
0100
0010
,  // measure 31
0110
0000
0001
0000
0110
1000
0001
1000
,  // measure 32
1001
0000
0000
0000
0001
0010
0100
1000
,  // measure 33
1000
0100
0101
1010
,  // measure 34
0001
0100
0010
0001
1010
0000
0100
0000
,  // measure 35
1000
0100
1100
0010
,  // measure 36
0001
1000
0010
0000
0011
0000
0100
0000
,  // measure 37
1001
0100
0011
0001
,  // measure 38
0011
0101
1100
0110
,  // measure 39
0011
0101
1010
1100
,  // measure 40
1000
0001
0100
1000
0100
0000
0001
1000
,  // measure 41
0001
0000
1000
0000
0110
0000
0020
1000
,  // measure 42
0031
0000
0010
0000
0002
0100
0013
0000
,  // measure 43
0010
0100
1010
0001
,  // measure 44
0100
0010
0101
1000
,  // measure 45
0200
0010
1300
0000
0011
0000
0100
0000
,  // measure 46
0001
0010
1100
0001
,  // measure 47
0011
1001
0101
1001
,  // measure 48
1010
0001
0001
0000
1100
0000
0000
0000
,  // measure 49
1100
0000
0100
0000
1001
0000
0020
0001
,  // measure 50
0130
0010
0011
0001
,  // measure 51
1000
0011
1100
0110
,  // measure 52
0001
1010
1001
0100
,  // measure 53
0010
0100
0110
1100
,  // measure 54
0100
0010
0101
0000
,  // measure 55
1100
0000
0001
0000
1100
0000
0010
0100
,  // measure 56
1100
0100
1100
1000
,  // measure 57
1100
0000
0010
0000
0110
0000
2000
0001
,  // measure 58
3100
0010
1001
0001
,  // measure 59
0010
0100
0110
1000
,  // measure 60
0100
0010
0101
0001
,  // measure 61
0010
0100
1010
1000
,  // measure 62
0100
0010
0101
0000
,  // measure 63
2001
0100
3001
1000
,  // measure 64
1002
0010
1003
0000
,  // measure 65
1100
0000
0010
0000
1001
0000
0001
0010
,  // measure 66
0001
0100
0001
1000
0001
0100
0001
0000
,  // measure 67
0001
0000
1000
0000
1001
0000
1000
0100
,  // measure 68
1000
0010
1000
0001
1000
0010
2000
0000
,  // measure 69
0001
0001
0010
0010
,  // measure 70
0100
0100
0010
0010
,  // measure 71
3001
0000
0001
0000
0110
0000
0010
0001
,  // measure 72
0110
0101
0110
1010
,  // measure 73
2001
0000
0000
0000
0000
0010
3001
0000
0011
0000
0100
0010
0100
0000
2001
0100
,  // measure 74
0000
0000
3002
0010
0000
0000
0103
0002
0100
0000
0100
0000
1000
0000
1000
0203
,  // measure 75
1000
0000
0000
0010
1300
0000
1010
0000
0101
0000
0001
1000
0001
0000
0210
0001
,  // measure 76
0000
0000
0320
1000
0000
0000
1000
0032
1000
0000
0010
0000
0013
0000
1000
0020
,  // measure 77
1000
0000
0000
0100
0031
0000
1001
0000
0011
0000
0001
1000
0001
0000
0210
1000
,  // measure 78
0000
0000
0320
0001
0000
0000
0031
0200
0001
0000
0010
0000
0310
0001
0010
0001
,  // measure 79
0010
0000
1000
0000
0110
0000
0001
1000
,  // measure 80
0001
0100
0001
0000
0101
0000
0010
0000
,  // measure 81
1000
0010
0110
0001
,  // measure 82
1000
0100
1000
0010
1000
0000
0001
0000
,  // measure 83
2000
0000
3001
2000
0001
0000
3010
0200
,  // measure 84
0010
0000
0301
0020
0001
0000
0130
0002
,  // measure 85
0100
0000
0103
0020
0100
0000
1030
0100
,  // measure 86
1000
0100
0010
0100
0010
0100
0001
0010
,  // measure 87
0001
1000
0101
1001
,  // measure 88
0001
0100
1000
0100
0001
0100
0010
0100
,  // measure 89
1001
0001
0011
0100
,  // measure 90
1000
0000
0001
1000
0011
0000
0100
0000
,  // measure 91
1000
0000
0001
0000
0010
1000
0100
1000
,  // measure 92
0110
0010
0101
1000
,  // measure 93
0101
0002
0100
0000
0103
0020
1000
0000
,  // measure 94
1030
0200
1000
0000
0310
0002
1000
0000
,  // measure 95
1003
0100
0100
1000
1100
0010
0010
1000
,  // measure 96
1000
0001
1000
0010
1010
0000
0110
0000
,  // measure 97
1001
0010
0011
0100
,  // measure 98
1000
0000
0001
1000
0001
0000
0010
0000
,  // measure 99
0100
0000
1000
0000
0010
0100
0001
0100
,  // measure 100
1000
0100
0011
0001
,  // measure 101
1100
0101
0101
0011
,  // measure 102
0010
1000
0010
0100
0010
0001
0010
0100
,  // measure 103
0110
0000
1000
0000
0110
0001
1000
0001
,  // measure 104
1000
0001
0001
1000
1000
0100
0010
0001
,  // measure 105
1001
0110
1010
0101
,  // measure 106
1001
0010
0100
0010
0101
0000
0110
0000
,  // measure 107
0011
0000
1100
0000
0001
1000
1000
0010
,  // measure 108
0011
0110
0101
0010
,  // measure 109
1001
0010
1100
1010
,  // measure 110
1000
0100
1000
0010
0001
0000
0110
0000
,  // measure 111
1100
1010
0101
0011
,  // measure 112
0001
1000
0010
0001
0010
0000
1000
0001
,  // measure 113
1000
0101
0110
0101
,  // measure 114
1000
0010
0100
0010
1010
0000
1001
0000
,  // measure 115
0101
0000
0011
0000
1010
1000
0100
0100
,  // measure 116
0011
0011
1001
0101
,  // measure 117
0110
1001
0110
1001
,  // measure 118
0110
0001
0001
0010
0100
1000
0010
0001
,  // measure 119
1001
0000
0100
0000
1001
0010
0001
0010
,  // measure 120
1001
0000
0000
0000
;

//---------------dance-single - ----------------
#NOTES:
     dance-single:
     :
     Beginner:
     6:
     0.298,0.531,0.100,0.022,0.000: // measure 1
0000
0000
0000
0000
,  // measure 2
0000
0000
0000
0000
,  // measure 3
0000
0000
0000
0000
,  // measure 4
0000
0000
0000
0000
,  // measure 5
0000
0000
0000
0000
,  // measure 6
0000
0000
0000
0000
,  // measure 7
0000
0000
0000
0000
,  // measure 8
0000
0000
0000
0000
,  // measure 9
1000
0000
0000
0000
,  // measure 10
1000
0000
0000
0000
,  // measure 11
0010
0000
0010
0000
,  // measure 12
0010
0000
0000
0000
,  // measure 13
0100
0000
0100
0000
,  // measure 14
0100
0000
0100
0000
,  // measure 15
0100
0000
0000
0000
,  // measure 16
0000
0000
0000
0000
,  // measure 17
1001
0000
0001
0000
,  // measure 18
0001
0000
0000
0000
,  // measure 19
0100
0000
0100
0000
,  // measure 20
0100
0000
0000
0000
,  // measure 21
1000
0000
1000
0000
,  // measure 22
1000
0000
1000
0000
,  // measure 23
1000
0000
1000
0000
,  // measure 24
1000
0000
0000
0000
,  // measure 25
0010
0000
0010
0000
,  // measure 26
0010
0000
0000
0000
,  // measure 27
0001
0000
0001
0000
,  // measure 28
0001
0000
0000
0000
,  // measure 29
0100
0000
0100
0000
,  // measure 30
0100
0000
0100
0000
,  // measure 31
0100
0000
0010
0000
,  // measure 32
0010
0000
0000
0000
,  // measure 33
0001
0000
0001
0000
,  // measure 34
1000
0000
1000
0000
,  // measure 35
0000
0000
0100
0000
,  // measure 36
0100
0000
0000
0000
,  // measure 37
0010
0000
0010
0000
,  // measure 38
0010
0000
0000
0000
,  // measure 39
0001
0000
0001
0000
,  // measure 40
0001
0000
0000
0000
,  // measure 41
1001
0000
0000
0000
,  // measure 42
0100
0000
0010
0000
,  // measure 43
0100
0000
0010
0000
,  // measure 44
0010
0000
1000
0000
,  // measure 45
1000
0000
0010
0000
,  // measure 46
0010
0000
0000
0000
,  // measure 47
0001
0000
0001
0000
,  // measure 48
0001
0000
0001
0000
,  // measure 49
0001
0000
0000
0000
,  // measure 50
0100
0000
0010
0000
,  // measure 51
0100
0000
0000
0000
,  // measure 52
1000
0000
0100
0000
,  // measure 53
1000
0000
1000
0000
,  // measure 54
0200
0000
0000
0000
,  // measure 55
0300
0000
0000
0000
,  // measure 56
0010
0000
0010
0000
,  // measure 57
0010
0000
0000
0000
,  // measure 58
0001
0000
0001
0000
,  // measure 59
0001
0000
1000
0000
,  // measure 60
1000
0000
0010
0000
,  // measure 61
0010
0000
0100
0000
,  // measure 62
0100
0000
0010
0000
,  // measure 63
0010
0000
0001
0000
,  // measure 64
0001
0000
0000
0000
,  // measure 65
0000
0000
0000
0000
,  // measure 66
1000
0000
1000
0000
,  // measure 67
1000
0000
0000
0000
,  // measure 68
0001
0000
0001
0000
,  // measure 69
0001
0000
0000
0000
,  // measure 70
1000
0000
0000
0000
,  // measure 71
1001
0000
0000
0000
,  // measure 72
0000
0000
0001
0000
,  // measure 73
0001
0000
0100
0000
,  // measure 74
0100
0000
0100
0000
,  // measure 75
0010
0000
0010
0000
,  // measure 76
1000
1000
1000
0000
,  // measure 77
0010
0000
0100
0000
,  // measure 78
0001
0001
0001
0000
,  // measure 79
0100
0000
0100
0000
,  // measure 80
0100
0000
0100
0000
,  // measure 81
0100
0000
0100
0000
,  // measure 82
0100
0000
0100
0000
,  // measure 83
0010
0000
0010
0000
,  // measure 84
0010
0000
0010
0000
,  // measure 85
0010
0000
0010
0000
,  // measure 86
0020
0000
0000
0000
,  // measure 87
0030
0000
0000
0000
,  // measure 88
0000
0000
0000
0000
,  // measure 89
1000
0000
1000
0000
,  // measure 90
1000
0000
0000
0000
,  // measure 91
0010
0000
0010
0000
,  // measure 92
0010
0000
0000
0000
,  // measure 93
0100
0000
0100
0000
,  // measure 94
0100
0000
0100
0000
,  // measure 95
0010
0000
0010
0000
,  // measure 96
0010
0000
0010
0000
,  // measure 97
0010
0000
0000
0000
,  // measure 98
1000
0000
0000
0000
,  // measure 99
0001
0000
0001
0000
,  // measure 100
0001
0000
0000
0000
,  // measure 101
1000
0000
1000
0000
,  // measure 102
1000
0000
1000
0000
,  // measure 103
0100
0000
0100
0000
,  // measure 104
0100
0000
0000
0000
,  // measure 105
0010
0000
0010
0000
,  // measure 106
0010
0000
0000
0000
,  // measure 107
0001
0000
0001
0000
,  // measure 108
0001
0000
0000
0000
,  // measure 109
0010
0000
0010
0000
,  // measure 110
0001
0000
0001
0000
,  // measure 111
0010
0000
0010
0000
,  // measure 112
0001
0000
0001
0000
,  // measure 113
1000
0000
0000
0000
,  // measure 114
1000
0000
0000
0000
,  // measure 115
1000
0000
1000
0000
,  // measure 116
0100
0000
0000
0000
,  // measure 117
1001
0000
1001
0000
,  // measure 118
1001
0000
0000
0000
,  // measure 119
0110
0000
0110
0000
,  // measure 120
0110
0000
0000
0000
;

//---------------dance-single - ----------------
#NOTES:
     dance-single:
     :
     Easy:
     10:
     0.505,0.862,0.045,0.045,0.000: // measure 1
0000
0000
0000
0000
,  // measure 2
0000
0000
0000
0000
,  // measure 3
0000
0000
0000
0000
,  // measure 4
0000
0000
0000
0000
,  // measure 5
0000
0000
0000
0000
,  // measure 6
0000
0000
0000
0000
,  // measure 7
0000
0000
0000
0000
,  // measure 8
0000
0000
0000
0000
,  // measure 9
1000
0000
0100
0000
,  // measure 10
1000
0000
0100
0000
,  // measure 11
0010
0000
0001
0000
,  // measure 12
0010
0000
0001
0000
,  // measure 13
1000
0001
1000
0000
,  // measure 14
0001
0000
0100
0000
,  // measure 15
0010
0000
0000
0000
,  // measure 16
1000
0000
0000
0000
,  // measure 17
1001
0000
0001
0000
,  // measure 18
0001
0000
0000
0000
,  // measure 19
0100
0000
0010
0000
,  // measure 20
0100
0000
0000
0000
,  // measure 21
1000
0000
1000
0000
,  // measure 22
0001
1000
0001
0000
,  // measure 23
0100
0000
0010
0000
,  // measure 24
0001
0010
0001
0000
,  // measure 25
1000
0000
0001
0000
,  // measure 26
0100
0010
0100
0000
,  // measure 27
1000
0000
0100
1000
,  // measure 28
0100
0000
0010
0000
,  // measure 29
1000
0001
1000
0001
,  // measure 30
1000
0001
1000
0000
,  // measure 31
0100
0000
0010
0100
,  // measure 32
0010
0000
0001
0000
,  // measure 33
0001
0100
0001
0000
,  // measure 34
1000
0100
1000
0010
,  // measure 35
0000
0100
0010
0000
,  // measure 36
1000
0100
1000
0000
,  // measure 37
0010
0100
0010
0000
,  // measure 38
0001
0010
0001
0000
,  // measure 39
1000
0001
1000
0001
,  // measure 40
1000
0001
0100
0000
,  // measure 41
0100
0000
0010
0000
,  // measure 42
1000
0010
1000
0100
,  // measure 43
0000
0000
0010
0000
,  // measure 44
0100
0001
0100
0000
,  // measure 45
0010
0001
0010
0000
,  // measure 46
0100
0000
0010
0000
,  // measure 47
1000
0001
1000
0000
,  // measure 48
0100
0010
0100
0000
,  // measure 49
0010
0000
0001
0000
,  // measure 50
0100
0001
0100
0000
,  // measure 51
0010
0000
1000
0000
,  // measure 52
0010
0001
0010
0000
,  // measure 53
1000
0000
0001
1000
,  // measure 54
0001
0000
0100
0000
,  // measure 55
0010
0100
0010
0000
,  // measure 56
1000
0100
1000
0000
,  // measure 57
0110
0000
0010
0000
,  // measure 58
0001
0010
0100
0000
,  // measure 59
0010
0100
0010
0000
,  // measure 60
1000
0100
0010
0000
,  // measure 61
0100
0000
0010
0000
,  // measure 62
0001
1000
0001
0000
,  // measure 63
1000
0010
0001
0000
,  // measure 64
0001
0010
1000
0000
,  // measure 65
0010
0000
0100
0000
,  // measure 66
1000
0100
0001
0000
,  // measure 67
0001
0100
1000
0000
,  // measure 68
0010
1000
0010
0000
,  // measure 69
2000
0000
0000
0000
,  // measure 70
0000
0000
0000
0000
,  // measure 71
3001
0000
0100
0000
,  // measure 72
0010
0000
0001
1000
,  // measure 73
0001
0000
0100
1000
0100
0000
0000
0010
,  // measure 74
0000
0100
0000
0010
0100
0000
0010
0000
,  // measure 75
1000
0100
0010
0000
0001
0000
0010
0100
,  // measure 76
0000
0100
0000
0010
0100
0000
1000
0000
,  // measure 77
0100
0010
0100
0000
0001
0010
0001
1000
,  // measure 78
0000
1000
0000
0010
0100
0000
1000
0100
,  // measure 79
0010
0000
1000
0010
,  // measure 80
0100
0000
0010
0001
,  // measure 81
0010
0000
0100
0010
,  // measure 82
0100
0000
1000
0000
,  // measure 83
0100
1000
0100
1000
,  // measure 84
0100
1000
0100
1000
,  // measure 85
0200
0000
0000
0000
,  // measure 86
2000
0000
0000
0000
,  // measure 87
3300
0000
1000
0000
,  // measure 88
0100
0000
0000
0000
,  // measure 89
0010
0100
0010
0100
,  // measure 90
0010
0000
0001
0010
,  // measure 91
0001
0010
0001
0010
,  // measure 92
0001
0000
0100
0000
,  // measure 93
1000
0100
1000
0010
,  // measure 94
0100
0010
0100
0001
,  // measure 95
0100
0001
0100
0001
,  // measure 96
0100
0010
0100
0000
,  // measure 97
1000
0100
1000
0000
,  // measure 98
0010
0001
0010
0000
,  // measure 99
0100
0010
0100
0010
,  // measure 100
0100
0000
0000
0000
,  // measure 101
0001
0100
1000
0100
,  // measure 102
0001
0100
0001
0000
,  // measure 103
0100
0001
0100
0000
,  // measure 104
0110
0000
0000
0000
,  // measure 105
1000
0010
0001
0010
,  // measure 106
1000
0000
0001
0000
,  // measure 107
1000
0001
1000
0001
,  // measure 108
1000
0000
0000
0000
,  // measure 109
1000
0100
0010
0000
,  // measure 110
0010
0001
0010
0000
,  // measure 111
0100
0010
0100
0010
,  // measure 112
2000
0000
3010
0000
,  // measure 113
0100
0010
0100
0000
,  // measure 114
0001
0010
0100
0000
,  // measure 115
0001
0100
0001
0000
,  // measure 116
0100
0000
1000
0000
,  // measure 117
0010
1000
0010
0100
,  // measure 118
0010
0100
0010
1000
,  // measure 119
0100
0010
0100
0000
,  // measure 120
0110
0000
0000
0000
;

//---------------dance-single - ----------------
#NOTES:
     dance-single:
     :
     Hard:
     17:
     0.986,1.000,0.736,0.123,0.028:
0000
0000
0000
0000
,
0000
0000
0000
0000
,
0000
0000
0000
0000
,
0000
0000
0000
0000
,
0000
0000
0000
0000
,
0000
0000
0000
0000
,
0000
0000
0000
0000
,
0000
0000
0000
0000
,
0001
0100
0001
0100
,
0010
1000
0010
1000
,
0001
1000
0010
0100
,
1000
0100
0010
0001
,
1000
0010
0001
0100
,
0001
0010
0001
0010
0100
1000
0100
1000
,
0100
1000
0001
1000
,
0100
0000
0100
0010
0001
0000
0000
0000
,
1001
0001
0001
0100
,
1000
0000
0001
1000
0010
0000
0100
0000
,
1000
0000
0001
0000
0010
1000
0100
0000
,
0010
0010
0001
0001
,
0101
0100
0010
1000
,
0010
0001
0011
1000
,
1001
0100
1000
0010
,
1000
0001
1000
0000
1000
0000
0100
0000
,
1000
0010
0001
0100
,
1000
0000
0001
1000
0001
0000
0010
0000
,
0100
0000
1000
0000
0010
0100
0001
0000
,
1000
0100
0001
0001
,
1100
0100
0001
1001
,
1000
0100
1000
0100
0010
0001
0010
0001
,
0010
0000
1000
0000
1000
0001
1000
0001
,
1000
0000
0000
0000
1000
0100
0010
0001
,
1000
0010
0010
0001
,
1000
0010
0100
1000
0001
0000
0010
0000
,
0001
0010
0011
0100
,
1000
0001
0100
0001
1000
0000
0010
0000
,
1001
0010
1000
1000
,
1010
1000
0001
0100
,
1100
0100
0101
0001
,
0001
1000
0010
0001
0010
0001
1000
0001
,
1000
0000
0001
0000
0110
0000
0100
0001
,
1000
0000
0100
0000
1000
0010
0100
0000
,
0100
0010
0001
1000
,
0010
0100
1010
0001
,
0010
0100
0001
0000
0100
0000
0010
0000
,
1000
0100
0011
1000
,
0100
0001
1010
1001
,
0001
1000
1000
0000
0011
0000
0000
0000
,
0011
0000
0010
0000
1001
0000
0100
1000
,
0010
0100
0100
1000
,
0001
0000
2000
0100
0000
0000
3020
0001
,
0000
0000
0032
0010
0000
0000
0013
0000
,
0100
0010
0110
0002
,
1000
1000
1003
0000
,
0011
0000
0000
0000
1001
0000
0100
0010
,
0010
0010
0001
0001
,
0011
0000
0100
0000
0010
0000
0001
1000
,
0010
0100
0001
1000
,
0100
0010
0100
0001
,
0010
0000
0100
0010
1000
0000
1000
0000
,
0100
0000
0010
0000
0001
0100
0001
0000
,
0010
0000
0100
0010
0100
0000
0000
0000
,
1002
0010
1003
2001
,
0100
3001
0001
0000
,
0011
0000
0100
0000
1001
0000
1000
0100
,
1000
0000
0100
0001
1000
0000
1001
0000
,
0000
0000
0001
0000
1001
0000
0001
0010
,
0001
0000
0010
1000
0001
0000
1001
0000
,
1100
1000
0100
0100
,
0011
0010
0100
0100
,
1001
0000
1000
0000
0110
0000
0100
1000
,
0001
1000
0100
0101
,
1002
0000
0000
0100
0100
0000
0000
0100
,
0000
0100
0000
1000
0010
0013
0001
0001
,
2001
0000
0000
0001
0001
0000
0010
0010
,
0000
0000
0010
0000
0010
0000
0001
0000
0001
0000
3000
0000
0000
0000
0001
0200
,
0001
0000
0000
0000
1300
0000
1001
0000
0101
0000
0000
0000
0010
0000
0200
0001
,
0000
0300
0020
1000
0000
0000
1030
0000
1000
0000
0000
0000
0010
1000
0010
1000
,
0010
0000
0001
0000
0001
0000
1000
0001
,
1000
0010
1000
0000
1010
0000
0100
0000
,
0001
0100
0010
1000
,
0001
0010
0001
0100
0001
0000
1000
0000
,
0001
0000
1000
0001
1000
0000
0100
0010
,
0100
0000
1000
0100
1000
0000
0010
1000
,
0010
0000
0010
0100
0010
0000
0001
1000
,
0001
1000
0100
0010
0100
0010
0100
0010
,
0100
0001
1001
1001
,
1000
0010
0001
0010
1000
0000
0000
0000
,
1001
1000
1100
0010
,
0011
0000
1000
0001
1000
0000
0010
0000
,
0001
0000
1000
0000
0100
0001
0010
0001
,
0100
0100
0110
0000
,
0010
1000
0010
0000
0010
0100
0001
0000
,
0001
0010
0001
0100
0001
0000
0001
0000
,
0001
0010
0011
0100
,
0001
1000
0001
0100
0001
0000
0001
0000
,
0101
0100
1100
0100
,
0001
0000
1000
0100
1000
0000
0100
0000
,
0010
0000
0001
0000
0010
0100
1000
0100
,
0001
0001
0011
0000
,
0011
0010
1100
1000
,
0010
0001
0010
0000
0100
1000
0100
0000
,
0001
0000
0001
0000
0010
1000
0001
1000
,
0001
1000
0010
0001
0001
0010
0100
1000
,
1000
0010
0011
0010
,
1000
0100
0010
0100
1000
0000
0010
0000
,
0001
0000
0011
0000
1000
0001
0001
0100
,
0100
1000
1100
0100
,
0101
0001
1001
0001
,
1000
0100
0010
0001
1000
0000
0010
0000
,
0001
0010
1010
1100
,
0001
0010
0100
1000
0100
0000
0001
1000
,
0001
0010
0100
1000
,
0001
0100
0010
0100
0001
0000
1001
0000
,
1010
0000
1000
0000
0001
0001
0010
0010
,
1000
0100
0001
0100
,
1100
1001
0101
1001
,
0010
1000
1000
0100
0010
0001
0100
1000
,
0001
0000
0010
0000
1000
0100
1000
0100
,
1001
0000
0000
0000
;

//---------------dance-single - ----------------
#NOTES:
     dance-single:
     :
     Medium:
     14:
     0.713,0.995,0.368,0.234,0.017:
0000
0000
0000
0000
,
0000
0000
0000
0000
,
0000
0000
0000
0000
,
0000
0000
0000
0000
,
0000
0000
0000
0000
,
0000
0000
0000
0000
,
0000
0000
0000
0000
,
0000
0000
0000
0000
,
1000
0100
1000
0100
,
0010
0100
0010
0001
,
0010
0001
0010
0100
,
0010
0100
1000
0100
,
1000
0100
0010
0001
,
0010
0100
1000
0001
,
0001
0000
0000
0000
,
0000
0000
0001
1000
0001
0000
0000
0000
,
0001
0010
0001
0000
1000
0100
1000
0000
,
0001
1000
0001
0200
,
0000
0000
0301
0000
0010
0001
0010
0001
,
0010
0000
0110
0000
,
1000
0010
0100
0001
,
0010
0000
0100
0000
1000
0100
1000
0000
,
0100
0010
0100
0000
0010
0001
0010
0000
,
0001
1000
0001
1000
0001
0000
0000
0000
,
1000
0100
1000
0000
0001
0010
0001
0000
,
1000
0001
1000
0020
,
0000
0000
1030
0000
0100
1000
0100
1000
,
0100
0000
0110
0000
,
0001
0100
0010
1000
,
0100
0010
0100
0000
0001
0010
0001
0000
,
0010
0010
0100
0100
,
1100
0000
1000
0000
1000
0001
1000
0001
,
1000
0100
0010
0100
,
1000
0010
0100
0010
,
1000
0100
0001
0100
,
1000
0001
0100
1000
,
0100
0001
0010
0100
,
0010
0001
0100
0010
,
0001
0010
0100
0010
,
0001
1000
0001
1000
0001
0000
1000
0001
,
1000
0000
0001
0100
,
1000
0100
0001
0010
,
1000
0002
0000
0203
,
0000
0320
0000
0031
,
0001
0000
2000
0002
,
0000
0000
3003
0000
,
1001
0000
1001
0000
,
0001
1000
0001
0000
1000
0000
0000
0000
,
0000
0000
1000
0010
,
0001
0010
1000
0100
,
0001
2000
0000
3200
,
0000
0320
0000
1030
,
1000
0000
0002
2000
,
0000
0000
3003
0000
,
1100
0000
0101
0000
,
1000
0001
1000
0000
1001
0000
0001
0000
,
1001
0000
0000
1000
,
0010
0100
0010
0100
,
0000
1000
0100
0001
,
0000
0001
0100
0010
,
1000
0000
0001
0010
,
0000
1000
0010
0000
,
1001
0000
0002
0010
,
0000
2003
0100
0000
,
3010
0000
0100
0100
,
1000
0100
1000
0200
,
0000
0000
0000
0301
,
0010
0001
0010
0002
,
0000
0000
0203
0000
,
0310
0100
0010
0000
,
1000
0100
1000
0100
,
0010
0100
0010
0001
,
0011
0000
0000
0001
0101
0000
0010
0100
,
0000
0000
0110
0000
0000
0000
0010
0000
0001
0000
0000
0000
0100
0000
0010
0100
,
1000
0000
1000
0100
0010
0000
0100
0010
,
0000
0000
0110
0000
0000
0000
0001
0000
0100
0000
0001
0000
0001
0000
1000
0100
,
0010
0000
0100
0010
0100
0000
1000
0010
,
0000
0000
0110
0000
0000
0000
0001
0000
0010
0000
0000
0000
0100
0000
0001
0010
,
0100
0010
0100
0010
,
0001
0100
1000
0100
,
0010
0100
0010
0001
,
0010
0001
0010
0100
,
0020
0000
1030
0010
,
0200
0000
0301
0100
,
0020
0000
0031
0100
,
0020
0000
0130
0000
,
1000
0100
0010
0100
,
0010
0100
0010
0000
,
0110
0000
0101
0000
,
0110
0000
1000
0100
,
1000
0000
0010
0100
,
0010
0000
0110
0000
,
0101
0000
1100
0000
,
0100
0010
0100
0010
,
1000
0000
0100
0001
,
0100
0010
0100
0000
,
0110
0000
1010
0000
,
0110
0000
0001
0010
,
0001
0000
0100
0010
,
0100
0000
0110
0000
,
1001
0000
1000
0010
,
0100
0100
0010
0010
,
0000
1000
0001
0000
,
1000
0100
0010
0001
,
0001
0000
1000
0000
,
0010
0001
0010
0000
,
1000
0100
0010
0100
,
1000
0000
0010
0000
,
0101
0000
0110
0000
,
0100
0001
1000
0010
,
0100
0000
1001
0000
,
0100
0001
1000
0001
,
1000
0010
0100
0010
,
0100
0001
0010
0001
,
0010
0001
0100
0010
,
0100
0000
0101
0000
,
1100
0100
0010
0100
,
0100
0010
0100
0010
0100
0010
0100
0010
,
0100
0100
0110
0001
,
1001
0000
0000
0000
;
