#TITLE:ずっと Be with you;
#SUBTITLE:這いよれ! ニャル子さん ED;
#ARTIST:RAMMに這いよるニャル子さん;
#TITLETRANSLIT:Zutto Be with you;
#SUBTITLETRANSLIT:Haiyore! Nyaruko-san ED;
#ARTISTTRANSLIT:RAMM ni Haiyoru Nyaruko-san;
#CREDIT:;
#GENRE:ANIMATION BEAT#1;
#BANNER:Zutto be with you.png;
#BACKGROUND:Zutto be with you-bg.png;
#LYRICSPATH:;
#CDTITLE:cdtitle.png;
#MUSIC:Zutto be with you.mp3;
#MENUCOLOR:0,0,1,1;
#METERTYPE:DDR X;
#OFFSET:-0.116;
#SAMPLESTART:58.000;
#SAMPLELENGTH:12.000;
#SELECTABLE:YES;
#BPMS:0.000=130.000;
#STOPS:;
#BGCHANGES:;

//---------------dance-single - ----------------
#NOTES:
     dance-single:
     :
     Hard:
     10:
     0.446,0.503,0.386,0.221,0.000:
0000
0000
0000
0000
,
0000
0000
0000
0000
,
0000
0000
0000
0000
,
0000
0000
0000
0000
,
1000
1001
0001
1001
,
0100
0110
0010
0110
,
1000
1100
0001
0011
,
1000
0000
0001
0000
1000
0001
1000
0000
,
0010
0000
0100
0020
0000
0130
0010
0200
,
0000
0302
0000
0023
0000
1030
0100
0001
,
0100
1000
0010
0200
0000
0301
0100
0002
,
0000
1003
0010
2000
0000
3010
0010
0100
,
0010
1000
0100
0020
0000
0031
0100
2000
,
0000
3001
0100
0002
0000
0103
0100
0010
,
1000
0100
0001
0200
0000
0310
0100
0020
,
0000
1030
0100
0002
0000
0103
0010
0000
,
0001
1000
0001
1000
0000
0010
0100
0010
,
0000
1000
0100
0001
0000
0001
0010
0100
,
0010
0001
0010
0100
0000
1000
0100
0010
,
0100
1000
0100
0010
0000
0000
0000
0000
,
1000
0001
1000
0001
0000
0001
1000
0001
,
0000
1000
0001
1000
0000
0100
0010
0100
,
0010
0100
0010
0100
0000
1000
0100
0010
,
0000
0010
0100
0010
0000
0100
0010
0000
,
2000
0001
0000
0010
,
0000
0001
0000
0000
,
3002
0100
0000
1000
,
0000
0100
0000
1000
,
1003
0000
0100
0010
0100
0000
0010
0100
,
0010
1000
0100
0001
,
2000
0000
0000
0000
0000
0000
3001
2000
,
0000
0000
0000
3001
0010
0100
1000
0100
,
0010
1000
0100
0002
0000
1003
0100
0011
,
0000
0110
0000
1100
0000
1000
0100
0010
,
0001
0100
0010
1000
0000
0100
0000
1100
,
0000
0110
0000
0011
0000
0100
0001
0000
,
0010
0100
1000
0100
0000
0010
0001
0110
,
0000
1100
0000
0110
0000
0001
0010
0100
,
1000
0100
0010
0100
0000
0010
0000
0110
,
0000
0011
0000
0110
0000
0001
0100
0000
,
1000
0100
0001
0100
0000
0010
0100
0011
,
0000
0110
0000
0011
0000
1000
0100
0010
,
0100
0010
0001
0010
0000
0100
0000
1100
,
0000
0110
0000
1100
0000
0100
0001
0000
,
1100
0010
0100
0011
0000
0100
0010
1010
,
0000
0110
0000
0101
0000
1000
0010
0100
,
1010
0100
0010
0110
0000
0011
0000
0101
,
0000
1001
0000
0202
0000
0000
0000
0000
,
0303
0000
0000
0000
;

//---------------dance-single - ----------------
#NOTES:
     dance-single:
     :
     Medium:
     7:
     0.314,0.371,0.011,0.154,0.000:
0000
0000
0000
0000
,
0000
0000
0000
0000
,
0000
0000
0000
0000
,
0000
0000
0000
0000
,
1000
0100
0000
0010
,
0000
0001
0000
1000
,
0000
0010
0000
0100
,
0000
0000
0001
0000
0000
1000
0001
0000
,
0100
0000
0010
0100
0000
0000
0010
1000
,
0000
0000
0100
0001
0000
0000
1000
0000
,
0001
0000
1000
0001
0000
0000
0100
0010
,
0000
0000
0001
1000
0000
0000
0100
0000
,
0010
0000
0100
0001
0000
0000
0100
0010
,
0000
0000
1000
0001
0000
0100
0010
0000
,
0001
0000
0100
0010
0000
0000
1000
0001
,
0000
1000
0001
1000
0000
0000
0000
0000
,
0010
0100
0010
0100
0000
0001
1000
0001
,
0000
0100
0010
0100
0000
1000
0001
1000
,
0001
1000
0001
1000
0000
0001
0100
0001
,
0000
1000
0010
1000
0000
0000
0000
0000
,
0100
0010
0100
0010
0000
0001
1000
0001
,
0000
0100
0010
0100
0000
0001
1000
0001
,
1000
0001
1000
0001
0000
1000
0100
1000
,
0000
0001
0010
0001
0000
0000
0000
0000
,
2000
0001
0000
0001
,
0000
0001
0000
0000
,
3002
1000
0000
1000
,
0000
1000
0000
1000
,
2003
0000
0000
3020
0000
0000
0000
0000
,
0130
0001
0100
0010
,
2000
0000
0000
0000
0000
0000
3100
0002
,
0000
0000
0000
0000
1003
0001
1000
0001
,
0100
0010
0100
0010
0000
1000
0001
1000
,
0000
0010
0000
0200
0000
0300
0001
0000
,
1000
0001
1000
0001
0000
0100
0000
0010
,
0000
0100
0000
0002
0000
0000
0000
0000
,
1003
0001
1000
0001
0000
0100
0010
0100
,
0000
0010
0000
2000
0000
0000
3001
0000
,
0100
0001
0100
0001
0000
1000
0000
0100
,
0000
0010
0000
0002
0000
0000
0000
0003
,
1000
0000
0001
1000
0000
0010
0100
0010
,
0000
1000
0000
0200
0000
0000
0301
0000
,
1000
0001
1000
0001
0000
0100
0000
0010
,
0000
1000
0000
0200
0000
0000
0000
0300
,
0001
1000
0001
1000
0000
0100
0010
0100
,
0000
0010
0000
0001
0000
1000
0001
1000
,
0001
0100
0010
0100
0000
1000
0000
0100
,
0000
0010
0000
2002
0000
0000
0000
0000
,
3003
0000
0000
0000
;

//---------------dance-single - ----------------
#NOTES:
     dance-single:
     :
     Easy:
     4:
     0.252,0.265,0.022,0.099,0.000:
0000
0000
0000
0000
,
0000
0000
0000
0000
,
0000
0000
0000
0000
,
0000
0000
0000
0000
,
1000
0000
0010
0000
,
0100
0000
0001
0000
,
1000
0000
0010
0000
,
0100
0000
0000
0000
,
1000
0001
0100
0010
,
1000
0100
0010
0010
,
0001
0100
1000
0100
,
0010
0010
0001
0001
,
1000
0100
0010
0010
,
0001
0001
1000
0010
,
0100
0100
0010
0010
,
0001
0001
1000
1000
,
0010
1000
0001
0100
,
0000
0001
0100
1000
,
0001
1000
0001
0100
,
0010
1000
0001
0100
,
1000
0100
0010
0001
,
1000
0010
0100
0010
,
1000
0100
0010
0001
,
0100
1000
0001
0100
,
0020
1000
0000
0000
,
2030
0001
0000
0000
,
3002
0100
0000
0000
,
2003
0001
0000
0000
,
3001
0100
0001
1000
,
1000
1000
0100
0100
,
0002
0000
0000
0000
0000
0000
0000
0003
,
2000
0000
0000
0000
,
3010
0100
0010
1000
,
0001
1000
1001
0100
,
0010
0001
1000
0100
,
0010
0001
0200
0000
,
0310
1000
0100
0010
,
0001
1000
0001
0100
,
0010
1000
0100
0010
,
1000
0100
0010
0001
,
1000
0100
0100
1000
,
0100
0010
0001
1000
,
0100
1000
0100
0010
,
0001
0100
0010
0001
,
1000
0001
1000
0100
,
0001
0100
0001
0100
,
0100
0000
0000
0010
0000
1000
0000
0100
,
0000
0010
0000
2002
0000
0000
0000
0000
,
3003
0000
0000
0000
;

//---------------dance-single - ----------------
#NOTES:
     dance-single:
     :
     Beginner:
     1:
     0.080,0.104,0.000,0.033,0.000: // measure 1
0000
0000
0000
0000
,  // measure 2
0000
0000
0000
0000
,  // measure 3
0000
0000
0000
0000
,  // measure 4
0000
0000
0000
0000
,  // measure 5
1000
0000
0000
0000
,  // measure 6
0010
0000
0000
0000
,  // measure 7
0100
0000
0000
0000
,  // measure 8
0001
0000
0000
0000
,  // measure 9
1000
0000
0000
0000
,  // measure 10
0010
0000
0000
0000
,  // measure 11
0100
0000
0000
0000
,  // measure 12
0001
0000
0000
0000
,  // measure 13
0010
0000
0000
0000
,  // measure 14
1000
0000
0000
0000
,  // measure 15
0001
0000
0000
0000
,  // measure 16
1000
0000
0000
0000
,  // measure 17
0010
0000
0000
0000
,  // measure 18
0100
0000
0000
0000
,  // measure 19
0001
0000
0000
0000
,  // measure 20
1000
0000
0000
0000
,  // measure 21
0010
0000
0000
0000
,  // measure 22
0100
0000
0000
0000
,  // measure 23
0001
0000
0000
0000
,  // measure 24
1000
0000
0000
0000
,  // measure 25
0002
0000
0000
0000
,  // measure 26
0000
0000
0000
0000
,  // measure 27
2003
0000
0000
0000
,  // measure 28
0000
0000
0000
0000
,  // measure 29
3100
0000
0000
0000
,  // measure 30
0100
0000
0000
0000
,  // measure 31
0020
0000
0000
0000
,  // measure 32
0030
0000
0000
0000
,  // measure 33
1000
0000
1000
0000
,  // measure 34
1000
0000
0000
0000
,  // measure 35
0001
0000
0001
0000
,  // measure 36
0001
0000
0000
0000
,  // measure 37
0010
0000
0010
0000
,  // measure 38
0010
0000
0000
0000
,  // measure 39
0100
0000
0100
0000
,  // measure 40
0100
0000
0000
0000
,  // measure 41
1000
0000
1000
0000
,  // measure 42
1000
0000
0000
0000
,  // measure 43
0100
0000
0100
0000
,  // measure 44
0100
0000
0000
0000
,  // measure 45
0010
0000
0010
0000
,  // measure 46
0010
0000
0000
0000
,  // measure 47
1000
0000
0000
0000
,  // measure 48
1000
0000
0000
0000
;
