#TITLE:ずっと Be with you (REDALiCE Remix);
#SUBTITLE:[Remix] 這いよれ! ニャル子さん ED;
#ARTIST:Remixed by REDALiCE;
#TITLETRANSLIT:Zutto Be with you (REDALiCE Remix);
#SUBTITLETRANSLIT:[Remix] Haiyore! Nyaruko-san ED;
#ARTISTTRANSLIT:;
#CREDIT:;
#GENRE:ANIMATION BEAT#1;
#BANNER:Zutto Be with you (REDALiCE Remix).png;
#BACKGROUND:Zutto Be with you (REDALiCE Remix)-bg.png;
#LYRICSPATH:;
#CDTITLE:cdtitle.png;
#MUSIC:Zutto Be with you (REDALiCE Remix).mp3;
#MENUCOLOR:0,0,1,1;
#METERTYPE:DDR X;
#OFFSET:-0.029;
#SAMPLESTART:32.421;
#SAMPLELENGTH:12.000;
#SELECTABLE:YES;
#BPMS:0.000=173.000;
#STOPS:;
#BGCHANGES:;

//---------------dance-single - ----------------
#NOTES:
     dance-single:
     :
     Hard:
     12:
     0.606,0.672,0.631,0.147,0.032: // measure 1
0000
0000
0000
0000
,  // measure 2
0000
0000
0000
0000
,  // measure 3
0000
0000
0000
0000
,  // measure 4
0000
0000
0000
0000
,  // measure 5
0000
0000
0000
0000
,  // measure 6
0000
0000
0000
0000
,  // measure 7
0000
0000
0000
0000
,  // measure 8
0000
0000
0000
0000
,  // measure 9
1000
0010
0100
0010
0000
1000
0100
0001
,  // measure 10
0000
0001
0100
1000
0000
1000
0100
0010
,  // measure 11
1000
0100
0010
0001
0000
0100
0010
0001
,  // measure 12
0000
0100
0010
1000
0000
0100
0010
0000
,  // measure 13
1000
0100
0010
0001
0000
0100
0010
0001
,  // measure 14
0000
0001
0010
0100
0000
1000
0100
0001
,  // measure 15
0100
1000
0010
0001
0000
1000
0010
0001
,  // measure 16
0000
1000
0100
0010
0000
0001
1001
0000
,  // measure 17
0200
0000
0001
0001
0000
0010
0000
1000
,  // measure 18
0000
0001
0000
0010
0000
1300
0001
0000
,  // measure 19
2000
0000
0010
0100
0000
0010
0000
3001
,  // measure 20
1001
1000
0100
0000
0010
0100
0010
0000
,  // measure 21
0101
0000
1000
0010
0100
0010
1000
0100
,  // measure 22
0110
0001
0100
0010
0100
0010
0100
0010
,  // measure 23
1100
0100
0001
0100
0011
0100
0010
1020
,  // measure 24
0000
0130
0010
0100
0010
1000
0010
0000
,  // measure 25
0110
1000
0100
0020
0000
0130
0001
0101
,  // measure 26
0000
1010
0000
0110
0000
1000
0100
0010
,  // measure 27
0001
0100
0010
0001
0000
1100
0000
0110
,  // measure 28
0000
1010
0000
0012
0000
0103
0010
0000
,  // measure 29
1000
0100
0010
0002
0000
0103
0001
1010
,  // measure 30
0000
0110
0000
0011
0000
0100
0001
0100
,  // measure 31
0001
1000
0100
0001
0000
0100
0000
0011
,  // measure 32
0000
0110
0000
1200
0000
1300
0110
0000
,  // measure 33
0110
0010
0100
0020
0000
1030
0100
0010
,  // measure 34
0000
0011
0000
0101
0000
1000
0100
0010
,  // measure 35
0001
0100
0010
0100
0000
0010
0000
0011
,  // measure 36
0000
0110
0000
1010
0000
0100
0010
0000
,  // measure 37
1000
0100
0010
2000
0000
3100
0010
0001
,  // measure 38
0000
0011
0000
0110
0000
1000
0100
0010
,  // measure 39
0001
0100
1000
0010
0000
0100
0000
1100
,  // measure 40
0000
1001
0000
0101
0000
1000
0010
0000
,  // measure 41
1010
0000
0100
0020
0000
0130
0010
1000
,  // measure 42
0000
0110
0000
0011
0000
0100
0001
1000
,  // measure 43
0001
1000
0100
0010
0000
1100
0000
0110
,  // measure 44
0000
0011
0000
0101
0000
1000
0010
0000
,  // measure 45
1000
0100
0010
0002
0000
0103
0010
0100
,  // measure 46
0000
1010
0000
0110
0000
0010
0001
0100
,  // measure 47
0010
1000
0100
0010
0000
1100
0000
0011
,  // measure 48
0000
0101
0000
1010
0000
0100
0010
0000
,  // measure 49
1000
0100
0010
0001
0000
1000
0010
0100
,  // measure 50
0000
0000
1000
0000
0001
0000
0100
0000
0000
0000
1000
0000
0000
0000
1000
0001
,  // measure 51
1000
0100
0000
0001
0000
0100
0000
0010
,  // measure 52
0000
0000
1000
0000
0100
0000
0010
0000
0000
0000
0001
0000
0010
0000
1000
0001
,  // measure 53
0100
0010
0100
0010
0000
1100
0000
0011
,  // measure 54
0000
0000
0100
0000
0001
0000
0100
0000
0000
0000
1000
0000
0100
0000
0010
1000
,  // measure 55
0001
0100
0000
0010
0000
1001
0000
0110
,  // measure 56
0011
1000
0010
0100
0010
1000
0010
0000
,  // measure 57
0110
1000
0010
0002
0000
0203
0000
0320
,  // measure 58
0000
0000
1030
0000
0100
0000
0010
0000
0000
0000
0100
0000
0001
0000
0100
0010
,  // measure 59
0100
0001
0000
0110
0000
1001
0000
0110
,  // measure 60
0000
0000
1000
0000
0100
0000
0010
0000
0000
0000
0100
0000
0001
0000
0100
0010
,  // measure 61
0100
1000
0100
0010
0000
1001
0000
0011
,  // measure 62
0000
0000
0010
0000
0001
0000
0010
0000
0000
0000
1000
0000
0100
0000
0010
1000
,  // measure 63
0001
0100
0000
0011
0000
0101
0000
1100
,  // measure 64
0000
0100
0001
0100
0000
1000
0001
1000
;

//---------------dance-single - ----------------
#NOTES:
     dance-single:
     :
     Medium:
     9:
     0.395,0.470,0.011,0.021,0.000: // measure 1
0000
0000
0000
0000
,  // measure 2
0000
0000
0000
0000
,  // measure 3
0000
0000
0000
0000
,  // measure 4
0000
0000
0000
0000
,  // measure 5
0000
0000
0000
0000
,  // measure 6
0000
0000
0000
0000
,  // measure 7
0000
0000
0000
0000
,  // measure 8
0000
0000
0000
0000
,  // measure 9
1000
0001
1000
0001
0000
0100
0010
0001
,  // measure 10
0000
0100
0010
0001
0000
0100
0001
0100
,  // measure 11
0001
0100
0001
0100
0000
0010
1000
0100
,  // measure 12
0000
0010
1000
0100
0000
0000
0000
0000
,  // measure 13
1000
0001
1000
0001
0000
0100
0010
0100
,  // measure 14
0000
0010
0100
0010
0000
1000
0001
1000
,  // measure 15
0001
0100
0010
0001
0000
0100
0010
0001
,  // measure 16
0000
0100
0001
0100
0000
0000
0000
0000
,  // measure 17
0001
0000
1000
0001
0000
0100
0000
0010
,  // measure 18
0000
0100
0000
0001
0000
0000
0000
0000
,  // measure 19
1000
0000
0001
0100
0000
0010
0000
1000
,  // measure 20
0000
0100
0000
0010
0000
0000
0001
0000
,  // measure 21
2000
0000
0000
3001
0000
0000
0000
0000
,  // measure 22
0010
0010
0010
0001
,  // measure 23
0002
0000
0000
0000
0000
0000
1003
0001
,  // measure 24
0000
0000
0000
0000
0100
0010
0100
0010
,  // measure 25
0100
0010
0100
0010
0000
1000
0100
0010
,  // measure 26
0000
0100
0000
0010
0000
0001
0100
0001
,  // measure 27
0100
0001
0000
0100
0000
0010
0000
1000
,  // measure 28
0000
0100
0000
0010
0000
0001
1000
0000
,  // measure 29
1000
0001
1000
0001
0000
0100
0010
0100
,  // measure 30
0000
0010
0000
1000
0000
0100
0010
0100
,  // measure 31
0010
0100
0010
0100
0000
0010
0000
1000
,  // measure 32
0000
0100
0000
0001
0000
0000
0000
0000
,  // measure 33
0100
0010
0100
0010
0000
1000
0100
0010
,  // measure 34
0000
0001
0000
0100
0000
0001
0100
0001
,  // measure 35
0100
0001
0100
0010
0000
1000
0000
0100
,  // measure 36
0000
0010
0000
0001
0000
0000
0000
0000
,  // measure 37
1000
0001
1000
0001
0000
0100
0010
0100
,  // measure 38
0000
0010
0000
0001
0000
1000
0001
1000
,  // measure 39
0001
1000
0100
0010
0000
0001
0000
0010
,  // measure 40
0000
0100
0000
0001
0000
0000
0000
0000
,  // measure 41
0100
0010
0100
0010
0000
1000
0100
0010
,  // measure 42
0000
0100
0000
0001
0000
0100
0010
0100
,  // measure 43
0010
0100
0010
0100
0000
1000
0000
0100
,  // measure 44
0000
0010
0000
0001
0000
0000
0000
0000
,  // measure 45
0001
0010
0001
0010
0000
0100
0010
0100
,  // measure 46
0000
1000
0000
0100
0000
0010
0100
0010
,  // measure 47
0100
0010
0100
0010
0000
1000
0000
0100
,  // measure 48
0000
0010
0000
0001
0000
0000
0000
0000
,  // measure 49
1000
0001
0100
0010
,  // measure 50
1000
0001
0100
0010
,  // measure 51
1000
0100
0010
0001
,  // measure 52
1000
0001
0100
0010
,  // measure 53
1000
1000
0001
0001
,  // measure 54
0100
0100
0010
0010
,  // measure 55
0100
0100
0010
0010
,  // measure 56
0001
0001
1000
0001
,  // measure 57
1001
0100
0010
0001
,  // measure 58
0010
0100
1000
0100
,  // measure 59
0010
0001
1000
0100
,  // measure 60
0010
0001
1000
0100
,  // measure 61
0010
0001
0100
0010
,  // measure 62
1000
0100
0010
0001
,  // measure 63
1000
0001
1000
0010
,  // measure 64
0100
0000
0010
0000
0100
0000
0001
1000
;

//---------------dance-single - ----------------
#NOTES:
     dance-single:
     :
     Easy:
     6:
     0.331,0.336,0.000,0.137,0.000: // measure 1
0000
0000
0000
0000
,  // measure 2
0000
0000
0000
0000
,  // measure 3
0000
0000
0000
0000
,  // measure 4
0000
0000
0000
0000
,  // measure 5
0000
0000
0000
0000
,  // measure 6
0000
0000
0000
0000
,  // measure 7
0000
0000
0000
0000
,  // measure 8
0000
0000
0000
0000
,  // measure 9
1000
0000
0010
0100
0000
0000
0010
1000
,  // measure 10
0000
0000
0100
0010
0000
0000
0001
0000
,  // measure 11
1000
0000
0010
0100
0000
0000
0000
1000
,  // measure 12
0000
0000
0000
0001
0000
0000
0000
0000
,  // measure 13
1000
0000
0001
1000
0000
0000
0010
0100
,  // measure 14
0000
0000
1000
0001
0000
0000
0100
0000
,  // measure 15
0010
0000
1000
0001
0000
0000
0100
0010
,  // measure 16
0000
0000
0001
0010
0000
0000
0000
0000
,  // measure 17
1000
0000
0001
1000
0000
0010
0000
0100
,  // measure 18
0000
0010
0000
0001
0000
0000
0000
0000
,  // measure 19
1000
0000
0010
0100
0000
1000
0000
0100
,  // measure 20
0000
0010
0000
0001
0000
0000
1000
0000
,  // measure 21
0002
0000
0000
1003
0000
0000
0000
0000
,  // measure 22
0100
0010
0001
0100
,  // measure 23
0020
0000
0000
0000
0000
0000
0000
2030
,  // measure 24
0000
0000
3001
1000
,  // measure 25
0100
0000
0010
0100
0000
0001
0000
1000
,  // measure 26
0000
0100
0000
0002
0000
0000
0003
0000
,  // measure 27
1000
0000
0010
0100
0000
0010
0000
0100
,  // measure 28
0000
1000
0000
0200
0000
0000
0000
0000
,  // measure 29
0301
0000
1000
0001
0000
0100
0000
0010
,  // measure 30
0000
1000
0000
0002
0000
0000
1003
0000
,  // measure 31
0010
0000
0100
0010
0000
0100
0000
1000
,  // measure 32
0000
0100
0000
0002
0000
0000
0000
0000
,  // measure 33
1003
0000
0010
0100
0000
1000
0000
0100
,  // measure 34
0000
0010
0000
0002
0000
0000
1003
0000
,  // measure 35
0010
0000
0100
0010
0000
1000
0000
0100
,  // measure 36
0000
0010
0000
0002
0000
0000
0000
0000
,  // measure 37
1003
0000
0010
0100
0000
1000
0000
0100
,  // measure 38
0000
0001
0000
0100
0000
0000
0010
0000
,  // measure 39
1000
0100
0000
0001
0000
0010
0000
0100
,  // measure 40
0000
1000
0000
0002
0000
0000
0000
0000
,  // measure 41
1003
0000
0010
0100
0000
0010
0000
1000
,  // measure 42
0000
0100
0000
0020
0000
0000
0130
0000
,  // measure 43
0001
0000
1000
0100
0000
0010
0000
0001
,  // measure 44
0000
0100
0000
0020
0000
0000
0000
0000
,  // measure 45
1030
0000
0001
0100
0000
0010
0000
0001
,  // measure 46
0000
1000
0000
0001
0000
0000
0100
0000
,  // measure 47
0010
0000
0000
1000
0000
0100
0000
0010
,  // measure 48
0000
0001
0000
2000
0000
0000
0000
0000
,  // measure 49
3010
0100
0010
1000
,  // measure 50
0100
0000
0001
1000
0000
0000
0010
0000
,  // measure 51
1000
0100
0010
1000
,  // measure 52
0010
0000
0100
0001
0000
0000
1000
0000
,  // measure 53
0010
0100
0001
1000
,  // measure 54
0010
0000
0100
0001
0000
0000
1000
0000
,  // measure 55
0010
0100
0001
1000
,  // measure 56
0010
0000
1000
0001
0000
0000
0100
0000
,  // measure 57
0010
0000
1000
0010
0000
0100
0000
0010
,  // measure 58
0000
0100
0000
0010
0000
1000
0000
0000
,  // measure 59
0001
1000
0000
0010
0000
0100
0000
0010
,  // measure 60
0000
1000
0000
0100
0000
0000
0010
0000
,  // measure 61
1000
0000
0001
0100
0000
0010
0000
1000
,  // measure 62
0000
0010
0000
0100
0000
0010
0000
1000
,  // measure 63
0000
0100
0000
0010
0000
1000
0000
0001
,  // measure 64
0000
1000
0001
1000
0000
0010
0000
0100
;

//---------------dance-single - ----------------
#NOTES:
     dance-single:
     :
     Beginner:
     3:
     0.147,0.232,0.116,0.105,0.000: // measure 1
0000
0000
0000
0000
,  // measure 2
0000
0000
0000
0000
,  // measure 3
0000
0000
0000
0000
,  // measure 4
0000
0000
0000
0000
,  // measure 5
0000
0000
0000
0000
,  // measure 6
0000
0000
0000
0000
,  // measure 7
0000
0000
0000
0000
,  // measure 8
0000
0000
0000
0000
,  // measure 9
1001
0000
0000
0000
,  // measure 10
1000
0000
0000
0000
,  // measure 11
0001
0000
0000
0000
,  // measure 12
0100
0000
0000
0000
,  // measure 13
0010
0000
0000
0000
,  // measure 14
0001
0000
0000
0000
,  // measure 15
1000
0000
0000
0000
,  // measure 16
1001
0000
0000
0000
,  // measure 17
0220
0000
0000
0000
,  // measure 18
0330
0000
0000
0000
,  // measure 19
2000
0000
0000
0000
,  // measure 20
3000
0000
0000
0000
,  // measure 21
2002
0000
0000
0000
,  // measure 22
3003
0000
0000
0000
,  // measure 23
0002
0000
0000
0000
,  // measure 24
0003
0000
0000
0000
,  // measure 25
1000
1000
1000
0000
,  // measure 26
0010
0000
0010
0000
,  // measure 27
0001
0001
0001
0000
,  // measure 28
0100
0000
0100
0000
,  // measure 29
0010
0010
0010
0000
,  // measure 30
1000
0000
1000
0000
,  // measure 31
0100
0100
0100
0000
,  // measure 32
0001
0000
0001
0000
,  // measure 33
1000
0000
1000
0000
,  // measure 34
0001
0001
0001
0000
,  // measure 35
0010
0000
0010
0000
,  // measure 36
0100
0100
0100
0000
,  // measure 37
0001
0000
0001
0000
,  // measure 38
1000
1000
1000
0000
,  // measure 39
0100
0000
0000
0000
,  // measure 40
0110
0000
0000
0000
,  // measure 41
1001
0000
0000
0000
,  // measure 42
0100
0100
0100
0000
,  // measure 43
0110
0000
0000
0000
,  // measure 44
0010
0010
0010
0000
,  // measure 45
1001
0000
0000
0000
,  // measure 46
1000
1000
1000
0000
,  // measure 47
1001
0000
0000
0000
,  // measure 48
0001
0001
0001
0000
,  // measure 49
2000
0000
0000
0000
,  // measure 50
3000
0000
0000
0000
,  // measure 51
0200
0000
0000
0000
,  // measure 52
0300
0000
0000
0000
,  // measure 53
0020
0000
0000
0000
,  // measure 54
0030
0000
0000
0000
,  // measure 55
0002
0000
0000
0000
,  // measure 56
0003
0000
0000
0000
,  // measure 57
1000
0000
0000
0000
,  // measure 58
0100
0000
0000
0000
,  // measure 59
0010
0000
0000
0000
,  // measure 60
0001
0000
0000
0000
,  // measure 61
0100
0000
0000
0000
,  // measure 62
1000
0000
0000
0000
,  // measure 63
0110
0000
0000
0000
,  // measure 64
1001
0000
0000
0000
;
