#TITLE:ずっと Be with you (Masayoshi Minoshima Remix);
#SUBTITLE:[Remix] 這いよれ! ニャル子さん ED;
#ARTIST:Remixed by 箕島マサヨシ;
#TITLETRANSLIT:Zutto Be with you (Masayoshi Minoshima Remix);
#SUBTITLETRANSLIT:[Remix] Haiyore! Nyaruko-san ED;
#ARTISTTRANSLIT:Remixed by Masayoshi Minoshima;
#CREDIT:;
#GENRE:ANIMATION BEAT#1;
#BANNER:Zutto Be with you (Masayoshi Minoshima Remix).png;
#BACKGROUND:Zutto Be with you (Masayoshi Minoshima Remix)-bg.png;
#LYRICSPATH:;
#CDTITLE:cdtitle.png;
#MUSIC:Zutto Be with you (Masayoshi Minoshima Remix).mp3;
#MENUCOLOR:0,0,1,1;
#METERTYPE:DDR X;
#OFFSET:-0.560;
#SAMPLESTART:73.227;
#SAMPLELENGTH:12.000;
#SELECTABLE:YES;
#BPMS:0.000=130.000;
#STOPS:;
#BGCHANGES:;

//---------------dance-single - ----------------
#NOTES:
     dance-single:
     :
     Hard:
     11:
     0.504,0.507,0.550,0.150,0.050:
0000
0000
0000
0000
,
0000
0000
0000
0000
,
0000
0000
0000
0000
,
0000
0000
0000
0000
,
1001
0110
0011
1010
,
0110
0011
0101
1010
,
1100
1010
0110
0011
,
0101
0000
1010
0000
1100
0010
1000
0000
,
0010
0100
0010
2000
0000
3001
0100
0020
,
0000
2030
0000
3002
0100
0000
0103
0000
,
1001
0110
0011
0101
,
1010
0000
0110
0000
0011
1000
1001
0000
,
0110
1000
0010
0200
0000
0310
1000
0002
,
0000
2003
0000
3020
0001
0000
0100
0000
,
1030
0101
1100
0011
,
1000
0000
1000
0000
0010
0100
0000
0001
0010
0000
1000
0000
0001
0100
0001
1000
,
0010
0100
0010
0200
0000
0310
1000
0002
,
0000
0013
0100
0020
0000
1030
0100
0010
,
0101
0000
0000
0110
0000
0000
0110
0000
0000
0000
1000
0000
0010
0000
0200
0000
,
0000
1300
0001
0101
0000
1000
0010
0001
,
0210
0000
0310
0110
0000
0100
0001
0101
,
0000
1000
0100
0110
0000
1000
0001
0100
,
0110
0000
0000
0110
0000
0000
0011
0000
0000
0000
0100
0000
0010
0000
0110
0000
,
0000
1000
0010
0200
0000
1300
0001
0000
,
1000
0010
0100
0010
0000
1000
0100
0010
,
0000
0100
0010
0100
0000
0001
0010
0100
,
1000
0010
0100
0010
0000
1000
0100
0010
,
0000
0001
0100
0010
0000
0110
0110
0000
,
0110
1000
0100
0010
0000
0001
0100
0001
,
0000
1000
0100
0010
0000
0100
0010
0100
,
0010
1000
0100
0010
0000
0100
0001
0100
,
0000
0010
1000
0010
0000
1000
0100
0000
,
1002
0100
0010
0010
,
0100
0000
0010
0000
0010
0000
0100
0003
,
2001
0100
0010
0001
,
0010
0010
0100
3100
,
0101
0000
1000
0010
1000
0010
0100
0000
,
0010
0100
0010
0000
1000
0100
0010
0000
,
1002
0000
0100
0000
0010
0000
1000
2000
,
0000
0000
0000
3003
1000
0100
0010
0001
,
0101
1000
0010
0100
0010
0100
0010
1000
,
0100
0010
0100
0110
0000
1000
0100
0010
,
0100
0001
0100
0010
1000
0100
0010
0011
,
0000
0101
0000
1010
0000
0100
0010
0000
,
1000
0010
0100
0010
1000
0100
0010
0100
,
0000
0110
0000
0011
0000
1000
0001
1000
,
0001
0100
0010
0100
0000
0100
0000
0110
,
0000
1010
0000
0101
0000
1000
0001
0000
,
0100
0010
0100
0010
0001
1000
0100
0001
,
0000
0101
0000
1010
0000
0100
0010
0100
,
0001
1000
0100
0010
1000
0001
0100
0001
,
0100
0010
0001
0100
1000
0010
1010
0000
,
0001
0100
0010
0001
0000
0100
0001
1001
,
0000
0110
0000
1010
0000
0100
0010
0100
,
0001
1000
0100
0010
0000
1001
0000
0101
,
0000
1010
0000
0110
0000
1000
0001
0000
,
1000
0010
0100
0010
,
0001
1000
0010
0100
,
0010
1000
0100
0010
,
0001
0100
0010
0001
,
1000
0100
0001
1000
,
0010
0100
0010
1000
,
0001
1000
0010
0100
,
0001
0000
0001
0000
1000
0001
0000
0100
0001
0100
1000
0100
1000
0001
0010
0001
;

//---------------dance-single - ----------------
#NOTES:
     dance-single:
     :
     Medium:
     8:
     0.350,0.373,0.100,0.058,0.000:
0000
0000
0000
0000
,
0000
0000
0000
0000
,
0000
0000
0000
0000
,
0000
0000
0000
0000
,
1000
1001
0010
0110
,
0001
0011
1000
1100
,
0010
0110
0001
1001
,
1000
0000
0001
0000
0100
0010
0100
0000
,
0010
1000
0010
0100
0000
0100
0010
0100
,
0000
0010
0000
2000
0000
0000
0000
0000
,
3001
0101
0010
0110
,
1000
1100
0001
0101
,
1000
0001
1000
0001
0000
0100
0010
0200
,
0000
0310
0000
2000
0000
0000
0000
0000
,
3010
0101
0010
0011
,
0100
0001
0001
0000
,
2000
0000
0000
3001
0000
0100
0010
0100
,
0000
0010
0100
0010
0000
1000
0100
0010
,
0100
0000
0100
0100
0000
0000
0010
0100
,
0000
0010
0100
0010
0000
1000
0100
0000
,
0010
0000
0100
0010
0000
0000
1000
0010
,
0000
0100
0000
0001
0000
1000
0100
0000
,
0010
0100
0000
0010
0000
0000
0100
0010
,
0000
1000
0100
0010
0000
0000
0100
0000
,
1000
0001
1000
0001
0000
0100
0010
0100
,
0000
0001
0010
0001
0000
1000
0001
1000
,
0001
1000
0001
1000
0000
0010
0100
0010
,
0000
0100
0001
0100
0000
0000
0000
0000
,
1000
0001
1000
0001
0000
0100
0010
0100
,
0000
0010
0001
0010
0000
0100
0001
0100
,
0001
0100
0001
0100
0000
0010
0001
0010
,
0000
1000
0001
1000
0000
0000
0000
0000
,
1000
0000
0001
0100
0000
0010
0000
0010
,
0000
0100
0000
0001
0000
0000
0000
0000
,
1000
0000
0010
0100
0000
1000
0000
0100
,
0000
0010
0000
0001
0000
0000
1000
0000
,
0002
0000
0000
1003
0000
0000
0000
0000
,
0200
0310
1000
0001
,
2000
0000
0000
0000
0000
3000
0001
1000
,
0000
0000
0000
0000
0100
0010
0100
0010
,
0100
1000
0100
0010
0000
0001
0100
0001
,
0000
1000
0000
0001
0000
0000
0100
0010
,
0100
0010
0100
0010
0000
1000
0000
0100
,
0000
0010
0000
0001
0000
0000
0000
0000
,
1000
0001
1000
0001
0000
0100
0010
0100
,
0000
0010
0000
0001
0000
1000
0001
1000
,
0001
1000
0001
0100
0000
0010
0000
0001
,
0000
1000
0000
0001
0000
0000
0000
0000
,
0100
0010
0100
0010
0000
1000
0100
0010
,
0000
0001
0000
0100
0000
0010
1000
0010
,
0100
0010
0001
0010
0000
0100
0000
0010
,
0000
1000
0000
0001
0000
0000
0000
0000
,
1000
0001
1000
0001
0000
0100
0010
0100
,
0000
0010
0000
1000
0000
0100
0001
0100
,
0001
0100
0010
0100
0000
1000
0000
0100
,
0000
0010
0000
0001
0000
0000
0000
0000
,
1000
0100
0010
0001
,
1000
0100
0010
0001
,
1000
0100
0010
0001
,
1000
0100
0010
0001
,
1000
0100
0010
0001
,
1000
0100
0010
0001
,
0001
0010
0100
1000
,
1000
0000
0001
0000
1000
0000
0001
1000
;

//---------------dance-single - ----------------
#NOTES:
     dance-single:
     :
     Easy:
     5:
     0.284,0.266,0.008,0.067,0.000: // measure 1
0000
0000
0000
0000
,  // measure 2
0000
0000
0000
0000
,  // measure 3
0000
0000
0000
0000
,  // measure 4
0000
0000
0000
0000
,  // measure 5
1000
0001
0100
0010
,  // measure 6
0001
1000
0100
0010
,  // measure 7
0001
1000
0100
0010
,  // measure 8
0001
1000
0100
0010
,  // measure 9
0001
0000
1000
0001
0000
0100
0000
0010
,  // measure 10
0000
1000
0000
0020
0000
0000
0000
0000
,  // measure 11
1030
0100
0010
0001
,  // measure 12
1000
0001
1000
0100
,  // measure 13
0010
0000
1000
0001
0000
0100
0000
0010
,  // measure 14
0000
1000
0000
0002
0000
0000
0000
0003
,  // measure 15
1000
0100
0010
0001
,  // measure 16
1000
1000
0001
0001
,  // measure 17
1000
0000
0010
0100
0000
0000
0010
0100
,  // measure 18
0000
0000
0001
1000
0000
1000
0001
0000
,  // measure 19
0100
0000
0010
0100
0000
0000
0100
0010
,  // measure 20
0000
0000
1000
0001
0000
0000
0100
0000
,  // measure 21
0010
0000
1000
0001
0000
0000
0100
0010
,  // measure 22
0000
0000
1000
0001
0000
0000
0100
0000
,  // measure 23
0010
0000
1000
0001
0000
0000
0100
0010
,  // measure 24
0000
0000
0010
0001
0000
0000
0100
0000
,  // measure 25
1000
0000
0001
1000
0000
0000
0100
0010
,  // measure 26
0000
0000
0001
0100
0000
0000
0010
0000
,  // measure 27
1000
0000
1000
0001
0000
0000
0100
0010
,  // measure 28
0000
0000
1000
0001
0000
0000
0100
0000
,  // measure 29
0010
0000
1000
0001
0000
0000
0100
0010
,  // measure 30
0000
0000
0001
0100
0000
0000
1000
0000
,  // measure 31
0100
0000
0010
1000
0000
0000
0100
0010
,  // measure 32
0000
0000
0001
0010
0000
0000
0100
0000
,  // measure 33
2000
0001
0000
0001
,  // measure 34
0000
0001
0000
0000
,  // measure 35
3002
1000
0000
1000
,  // measure 36
0000
1000
0000
1003
,  // measure 37
2000
0000
3000
0002
0000
0000
0000
0003
,  // measure 38
0100
0010
1000
0100
,  // measure 39
0002
0000
0000
0000
0000
0000
0000
2003
,  // measure 40
0000
0000
3010
0100
,  // measure 41
0010
0000
0010
0000
0100
0000
0001
1000
,  // measure 42
0000
0001
0000
0100
0000
0000
0010
0000
,  // measure 43
1000
0000
0100
0000
0010
0000
1000
0001
,  // measure 44
0000
0100
0000
0010
0000
1000
0000
0000
,  // measure 45
0100
0000
0010
0000
0100
0000
0001
1000
,  // measure 46
0000
0100
0000
0001
0000
0000
1000
0000
,  // measure 47
0010
0100
0010
0001
,  // measure 48
1000
0000
0001
0000
0100
0010
0100
0000
,  // measure 49
0010
0000
1000
0000
0001
0000
1000
0100
,  // measure 50
0000
0010
0000
1000
0000
0000
0100
0000
,  // measure 51
0010
1000
0001
0100
,  // measure 52
0010
0001
1000
0001
,  // measure 53
1000
0000
0010
0100
0000
0000
0010
0000
,  // measure 54
1000
0100
0001
1000
,  // measure 55
0001
0000
1000
0001
0000
0000
0100
0000
,  // measure 56
0010
1000
0100
0010
,  // measure 57
1001
0100
0010
0001
,  // measure 58
0100
0010
1000
0100
,  // measure 59
0010
0001
0100
0010
,  // measure 60
1000
0100
0010
0100
,  // measure 61
0001
1000
0100
0010
,  // measure 62
1000
0100
0010
0001
,  // measure 63
1000
1000
0010
0010
,  // measure 64
1000
0000
0001
0000
1000
0001
1000
0001
;

//---------------dance-single - ----------------
#NOTES:
     dance-single:
     :
     Beginner:
     2:
     0.087,0.133,0.017,0.042,0.000: // measure 1
0000
0000
0000
0000
,  // measure 2
0000
0000
0000
0000
,  // measure 3
0000
0000
0000
0000
,  // measure 4
0000
0000
0000
0000
,  // measure 5
1000
0000
1000
0000
,  // measure 6
0100
0000
0100
0000
,  // measure 7
0010
0000
0010
0000
,  // measure 8
0001
0000
0001
0000
,  // measure 9
1000
0000
0100
0000
,  // measure 10
0010
0000
0002
0000
,  // measure 11
0000
0000
0000
0000
,  // measure 12
0003
0000
0000
0000
,  // measure 13
1000
0000
0100
0000
,  // measure 14
0001
0000
2000
0000
,  // measure 15
0000
0000
0000
0000
,  // measure 16
3000
0000
0000
0000
,  // measure 17
0001
0000
0000
0000
,  // measure 18
0100
0000
0000
0000
,  // measure 19
0010
0000
0000
0000
,  // measure 20
1000
0000
0000
0000
,  // measure 21
0001
0000
0000
0000
,  // measure 22
0100
0000
0000
0000
,  // measure 23
0010
0000
0000
0000
,  // measure 24
0001
0000
0000
0000
,  // measure 25
1000
0000
1000
0000
,  // measure 26
0010
0000
0010
0000
,  // measure 27
0001
0000
0001
0000
,  // measure 28
0100
0000
0100
0000
,  // measure 29
0010
0000
0010
0000
,  // measure 30
0001
0000
0001
0000
,  // measure 31
1000
0000
1000
0000
,  // measure 32
0010
0000
0010
0000
,  // measure 33
0002
0000
0000
0000
,  // measure 34
0000
0000
0000
0000
,  // measure 35
2003
0000
0000
0000
,  // measure 36
0000
0000
0000
0000
,  // measure 37
3001
0000
0100
0000
,  // measure 38
0010
0000
1000
0000
,  // measure 39
0001
0000
0000
0000
,  // measure 40
1000
0000
0000
0000
,  // measure 41
1001
0000
0000
0000
,  // measure 42
1000
0000
0000
0000
,  // measure 43
1000
0000
0000
0000
,  // measure 44
0001
0000
0000
0000
,  // measure 45
0100
0000
0000
0000
,  // measure 46
0010
0000
0000
0000
,  // measure 47
0001
0000
0000
0000
,  // measure 48
1000
0000
0000
0000
,  // measure 49
0100
0000
0000
0000
,  // measure 50
0010
0000
0000
0000
,  // measure 51
0001
0000
0000
0000
,  // measure 52
1000
0000
0000
0000
,  // measure 53
1000
0000
0000
0000
,  // measure 54
0010
0000
0000
0000
,  // measure 55
0001
0000
0000
0000
,  // measure 56
0100
0000
0000
0000
,  // measure 57
1001
0000
0000
0000
,  // measure 58
0000
0000
0000
0000
,  // measure 59
0000
0000
0000
0000
,  // measure 60
0000
0000
0000
0000
,  // measure 61
0000
0000
0000
0000
,  // measure 62
0000
0000
0000
0000
,  // measure 63
0000
0000
0000
0000
,  // measure 64
2000
0000
0000
0000
0000
0000
0000
0000
0000
0000
0000
0000
0000
0000
0000
0000
0000
0000
0000
0000
0000
0000
0000
0000
0000
0000
0000
0000
0000
0000
0000
0000
0000
0000
0000
0000
0000
0000
0000
0000
0000
0000
0000
0000
0000
0000
0000
0000
0000
0000
0000
0000
0000
0000
0000
0000
0000
0000
0000
0000
0000
0000
0000
0000
0000
0000
0000
0000
0000
0000
0000
0000
0000
0000
0000
0000
0000
0000
0000
0000
0000
0000
0000
0000
0000
0000
0000
0000
0000
0000
0000
0000
0000
0000
0000
0000
0000
0000
0000
0000
0000
0000
0000
0000
0000
0000
0000
0000
0000
0000
0000
0000
0000
0000
0000
0000
0000
0000
0000
0000
0000
0000
0000
0000
0000
0000
0000
0000
0000
0000
0000
0000
0000
0000
0000
0000
0000
0000
0000
0000
0000
0000
0000
0000
0000
0000
0000
0000
0000
0000
0000
0000
0000
0000
0000
0000
0000
0000
0000
0000
0000
0000
0000
0000
0000
0000
0000
0000
0000
3000
0000
0000
0000
0000
0000
0000
0000
0000
0000
0000
0000
0000
0000
0000
0000
0000
0000
0000
0000
0000
0000
0000
;
