#TITLE:割れたリンゴ;
#SUBTITLE:新世界より ED;
#ARTIST:種田 梨沙;
#TITLETRANSLIT:Wareta Ringo;
#SUBTITLETRANSLIT:Shin Sekai Yori ED;
#ARTISTTRANSLIT:Risa Taneda;
#GENRE:ANIMATION BEAT#1;
#CREDIT:;
#BANNER:Wareta Ringo.png;
#BACKGROUND:Wareta Ringo-bg.png;
#LYRICSPATH:;
#CDTITLE:cdtitle.png;
#MUSIC:Wareta Ringo.mp3;
#MENUCOLOR:0,0,1,1;
#METERTYPE:DDR X;
#OFFSET:-0.325;
#SAMPLESTART:38.623;
#SAMPLELENGTH:12.000;
#SELECTABLE:YES;
#BPMS:0.000=120.002;
#STOPS:;
#BGCHANGES:;

//---------------dance-single - ----------------
#NOTES:
     dance-single:
     :
     Hard:
     13:
     0.559,0.568,0.045,0.181,0.379: // measure 1
0000
0000
0000
0000
,  // measure 2
0000
0000
0000
0000
,  // measure 3
0000
0000
0000
0000
,  // measure 4
0000
0000
0000
0000
,  // measure 5
1000
0000
0010
0000
0100
0001
0010
0000
1000
0001
1000
0001
0000
0000
0000
0000
,  // measure 6
0001
0000
0100
0000
1000
0001
0100
0000
0010
0100
0010
0100
0000
0000
0000
0010
,  // measure 7
0001
0000
0100
0000
1000
0100
0010
0000
1000
0100
0001
0010
0000
0000
0000
0000
,  // measure 8
0010
0000
1000
0000
0100
0010
0001
0000
0100
1000
0010
0100
0000
0000
0001
0010
,  // measure 9
0100
0000
0010
0000
0001
0010
0100
0000
0010
0100
1000
0100
0002
0000
0000
0013
,  // measure 10
0100
0000
0010
0000
0001
1000
0010
0000
0100
0010
0001
0100
0000
0000
0000
0001
,  // measure 11
0100
0000
0001
0000
0100
0001
0010
0000
0001
0100
1000
0010
0000
0000
0000
0000
,  // measure 12
0100
0000
0010
0000
0001
0010
0100
0000
0010
0100
1000
0010
0000
0000
0000
0000
,  // measure 13
0100
0000
0001
0000
1000
0000
0100
0000
0010
0000
0100
0000
0001
1000
0100
0002
,  // measure 14
0010
1000
0010
0100
,  // measure 15
0013
0000
1000
0000
0100
0000
0001
0000
0100
0000
0010
0000
0001
0100
0010
1000
,  // measure 16
0200
0010
0001
1000
,  // measure 17
0301
0000
0010
0000
1000
0000
0001
0000
0100
0000
0010
0000
0001
0100
1000
0100
,  // measure 18
0002
0000
0100
0000
0010
0000
1000
1000
,  // measure 19
1003
0000
0100
0000
0010
0000
0001
0000
0100
0000
0010
0000
1000
0100
0001
0100
,  // measure 20
1000
0000
0000
0000
0000
0000
0000
0000
0001
0010
0100
1000
0001
0000
0000
0000
,  // measure 21
1002
0000
0000
0100
0003
0010
0000
2000
0000
0000
3010
0000
0100
0000
0010
0000
,  // measure 22
2000
0100
3002
0100
2003
0010
3002
0010
,  // measure 23
0103
0000
0010
0100
0000
0001
0010
0100
0000
0000
0100
0000
0010
0000
0001
0000
,  // measure 24
0200
1000
0320
0001
0230
1000
0310
0001
,  // measure 25
1001
0000
0000
0001
1000
0000
0100
0000
0010
0000
0001
0000
1000
0000
0010
0000
,  // measure 26
1000
1000
0001
0001
0100
0100
0010
0010
,  // measure 27
1000
0000
0000
0100
0010
0000
0001
0000
0010
0000
0100
0000
0010
0000
1000
0000
,  // measure 28
0010
0010
1000
1000
0001
0001
0100
0001
,  // measure 29
1001
0000
0000
0100
0001
0000
0100
0000
0010
0000
0001
0000
0010
0000
0100
0000
,  // measure 30
0010
0010
1000
1000
0001
0001
0100
0010
,  // measure 31
0001
0000
0000
0001
1000
0000
0100
0000
0010
0000
0001
0000
0100
0000
0010
0000
,  // measure 32
1000
1000
0100
0100
0010
0010
0001
0001
,  // measure 33
1000
0000
0000
0100
0001
0000
0100
0000
0010
0000
1000
0000
0001
0000
0100
0000
,  // measure 34
0010
0010
0001
0001
0100
0100
1000
1000
,  // measure 35
0010
0000
0000
1000
0100
0000
0010
0000
0001
0000
0100
0000
0010
0000
0100
0000
,  // measure 36
1000
1000
0001
0001
0100
0010
0100
0001
,  // measure 37
0101
0000
0000
0100
0001
0000
0100
0010
0000
0000
0100
0000
0010
0000
1000
0000
,  // measure 38
0010
0100
0020
0000
1000
0000
0031
0100
,  // measure 39
0010
0000
0000
1000
0100
0000
0001
0010
0000
0000
0010
0000
0001
0000
0010
0000
,  // measure 40
0200
0000
0020
0330
,  // measure 41
0100
0000
0010
0000
1000
0100
0010
0000
0100
0001
0010
1000
0000
0000
0000
0000
,  // measure 42
0100
0000
0001
0000
1000
0001
0100
0000
0010
1000
0001
0100
0000
0000
0000
0010
,  // measure 43
0001
0000
0100
0000
0010
0001
1000
0000
0100
1000
0010
0100
0000
0000
0000
0000
,  // measure 44
1000
0000
0100
0000
0010
1000
0001
0000
1000
0100
0001
0100
0000
0000
0000
0000
;

//---------------dance-single - ----------------
#NOTES:
     dance-single:
     :
     Challenge:
     15:
     0.733,0.815,0.034,0.407,0.831:
0000
0000
0000
0000
,
0000
0000
0000
0000
,
0000
0000
0000
0000
,
0000
0000
0000
0000
,
0001
0000
1000
0000
0010
0100
1000
0000
0001
0100
0002
0100
0000
0000
0000
0000
,
0103
0000
0010
0000
0001
0100
0010
0000
1000
0010
2000
0010
0000
0000
0000
3001
,
0100
0000
0010
0000
0001
0010
1000
0000
0001
0010
0200
1000
0000
0000
0000
0000
,
1300
0000
0001
0000
0010
1000
0100
0000
0010
0001
2000
0010
0000
0000
3100
1000
,
0010
0000
1000
0000
0100
1000
0010
0000
1000
0010
0001
0020
0200
0000
0030
1300
,
0010
0000
1000
0000
0100
0001
1000
0000
0010
1000
0200
0010
0000
0000
0000
0301
,
0010
0000
0100
0000
0010
0100
1000
0000
0100
0010
0002
1000
0000
0000
0000
0000
,
0013
0000
1000
0000
0100
1000
0010
0000
1000
0010
0002
1000
0000
0000
0000
0000
,
0013
0000
0100
0010
0001
0000
0010
0000
1000
0000
0010
0000
0100
0001
0010
0200
,
1000
0001
1000
0010
,
1300
0100
0001
0100
0010
0000
0100
0000
0010
0000
1000
0000
0100
0010
1000
0001
,
0020
1000
0100
0001
,
0130
0001
1000
0100
0001
0000
0100
0000
0010
0000
1000
0000
0100
0010
0001
0010
,
0200
0000
0010
0000
1000
0000
0001
0001
,
0301
0000
0010
0000
1000
0000
0100
0000
0010
0000
1000
0000
0001
0010
0100
0010
,
0001
0000
0000
0000
0000
0000
0000
0000
0100
1000
0010
0002
0100
0000
0000
0003
,
0201
0000
0000
0010
0300
1000
0000
0002
0000
0000
1003
0000
0010
0100
1000
0100
,
0002
0010
0203
0010
0302
1000
0203
1000
,
0310
0000
1000
0010
0000
0100
1000
0010
0100
0000
0010
0000
1000
0001
0100
1000
,
0020
0001
2030
0100
3020
0001
1030
0100
,
0101
0000
0010
0100
0001
0000
0010
0000
1000
0000
0100
0000
0001
0100
1000
0200
,
0001
0302
0100
0203
0010
0320
1000
1030
,
0001
0010
0100
0010
0001
0010
0100
0001
1000
0000
0010
0000
1000
0100
0001
0200
,
1000
2300
0001
3002
0100
0103
0010
0100
,
0001
1000
0001
0010
0100
1000
0010
0100
1000
0010
0100
0001
1000
0100
0010
0001
,
1000
0100
1000
0010
0001
0100
0001
0010
0100
1000
0100
0001
0010
0100
1000
0010
,
0100
1000
0010
0100
0001
1000
0010
0001
1000
0010
0100
1000
0010
0100
1000
0010
,
0001
0100
0001
1000
0010
0001
0010
0100
1000
0001
1000
0010
0100
1000
0100
0010
,
0001
0100
1000
0010
0100
1000
0010
0100
1000
0010
0001
1000
0100
0001
0010
0100
,
1000
0001
1000
0010
0100
0010
0100
1000
0010
0100
0010
1000
0001
0010
0001
0100
,
1000
0010
0100
0001
0010
0100
1000
0001
0100
1000
0010
0001
1000
0100
0010
1000
,
0001
0010
0001
1000
0100
0010
0100
1000
0010
0001
1000
0100
0010
0001
0100
1000
,
0100
0001
1000
0010
0100
0000
0010
1000
0000
0100
0010
0000
1000
0000
0001
0000
,
1000
0000
0010
0000
2000
0000
0000
3020
0001
0000
0031
1000
0100
0000
0010
0000
,
1000
0000
0000
0001
0010
0000
0100
1000
0000
0000
1000
0000
0100
0000
1000
0000
,
1020
0000
2000
3030
,
0010
0000
1000
0000
0001
0010
1000
0000
0010
0100
2000
0001
0000
0000
0000
0000
,
3010
0000
0100
0000
0001
0100
0010
0000
1000
0001
0200
0010
0000
0000
0000
1300
,
0100
0000
0010
0000
1000
0100
0001
0000
0010
0001
2000
0010
0000
0000
0000
0000
,
3001
0000
0010
0000
1000
0001
0100
0000
0001
0010
0100
0010
0000
0000
0000
0000
;

//---------------dance-single - ----------------
#NOTES:
     dance-single:
     :
     Medium:
     8:
     0.333,0.370,0.011,0.283,0.164:
0000
0000
0000
0000
,
0000
0000
0000
0000
,
0000
0000
0000
0000
,
0000
0000
0000
0000
,
1000
0100
0010
1000
0001
0000
0000
0000
,
0001
0010
0100
0010
0001
0000
0000
0000
,
1000
0001
0100
0010
0001
0000
0000
0000
,
1000
0100
0010
0001
1000
0000
0000
0000
,
0010
0100
1000
0001
0100
0000
0000
0000
,
0001
0100
1000
0010
0001
0000
0000
0000
,
1000
0100
0001
0010
0001
0000
0000
0000
,
0100
0001
0100
1000
0010
0000
0000
0000
,
1000
0000
0000
0001
0100
0000
0020
0000
0000
0000
2030
0000
0000
0000
0000
0000
,
0001
0000
0010
0000
0010
0000
3001
0100
,
0001
0000
0000
1000
0001
0000
0200
0000
0000
0000
0000
0000
0000
0000
0310
0000
,
2000
0010
0001
0001
,
3001
0000
0000
0100
0010
0000
0002
0000
0000
0000
2003
0000
0000
0000
0000
0000
,
3002
0000
0100
0000
0010
0000
0013
1000
,
0020
0000
0000
0230
0000
0000
0000
0000
,
0301
0000
2000
3001
,
1001
0000
0000
0100
0000
0010
0000
0200
0000
0000
0000
0000
0000
0000
0000
0000
,
1000
0010
0001
0010
,
1300
0000
0000
0010
0000
0100
0000
0002
0000
0000
0000
0000
0000
0000
0000
0000
,
0010
0100
1000
0100
,
0013
0000
0000
0100
0000
0010
0000
2000
0000
0000
0000
0000
0000
0000
0000
0000
,
0100
0010
0001
0010
,
3100
0000
0000
0010
0000
0001
0000
0200
0000
0000
0000
0000
0000
0000
0000
0000
,
1000
0010
0001
0010
,
1300
0000
0000
0100
0000
0010
0000
0200
0000
0000
0000
0000
0000
0000
0000
0000
,
0010
1000
0001
0010
,
0301
0000
0000
1000
0000
0100
0000
0020
0000
0000
0000
0000
0000
0000
0000
0000
,
1000
0100
0001
0100
,
0130
0000
0000
0100
0000
0010
0000
2000
0000
0000
0000
0000
0000
0000
0000
0000
,
0100
0100
0001
0001
,
3001
0000
0000
0100
0000
0010
0000
0002
0000
0000
0000
0000
0000
0000
0000
0000
,
0100
0010
0010
0100
,
1003
0000
0000
0100
0001
0000
0020
0000
0000
0000
0000
0000
1030
0000
0010
0000
,
0100
0020
0000
0000
0000
0000
1030
0001
,
0200
0000
0000
0320
0000
0000
2030
0000
0000
0000
0000
0000
0000
0000
0000
0000
,
3002
0000
0203
0000
,
0310
1000
0100
0010
0100
0001
1000
0000
,
0100
1000
0100
0010
1000
0001
0100
0000
,
0010
1000
0100
0001
0100
0010
0001
0000
,
0100
0001
1000
0010
0100
0001
0000
0000
;

//---------------dance-single - ----------------
#NOTES:
     dance-single:
     :
     Easy:
     5:
     0.271,0.320,0.023,0.396,0.000:
0000
0000
0000
0000
,
0000
0000
0000
0000
,
0000
0000
0000
0000
,
0000
0000
0000
0000
,
1000
0100
0001
0000
,
0001
0100
1000
0000
,
0010
1000
0001
0000
,
0010
0001
1000
0000
,
0100
1000
0001
0000
,
0100
0001
1000
0000
,
1000
0100
0010
0000
,
0100
0010
0001
0000
,
0001
1000
0002
0000
,
2003
0000
0001
0000
,
3001
0100
0002
0000
,
2003
0000
0001
0000
,
3010
0100
0020
0000
,
2030
0000
0000
0000
,
3002
0000
2000
3003
,
1001
0000
2000
0001
,
3001
0100
0010
1000
,
2000
3100
0002
0013
,
1000
0100
0001
0010
,
2000
3100
0200
0310
,
0001
0010
1000
0100
,
2000
3100
2000
3100
,
0010
0001
0100
0010
,
2000
3200
0320
0032
,
1003
0100
0010
0001
,
0002
0013
0200
1300
,
0001
0100
0010
1000
,
0002
0013
0020
0130
,
1000
0100
0010
1000
,
0002
0013
0002
0013
,
1000
0100
0010
0001
,
0002
0023
0230
2300
,
3100
0010
0100
0010
,
2000
0001
0000
0001
,
3001
0100
0010
0100
,
2002
0000
0000
3003
,
0100
0010
2000
0000
,
3010
0100
0002
0000
,
0013
0100
0020
0000
,
1030
0100
1000
0000
;

//---------------dance-single - ----------------
#NOTES:
     dance-single:
     :
     Beginner:
     1:
     0.073,0.098,0.023,0.113,0.000:
0000
0000
0000
0000
,
0000
0000
0000
0000
,
0000
0000
0000
0000
,
0000
0000
0000
0000
,
1000
0000
0000
0000
,
0010
0000
0000
0000
,
0001
0000
0000
0000
,
1000
0000
0000
0000
,
0100
0000
0000
0000
,
0010
0000
0000
0000
,
0001
0000
0000
0000
,
1000
0000
0000
0000
,
0100
0000
0000
0000
,
0020
0000
0000
0000
,
0130
0000
0000
0000
,
0001
0000
0000
0000
,
2000
0000
0000
0000
,
3001
0000
0000
0000
,
0010
0000
0000
0000
,
0100
0000
0000
0000
,
1001
0000
0000
0000
,
0002
0000
0000
0000
,
0003
0000
0000
0000
,
2000
0000
0000
0000
,
3000
0000
0000
0000
,
0200
0000
0000
0000
,
0300
0000
0000
0000
,
0020
0000
0000
0000
,
0030
0000
0000
0000
,
2000
0000
0000
0000
,
3000
0000
0000
0000
,
0002
0000
0000
0000
,
0003
0000
0000
0000
,
0200
0000
0000
0000
,
0300
0000
0000
0000
,
0020
0000
0000
0000
,
0030
0000
0000
0000
,
1000
0000
0000
0000
,
0100
0000
0000
0000
,
1001
0000
0000
0000
,
0010
0000
0000
0000
,
0010
0000
0000
0000
,
0100
0000
0000
0000
,
0100
0000
1000
0000
;
