#TITLE:すーぱー☆あふぇくしょん;
#SUBTITLE:カーニバル・ファンタズム OVA OP;
#ARTIST:カーニバル・ファンタズム;
#TITLETRANSLIT:Super Affection;
#SUBTITLETRANSLIT:Carnival Phantasm OVA OP;
#ARTISTTRANSLIT:Carnival Phantasm;
#GENRE:EXTRA VS OVERACTIVE -;
#CREDIT:;
#BANNER:Super Affection.png;
#BACKGROUND:Super Affection-bg.png;
#LYRICSPATH:;
#CDTITLE:cdtitle.png;
#MUSIC:Super Affection.mp3;
#MENUCOLOR:1,1,0,1;
#METERTYPE:DDR X;
#OFFSET:-0.372;
#SAMPLESTART:2.000;
#SAMPLELENGTH:12.000;
#SELECTABLE:YES;
#BPMS:0.000=184.000,136.000=92.000,152.000=184.000;
#STOPS:;
#BGCHANGES:;

//---------------dance-single - ----------------
#NOTES:
     dance-single:
     :
     Hard:
     14:
     0.731,0.883,0.447,0.325,0.254: // measure 1
0000
0000
0000
0000
,  // measure 2
0000
0000
0000
0000
,  // measure 3
0110
0000
1001
0000
0100
0000
0010
1000
,  // measure 4
0000
1000
0100
0010
0001
0000
0010
0100
,  // measure 5
0110
0110
1000
0100
,  // measure 6
0001
0010
0100
1000
0010
0000
0100
0010
,  // measure 7
0100
0000
1010
0000
0100
0010
0001
0100
,  // measure 8
0000
1000
0100
0010
0001
0000
0011
0000
,  // measure 9
0100
0010
0100
0100
,  // measure 10
0001
0010
0100
1000
0100
0010
0001
0000
,  // measure 11
0000
0000
1000
0001
1000
0000
2000
0000
0000
0000
3001
1000
0001
0000
0002
0000
,  // measure 12
0000
0000
0103
0010
0100
0000
0200
0000
0310
0000
0000
0000
0010
0000
0000
0000
,  // measure 13
0000
0000
1000
0001
1000
0000
2000
0000
0000
0000
3001
1000
0001
0000
0002
0000
,  // measure 14
0000
0000
1003
0001
1000
0000
2000
0000
3010
0000
0000
0000
0010
0000
0000
0000
,  // measure 15
0100
0000
0010
0100
0010
0000
0020
0000
0000
0000
0130
0010
0100
0000
0200
0000
,  // measure 16
0000
0000
0310
0100
0010
0000
0020
0000
1030
0000
0000
0000
1000
0000
0000
0000
,  // measure 17
0001
0000
0100
1000
0010
0000
0200
0000
0000
0000
1300
0001
0100
0000
0020
0000
,  // measure 18
0000
0000
0031
1000
0010
0000
0100
0000
1001
0000
0000
0000
1001
0000
0000
0000
,  // measure 19
1000
0000
0100
0000
0010
0100
0010
0100
,  // measure 20
0000
0010
0001
0000
0010
0100
1000
0100
,  // measure 21
0010
0000
0011
0000
0010
0100
0010
0002
,  // measure 22
0000
1000
0000
0103
0000
0010
0001
0100
,  // measure 23
0010
0000
1100
0000
0100
0010
0001
0100
,  // measure 24
0000
0010
0000
0000
0000
0010
1000
2000
,  // measure 25
0001
0000
0001
0000
0001
3001
2000
3001
,  // measure 26
0000
0000
1000
0000
0100
0000
0010
0000
0000
0000
0000
0000
0001
0000
1000
0001
,  // measure 27
1000
0000
0110
0000
1000
0100
0010
0001
,  // measure 28
0000
1000
0001
0000
1000
0010
0100
0010
,  // measure 29
0000
1000
0100
0000
0001
0010
0100
1000
,  // measure 30
0000
0010
0100
0010
0000
0100
0010
0000
,  // measure 31
2000
3200
0302
0023
0230
2300
3020
0032
,  // measure 32
2003
3200
0320
0031
0000
0100
0010
0100
,  // measure 33
0000
0000
1000
0000
0100
0000
0000
0000
0010
0100
0010
0000
1000
0001
1000
0000
,  // measure 34
0001
0000
0100
0010
0000
0100
0010
0000
,  // measure 35
1001
0000
0000
0100
0100
0000
0010
0000
1010
0000
0000
0100
0100
0000
0010
0000
,  // measure 36
0100
0001
0100
0020
0000
1030
0100
0000
0010
0001
0010
0200
0000
1300
0100
0000
,  // measure 37
0110
0000
0000
1000
1000
0000
0001
0000
0101
0000
0000
0010
0010
0000
1000
0000
,  // measure 38
0010
0000
0200
0000
0000
0000
0320
0000
0000
0000
0130
0000
0010
0000
0000
0000
1000
0000
0100
0000
0000
0000
0010
0000
0000
0000
0100
0000
0001
0100
0001
0100
,  // measure 39
0001
0000
0110
0000
1000
0100
0010
0001
,  // measure 40
0100
0000
0010
1000
0000
0100
0010
0000
,  // measure 41
1100
0000
0010
0100
0000
0010
0100
0000
,  // measure 42
0010
0010
0000
0100
0010
0000
0011
0000
,  // measure 43
0110
0000
1100
0000
0100
0010
0001
0200
,  // measure 44
0000
0310
0100
0000
0010
0100
0000
0000
,  // measure 45
1000
0001
1000
0000
0100
0010
0100
0000
0010
0100
0010
0000
0001
1000
0001
0000
,  // measure 46
0100
0010
0100
0010
0000
1000
0100
0010
,  // measure 47
0000
0000
0100
0000
0100
0000
0100
0000
0000
0000
0000
0000
0010
0100
0010
0100
,  // measure 48
0010
0000
0110
0000
1000
0000
0100
0010
,  // measure 49
0000
0001
0010
0100
1000
0000
0010
0100
,  // measure 50
0110
0110
1000
0100
,  // measure 51
0010
0001
0010
0100
1000
0000
0100
0010
,  // measure 52
0100
0000
0101
0000
1000
0100
0010
0001
,  // measure 53
0000
1000
0100
0010
0001
0000
0110
0000
,  // measure 54
1010
0110
0101
0011
,  // measure 55
1000
0000
1001
0000
1000
0000
1001
0000
1000
0001
1000
0001
1000
0001
1000
0001
,  // measure 56
1000
0000
0101
0000
0110
0000
0010
0100
,  // measure 57
0000
1000
0100
0010
0001
0010
0110
0010
,  // measure 58
0200
2300
3100
0110
,  // measure 59
0001
0010
0100
1000
0011
0000
0001
0100
,  // measure 60
0010
0000
1010
0000
0100
0010
0001
0100
,  // measure 61
0000
1000
0100
0010
0100
0000
0110
0000
,  // measure 62
1000
0010
0100
0000
0011
0000
1100
0000
,  // measure 63
1000
0100
0010
0001
0010
0100
1000
0100
,  // measure 64
1000
0000
0100
0001
0010
0000
0001
0000
0010
0000
0100
0010
0100
0000
0010
0000
,  // measure 65
1000
0000
0100
0001
0010
0000
0001
0000
0101
0000
0000
0000
0101
0000
0000
0000
,  // measure 66
1000
0000
0100
1000
0010
0000
0001
0000
0010
0000
0100
0010
0100
0000
0010
0000
,  // measure 67
1000
0000
0100
0001
0010
0000
0001
0000
0100
0000
0001
0000
1001
0000
1001
0000
;

//---------------dance-single - ----------------
#NOTES:
     dance-single:
     :
     Medium:
     11:
     0.537,0.713,0.091,0.102,0.102:
0000
0000
0000
0000
,
0000
0000
0000
0000
,
1001
0000
0010
0000
1000
0000
0001
1000
,
0000
0010
0100
0010
0100
0000
0001
1000
,
0001
0100
0010
1000
,
0002
0000
0003
1000
0001
0000
0100
0010
,
0100
0000
0010
0000
1000
0100
0001
0100
,
0000
0100
0010
0100
0010
0000
1000
0000
,
0100
0010
0001
0100
,
1000
0001
1000
0001
1000
0001
1000
0001
,
0000
0100
0010
0100
0000
0010
1000
0010
,
0000
0100
0001
0100
0001
0000
1001
0000
,
0000
0100
0010
0100
0000
0010
1000
0010
,
0000
0001
0100
0001
1000
0000
0101
0000
,
0000
1000
0100
0010
0000
0100
0010
0100
,
0000
0001
0100
0001
0100
0000
0101
0000
,
0000
1000
0010
1000
0000
0100
1000
0100
,
0000
0010
0100
0010
0100
0000
1001
0000
,
0100
0000
0010
0000
1000
0100
0010
0100
,
0000
0010
0000
0000
0000
1000
0001
2000
,
0000
0000
0000
0000
0000
3001
1000
0001
,
0000
0100
0000
0010
0000
1000
0001
1000
,
0000
0000
0010
0000
0100
0010
0100
0010
,
0000
1000
0000
0000
0000
0001
1000
0002
,
0000
0000
0000
0000
0003
1000
0001
1000
,
0000
0100
0010
0100
0000
0000
0010
0000
,
1000
0000
0100
0000
0010
0100
0010
0100
,
0000
0001
0100
0000
0000
1000
0010
1000
,
0000
0100
0010
0000
0001
0100
0001
0100
,
0000
0010
1000
0010
0000
0000
0000
0000
,
1000
0001
1000
0001
0100
0010
0100
0010
,
1000
0100
0010
0100
0000
0001
0100
0001
,
0000
1000
0001
0000
1000
0000
0001
0000
,
0100
0000
0010
1000
0000
0001
1000
0000
,
1001
0000
0000
0100
0010
0100
0010
0100
0000
0010
0000
0100
0000
0010
0000
0000
,
1000
0001
1000
0002
0000
0000
0000
0003
1000
0001
1000
0002
0000
0000
0000
0003
,
1000
0000
0000
0100
0010
0100
0010
0100
0000
0010
0000
1000
0000
0010
0000
0000
,
0100
0001
0000
2000
0000
0000
3000
0000
0001
1000
0000
0002
0000
0000
0000
0000
,
1003
0000
0000
1000
0001
1000
0001
1000
,
0001
1000
0000
0001
0000
0100
0000
0000
,
0010
0000
1000
0001
0000
1000
0001
0000
,
0001
1000
0000
0001
1000
0000
0001
0000
,
0100
0000
0000
0000
0010
0100
0000
0010
,
0000
1000
0001
0000
0100
0010
0000
0000
,
1000
0100
1000
0100
0010
0100
0010
0001
,
0010
0001
1000
0002
0000
0000
0000
0000
,
0003
1000
0000
0000
0000
0000
1000
0010
,
1000
0000
0110
0000
1000
0000
0010
0100
,
0000
1000
0010
0100
0010
0000
0100
0001
,
0100
0001
1000
0100
,
0020
0000
0000
0130
0001
0000
0100
0010
,
0100
0000
0101
0000
1000
0010
0100
0010
,
0000
0100
0010
0100
0010
0000
1000
0000
,
0100
0010
0001
0100
,
1000
0001
1000
0001
1000
0001
0100
0010
,
0100
0000
0010
0000
1000
0000
0001
0100
,
0000
0100
0010
0100
0010
0000
1000
0100
,
0010
0001
0100
0010
,
2000
0000
3000
0001
0100
0000
0001
1000
,
0001
0000
0100
0000
0010
0100
0010
0100
,
0000
1000
0100
0010
0100
0000
0010
0000
,
0001
1000
0001
0000
0100
0000
0010
0000
,
1000
0001
1000
0001
0100
0010
0100
0010
,
0000
1000
0001
1000
0000
0100
0001
0100
,
0000
0010
0100
0010
0100
0000
0001
0000
,
0000
1000
0001
1000
0000
0001
1000
0001
,
0000
1000
0001
1000
0001
1000
0001
1001
;

//---------------dance-single - ----------------
#NOTES:
     dance-single:
     :
     Easy:
     6:
     0.390,0.475,0.173,0.061,0.000:
0000
0000
0000
0000
,
0000
0000
0000
0000
,
1001
0000
0100
0010
,
0100
0010
1000
0001
,
1000
0001
0100
0010
,
2000
0000
3001
0100
,
0010
1000
0100
0010
,
0001
0100
0010
0001
,
1000
0001
1000
0010
,
1000
1000
0100
0100
,
0010
0001
1000
0001
,
0100
0010
1000
1001
,
0000
0100
0010
1000
,
0100
0010
0001
1001
,
0000
0100
0010
0001
,
1000
0100
0010
0110
,
0000
0001
1000
0100
,
0010
0100
0001
0100
,
1001
0100
0010
1000
,
0001
1000
0100
0010
,
2000
0000
0000
0000
0000
3001
0000
1000
,
0000
0001
0000
0100
0000
0010
0000
1000
,
0000
1000
0100
0010
,
0001
0100
0010
1000
,
0002
0000
0000
0000
0000
0000
0000
1003
,
0000
0100
0000
0001
0000
0000
0000
0000
,
0100
0010
1000
0100
,
0001
1000
0100
0010
,
0001
1000
0001
1000
,
0001
1000
0001
0000
,
1000
1000
0100
0100
,
0010
0010
0001
0001
,
1000
0001
1000
0001
,
1000
0010
0100
0001
,
1001
0000
0100
0010
0100
0000
0001
0000
,
1000
0000
0001
1000
0001
0000
0100
0100
,
0010
0000
1000
1000
0001
0000
0001
0001
,
1000
0000
1000
0100
0010
0001
1000
0100
,
0001
1000
0001
0100
,
0010
1000
0010
0001
,
1001
0000
0000
1001
0000
0000
1001
0000
,
0000
1001
0000
0000
1000
0000
0001
0000
,
1001
0000
0100
0010
,
1000
0100
0010
0001
,
1000
1000
0001
0001
,
1000
0001
1000
0002
0000
0000
0000
0000
,
0000
0000
0000
0000
,
1003
0100
0010
0001
,
1000
0100
0001
0001
,
0100
1000
0010
0001
,
2000
0000
3001
0100
,
0010
1001
0100
0010
,
0001
0100
0010
0110
,
1000
0100
0001
0100
,
1000
0010
1000
0001
,
1001
0000
0100
0010
,
1000
0100
0001
0100
,
0010
0001
0100
0001
,
2000
0000
3001
0100
,
0010
1001
0100
0010
,
0001
0100
0010
0110
,
1000
0100
0001
1000
,
0100
0010
0001
1000
,
0010
1000
0001
1000
,
0100
0010
1000
0001
,
0100
0010
0001
0100
,
0010
1000
0001
1001
;

//---------------dance-single - ----------------
#NOTES:
     dance-single:
     :
     Beginner:
     4:
     0.210,0.305,0.112,0.071,0.000:
0000
0000
0000
0000
,
0000
0000
0000
0000
,
1001
0000
1000
0000
,
0001
0001
0001
0000
,
1000
0000
0100
0000
,
0001
0001
0001
0000
,
0010
0000
0100
0000
,
1000
0000
1000
0000
,
0001
0000
0100
0000
,
1000
0000
1000
0000
,
0001
0000
0001
0000
,
1000
0000
1001
0000
,
0010
0000
0010
0000
,
0001
0000
1001
0000
,
0010
0000
0010
0000
,
0001
0000
0110
0000
,
1000
0000
1000
0000
,
0100
0000
0110
0000
,
1000
0000
0001
0000
,
0010
0000
0000
0000
,
0001
0000
1000
0000
,
0010
0000
0000
0000
,
1000
0000
1000
0000
,
0001
0000
0000
0000
,
2000
0000
0000
0000
,
3001
0000
0000
0000
,
0001
0000
0001
0000
,
1000
0000
0000
0000
,
0100
0000
0010
0000
,
0100
0000
0000
0000
,
1000
0000
1000
0000
,
1000
0000
0000
0000
,
0001
0000
1000
0000
,
0001
0000
0000
0000
,
1001
0000
0010
0000
,
0010
0000
0100
0000
,
1001
0000
0010
0000
,
0010
0000
0200
0000
,
0310
0000
0000
1000
,
1000
0000
0000
0001
,
0001
0000
0000
0100
,
0100
0000
0010
0010
,
0010
0000
1000
0000
,
1000
0000
0001
0000
,
2000
0000
3200
0000
,
0320
0000
0032
0000
,
1003
0000
0000
0000
,
1001
0000
0100
0000
,
0010
0010
0010
0000
,
0001
0000
1000
0000
,
0100
0100
0100
0000
,
0001
0000
1000
0000
,
1000
1000
1000
0000
,
1001
0000
1000
0000
,
0001
1000
0001
1000
,
0001
0000
0001
0000
,
0001
0000
0000
0000
,
1000
0000
0010
0000
,
0002
0000
1003
0000
,
1000
0000
1000
0000
,
0010
0000
0010
0000
,
0001
0000
0001
0000
,
1000
0000
0001
0000
,
0001
0000
0001
0000
,
0010
0000
1001
0000
,
0001
0000
0100
0000
,
0010
0000
0000
1001
;
