#TITLE:Sparkling Daydream;
#SUBTITLE:中二病でも恋がしたい! OP;
#ARTIST:ZAQ;
#TITLETRANSLIT:;
#SUBTITLETRANSLIT:Chuunibyou demo Koi ga Shitai! OP;
#ARTISTTRANSLIT:;
#GENRE:ANIMATION BEAT#1;
#CREDIT:;
#BANNER:Sparkling Daydream.png;
#BACKGROUND:Sparkling Daydream-bg.png;
#LYRICSPATH:;
#CDTITLE:cdtitle.png;
#MUSIC:Sparkling Daydream.mp3;
#MENUCOLOR:0,0,1,1;
#METERTYPE:DDR X;
#OFFSET:0.273;
#SAMPLESTART:58.635;
#SAMPLELENGTH:12.000;
#SELECTABLE:YES;
#BPMS:0.000=175.000;
#STOPS:;
#BGCHANGES:;

//---------------dance-single - ----------------
#NOTES:
     dance-single:
     :
     Hard:
     13:
     0.691,0.712,0.333,0.581,0.016: // measure 1
0000
0000
0000
0000
,  // measure 2
0000
0000
0000
0000
,  // measure 3
0000
0000
0000
0000
0000
0000
0000
0001
,  // measure 4
0000
0000
1001
0000
0100
0010
1000
0000
,  // measure 5
0100
0010
0200
0000
0301
0000
1000
0000
,  // measure 6
0100
0010
0100
0001
0020
0000
2030
0000
,  // measure 7
3200
0000
0320
0000
2030
0000
3010
0100
,  // measure 8
0020
0032
0023
0230
,  // measure 9
2300
0000
3200
0000
0320
0000
0031
1000
,  // measure 10
0002
0203
0320
0032
,  // measure 11
2003
0000
3200
0000
0310
0110
0000
0000
,  // measure 12
0101
0000
1000
0010
0100
0020
0000
2030
,  // measure 13
0000
0000
3001
0100
0020
0000
1030
0200
,  // measure 14
0000
0302
0000
1003
0000
0010
1000
0100
,  // measure 15
0010
0000
1000
0100
0001
0010
0100
0010
,  // measure 16
0001
0000
0100
0001
0100
0002
0000
2003
,  // measure 17
0000
3100
0020
0000
0031
0000
0100
0000
,  // measure 18
2002
0000
0000
0000
,  // measure 19
3003
0000
1000
0001
1000
0001
1000
0001
,  // measure 20
0000
0000
1001
0000
0100
0010
0100
0010
,  // measure 21
1000
0000
0100
0010
0100
1000
0100
0002
,  // measure 22
0000
2003
0000
3020
0000
0130
0010
0100
,  // measure 23
0010
0000
0001
0100
0010
1000
0100
0010
,  // measure 24
0001
0000
0200
0000
0301
1000
0100
0020
,  // measure 25
0000
1030
0100
0001
0200
0000
1300
0010
,  // measure 26
1000
0000
0010
0200
0000
0320
0000
1030
,  // measure 27
0100
0000
0010
0000
1000
0100
0010
0000
,  // measure 28
0101
0000
0001
1000
0001
0000
0100
0000
,  // measure 29
0010
0000
1000
0100
0010
0000
0100
0001
,  // measure 30
0200
0000
0310
0000
1000
0100
0010
0001
,  // measure 31
0200
0000
0310
0000
1000
0000
0100
0010
,  // measure 32
0200
0000
1300
0100
0000
0010
0001
0100
,  // measure 33
0010
0000
1000
0100
0001
0000
0100
1000
,  // measure 34
0020
0000
1030
0010
0000
1000
0100
0001
,  // measure 35
0200
0010
0010
0001
,  // measure 36
0301
0000
1000
0100
0010
0000
1000
0001
,  // measure 37
0100
0010
0001
0200
0000
0310
1000
0000
,  // measure 38
0100
0000
0001
0100
1000
0000
1000
0010
,  // measure 39
0001
0000
0100
0001
2000
0000
3010
0000
,  // measure 40
0101
0000
0100
0010
0100
0010
1000
0000
,  // measure 41
0001
0100
0010
1000
0100
0010
0001
0000
,  // measure 42
0101
1000
0010
0001
,  // measure 43
1000
0001
1000
0001
1000
0000
0000
0000
0000
0000
1001
0000
1001
0000
0000
0000
,  // measure 44
1000
0100
0010
0200
0000
0310
1000
0100
,  // measure 45
0001
0100
0010
0002
0000
0003
0100
0010
,  // measure 46
2000
0000
3010
0000
0100
0010
0100
0000
,  // measure 47
1000
0000
0100
0000
0010
0000
0001
0000
1100
0000
0000
0110
0000
0000
0011
0000
,  // measure 48
0001
0000
0100
0001
1000
0100
0010
0001
,  // measure 49
0200
0000
0310
1000
0100
0010
0001
0100
,  // measure 50
0010
0000
0001
0010
0100
0000
1000
0100
,  // measure 51
0001
0100
1000
0010
0001
0010
2000
0000
,  // measure 52
3100
0010
0100
0010
0000
0100
0001
0010
,  // measure 53
0100
1000
0010
0002
0000
0003
1000
0001
,  // measure 54
1000
0001
1000
0010
0100
0010
0001
0000
,  // measure 55
0100
0010
1000
0100
0010
0001
0100
0000
,  // measure 56
1000
0010
0011
0100
0001
0100
1100
0100
,  // measure 57
0010
0100
0110
0001
0010
0001
0011
0000
,  // measure 58
0100
0001
0101
1000
0100
0010
0110
1000
,  // measure 59
0100
0010
0011
0100
0010
0100
0110
0000
,  // measure 60
2000
0000
3010
0100
0020
0000
0031
0000
,  // measure 61
0010
0000
0110
0000
1000
0100
0010
0001
,  // measure 62
0101
0000
1000
0100
0010
0001
0100
0010
,  // measure 63
0100
0001
0100
0000
1000
0100
0010
0001
,  // measure 64
1001
0100
0010
0110
1000
0100
1100
0100
,  // measure 65
0010
0011
0100
0001
0101
0101
1001
2002
,  // measure 66
0000
0000
0000
0000
,  // measure 67
0000
3003
0000
0000
;

//---------------dance-single - ----------------
#NOTES:
     dance-single:
     :
     Challenge:
     15:
     0.865,0.962,0.591,0.161,0.312:
0000
0000
0000
0000
,
0000
0000
0000
0000
,
0000
0000
0000
0000
0000
0000
0000
0110
,
0000
0000
0000
0000
1001
0000
0000
0000
0100
0000
0010
0000
0001
0000
0010
1000
,
0200
0000
0310
1000
0100
0001
0010
0110
,
2000
0000
0000
0000
3010
0000
0100
0000
0001
0000
0010
0000
0100
0000
0000
0001
,
0100
0010
0100
0001
1000
0100
0010
0012
,
0000
0000
1003
0000
0100
0000
0010
0000
0001
0000
0100
0000
1000
0001
1000
0001
,
0010
0010
0100
1000
0001
0010
0100
2100
,
0000
3010
0100
0010
0001
0010
0100
1000
,
0100
0010
0001
0100
1001
1001
0000
0000
,
2000
0000
3010
0100
0010
0200
0000
0310
,
1000
0200
0000
0301
0010
0100
0010
1000
,
0200
0000
0310
0100
0010
1000
0100
0001
,
0020
0000
0130
1000
0100
0001
0010
0100
,
0010
0000
0001
0100
1000
0010
0100
0020
,
0000
1030
0100
0001
0100
0010
0100
0000
,
2002
0000
0000
0000
,
3003
0000
0000
0000
1001
0000
1000
0000
0001
1000
0001
0000
1000
0000
0001
0000
,
0000
0000
0000
0000
0101
0000
0100
0000
0001
0000
1000
0000
0100
0010
0100
0010
,
0001
0000
0100
0000
0010
0000
0001
0010
0100
0000
0100
0000
0001
0000
0100
0000
,
1000
0000
0100
0000
0010
0000
0001
0000
0010
0000
0100
0000
1000
0010
1000
0010
,
0100
0000
0000
0000
0100
0000
0000
0010
1000
0000
0100
0000
0010
0000
0001
0000
,
0100
0000
0000
0000
0100
0000
0010
0000
1000
0000
0100
0000
0010
0000
0001
1000
,
0010
0100
1000
0010
0001
0000
0001
0100
,
1100
0100
0010
0001
0100
1000
0100
0010
,
0002
0000
1003
0001
0100
0001
1000
0000
,
0110
0000
0000
0000
1000
0001
0100
0000
0001
0000
0100
0000
0001
0000
0000
0000
,
1000
0000
0100
0000
0010
1000
0001
0000
0100
0000
0010
0000
0100
0000
0000
0000
,
1000
0000
0001
0000
0100
0001
1000
0000
0010
0000
0001
0000
1000
0000
0010
0000
,
1000
0000
0000
0000
0010
0100
0010
0000
0010
0000
0000
0000
1000
0000
0100
0000
,
0011
0100
0010
0100
0000
1100
0010
0001
,
0100
0000
0000
0001
0100
0000
0010
0000
1000
0000
0000
0000
1000
0000
0100
0000
,
0010
0001
0100
0010
0100
0001
0010
0100
,
1000
0000
0000
0000
0100
0000
0010
0000
0100
0000
0001
0000
0100
0001
0010
0000
,
1001
0000
0100
0010
0100
0010
1000
0100
,
0001
0100
1000
0010
1000
0010
1000
0000
,
1000
0001
0100
0010
0100
0000
0010
0001
,
0010
0100
1000
0100
0001
0100
0010
0000
,
1100
0100
0010
0001
0100
0100
0100
0010
,
0001
0001
0100
0100
0010
0010
0001
0001
,
1100
1000
0100
0010
0001
0100
0010
1000
,
0001
0010
0100
1000
0001
0000
0000
0000
0000
0000
1001
0000
1001
0000
0000
0000
,
1001
0000
0100
0000
0010
1000
0001
0000
0100
0000
0010
0000
0001
0000
0010
0000
,
0100
0000
0010
0001
0100
0000
1100
0000
0000
0000
0100
0000
0010
0000
0100
0000
,
0010
0001
1000
0000
0100
1000
0010
0000
0001
1000
0010
0001
0100
0000
1000
0000
,
0100
0000
0010
0000
0011
0000
0011
0000
0101
0000
0000
0101
0000
0000
1001
0000
,
1001
0000
0000
0001
0100
0000
0010
0000
0100
0010
0100
0010
1000
0000
0100
0010
,
0100
0010
0001
0000
0100
0000
0001
0000
1000
0000
0010
0000
0100
0000
0010
0000
,
0110
0000
1100
0100
0011
0010
0100
0010
,
0001
0000
0010
0000
0100
0000
1000
0000
0100
0001
0010
0000
0101
0000
0000
0000
,
0101
0000
1000
0000
0100
1000
0010
0000
0100
0000
0010
0000
0001
0000
0010
0000
,
0100
0010
0100
1000
0010
0000
0011
0000
1000
0000
0000
0000
0100
0000
0010
0000
,
0100
0000
0001
0100
1000
0000
0100
0001
0010
0000
0001
1000
0100
0000
0010
0000
,
1000
0001
1000
0100
0010
0000
0100
0000
0010
1000
0001
0010
0100
1000
0010
0000
,
1000
0100
0010
0000
0011
0000
0100
0010
0001
0000
0100
0000
1100
0000
0100
1000
,
0010
0000
0001
0000
0110
0000
1000
0010
0001
0000
1001
0000
0110
0000
0000
0000
,
0010
1000
0100
0000
0110
0000
0010
1000
0010
0000
0100
0000
0110
0000
0001
0010
,
0100
0000
0010
0000
0101
0000
1000
0010
0100
0000
0010
0000
0101
0000
0000
0000
,
1001
0100
0010
0100
0001
0010
0100
0010
,
0110
0000
0000
0000
1100
0000
0000
0000
0110
0000
0010
0000
0001
1000
0010
0000
,
0110
1000
0100
0001
0100
1000
0100
0010
,
0001
0000
0010
0000
1000
0000
0100
0000
0010
0000
0001
1000
0100
0000
0010
0000
,
0011
0000
0100
1000
0001
0000
1100
0000
1000
0100
0001
0000
0101
0000
0010
1000
,
0001
0000
0110
0000
0001
0010
1000
0000
1100
0000
0011
0000
1100
0000
0202
0000
,
0000
0000
0000
0000
,
0000
0000
0000
0000
0000
0000
0000
0000
0000
0000
0000
0000
0000
0000
0000
0000
0000
0000
0000
0000
0000
0000
0000
0000
0000
0000
0000
0000
0000
0000
0000
0000
0000
0000
0000
0000
0000
0000
0000
0000
0000
0000
0000
0000
0000
0000
0000
0000
0003
0300
0000
0000
0000
0000
0000
0000
0000
0000
0000
0000
0000
0000
0000
0000
0000
0000
0000
0000
0000
0000
0000
0000
0000
0000
0000
0000
0000
0000
0000
0000
0000
0000
0000
0000
0000
0000
0000
0000
0000
0000
0000
0000
0000
0000
0000
0000
0000
0000
0000
0000
0000
0000
0000
0000
0000
0000
0000
0000
0000
0000
0000
0000
0000
0000
0000
0000
0000
0000
0000
0000
0000
0000
0000
0000
0000
0000
0000
0000
0000
0000
0000
0000
0000
0000
0000
0000
0000
0000
0000
0000
0000
0000
0000
0000
0000
0000
0000
0000
0000
0000
0000
0000
0000
0000
0000
0000
0000
0000
0000
0000
0000
0000
0000
0000
0000
0000
0000
0000
0000
0000
0000
0000
0000
0000
0000
0000
0000
0000
0000
0000
0000
0000
0000
0000
0000
0000
0000
0000
0000
0000
0000
0000
;

//---------------dance-single - ----------------
#NOTES:
     dance-single:
     :
     Medium:
     10:
     0.547,0.570,0.129,0.215,0.005:
0000
0000
0000
0000
,
0000
0000
0000
0000
,
0000
0000
0000
0000
0000
0000
0000
0001
,
0000
0000
1001
0000
0100
0010
0100
0000
,
0020
0000
1030
0000
0100
0001
0100
0000
,
0020
0000
1030
0002
0000
0000
1000
0000
,
1000
0000
0010
0000
0010
0000
0103
0010
,
0200
0010
0010
1000
,
1000
0000
0010
0000
0010
0000
0310
1000
,
0020
0100
0001
0001
,
0100
0000
0100
0000
1030
0001
0000
0000
,
0100
0000
0010
0100
0001
1000
0000
0010
,
0000
0000
0100
0010
0100
0000
0010
2000
,
0000
3010
0000
0100
0000
0010
0100
0010
,
0000
0000
0100
0010
0100
1000
0100
0010
,
0001
0000
0100
0010
0100
0010
0000
1000
,
0000
1000
0100
0000
0010
0000
0000
0000
,
2000
0000
0000
0000
,
3001
0000
0000
0100
0010
0100
0010
0100
,
0000
0000
1010
0000
0100
0010
0100
0010
,
0100
0000
1000
0100
0010
0100
0001
0020
,
0000
0130
0000
0010
0000
1000
0100
0001
,
0000
0000
0100
0010
1000
0100
0010
0100
,
0010
0000
0100
0000
0000
0010
0100
0010
,
0000
0001
0010
0100
1000
0000
0100
0010
,
0100
0000
1000
0100
0000
0001
0100
2000
,
0000
0000
3010
0000
0100
0010
0100
0000
,
2000
0000
3010
0100
0010
0000
0100
0000
,
0002
0000
1003
0001
0100
0000
0010
0100
,
0020
0000
1030
0000
0100
0000
0010
0200
,
0000
0000
0010
0000
0010
0000
0310
1000
,
0010
0000
0100
0010
0000
0100
0001
0100
,
0000
0000
0010
0000
0010
0000
1000
0010
,
0100
0000
0100
0010
0000
0001
0010
0100
,
1000
0000
0100
0000
0010
0100
0010
0000
,
1001
0000
0100
0010
0100
0000
0001
0010
,
0100
1000
0100
0010
0000
0100
0010
0000
,
0100
0000
0001
0100
0001
0000
0100
0010
,
1000
0000
0100
0010
0100
0000
0100
0000
,
0020
0000
1030
0100
0010
0000
0200
0000
,
0301
0000
1000
0000
0010
0100
0010
0000
,
2000
0001
0010
0010
,
3001
1000
0001
0000
0000
1000
0001
0000
,
1000
0001
1000
0001
0000
0100
0000
0010
,
0100
0010
0100
0010
0000
0000
1000
0100
,
0010
0000
0001
0000
0100
0010
0100
0000
,
1000
0000
0100
0000
0010
0000
0001
0000
1100
0000
0000
0110
0000
0000
0011
0000
,
0000
0000
0100
0001
0100
0000
1000
0100
,
0010
0000
0100
0010
0000
0100
0001
0100
,
0001
0000
1000
0100
0010
0000
0001
0100
,
0010
1000
0100
0010
0000
0001
0000
0000
,
0100
0001
0100
0001
0000
1000
0100
0010
,
0100
0010
0100
0010
0000
0000
0000
0001
,
0100
0100
1000
0100
,
0010
0100
0010
0100
0000
0010
0100
0000
,
1000
0100
0010
0100
0000
0100
0010
0100
,
0000
0100
0010
0001
0010
0100
0010
0000
,
0010
0100
0010
0100
0000
1000
0100
0001
,
0000
0100
0001
0100
0001
1000
0000
0000
,
0100
0000
0100
0010
0100
0000
1000
0000
,
0100
0000
0110
0000
1000
0001
1000
0001
,
2000
0001
0001
0001
,
3002
0000
1000
0000
1000
0000
1000
0003
,
1001
0000
0100
0110
0000
0001
1001
0000
,
1000
1001
0000
0000
1000
0100
0010
2002
,
0000
0000
0000
0000
,
0000
0000
0000
0000
0000
0000
0000
0000
0000
0000
0000
0000
0000
0000
0000
0000
0000
0000
0000
0000
0000
0000
0000
0000
0000
0000
0000
0000
0000
0000
0000
0000
0000
0000
0000
0000
0000
0000
0000
0000
0000
0000
0000
0000
0000
0000
0000
0000
0000
3003
0000
0000
0000
0000
0000
0000
0000
0000
0000
0000
0000
0000
0000
0000
0000
0000
0000
0000
0000
0000
0000
0000
0000
0000
0000
0000
0000
0000
0000
0000
0000
0000
0000
0000
0000
0000
0000
0000
0000
0000
0000
0000
0000
0000
0000
0000
0000
0000
0000
0000
0000
0000
0000
0000
0000
0000
0000
0000
0000
0000
0000
0000
0000
0000
0000
0000
0000
0000
0000
0000
0000
0000
0000
0000
0000
0000
0000
0000
0000
0000
0000
0000
0000
0000
0000
0000
0000
0000
0000
0000
0000
0000
0000
0000
0000
0000
0000
0000
0000
0000
0000
0000
0000
0000
0000
0000
0000
0000
0000
0000
0000
0000
0000
0000
0000
0000
0000
0000
0000
0000
0000
0000
0000
0000
0000
0000
0000
0000
0000
0000
0000
0000
0000
0000
0000
0000
0000
0000
0000
0000
0000
0000
;

//---------------dance-single - ----------------
#NOTES:
     dance-single:
     :
     Easy:
     7:
     0.406,0.392,0.086,0.172,0.000:
0000
0000
0000
0000
,
0000
0000
0000
0000
,
0000
0000
0000
0000
0000
0000
0000
0001
,
0000
1001
0100
0010
,
2000
0000
3001
0000
0100
0010
0100
0000
,
0020
0000
1030
0002
0000
0000
0100
0000
,
0000
0000
0010
0000
0000
0000
1003
0002
,
0000
0100
0000
0010
,
0000
0000
1000
0000
0000
0000
0013
0200
,
0000
0010
0000
1000
,
0000
0000
0301
0000
1000
0001
0000
0000
,
0100
0010
0100
0010
,
1000
0000
0001
0000
1000
0000
0100
0010
,
0000
1000
0000
0100
0000
0010
0000
0001
,
0000
0000
0100
0000
0010
0000
1000
0001
,
1000
0010
0100
0001
,
1000
0001
1000
0000
0010
0000
0100
0000
,
2000
0000
0000
0000
,
3001
0000
0000
0100
0000
0010
0100
0000
,
0000
0000
0010
0000
1000
0000
0010
1000
,
0000
0000
0010
0000
0100
0000
0010
0100
,
0000
1000
0000
0100
0000
0010
0100
0010
,
0000
0000
0100
0000
0001
0000
1000
0001
,
1000
0010
0100
0001
,
1000
0000
0010
0100
0010
0000
1000
0000
,
0001
0100
0010
1000
,
0001
0000
0100
0010
,
2000
0000
3001
0100
,
0020
0000
0031
0100
,
0010
1000
0001
1000
,
0002
0000
1003
0100
,
0200
0000
0000
0310
0000
1000
0000
0000
,
0100
0010
0100
0010
,
0020
0130
1000
0100
,
0001
0100
0010
0000
,
1001
0100
0010
0001
,
1000
0001
1000
0000
0010
0000
0100
0000
,
0010
0000
1000
0001
1000
0000
0010
0000
,
0001
1000
0001
1000
,
0001
1000
0001
0000
0100
0000
0010
0000
,
0100
0010
0100
0000
0001
1000
0001
0000
,
2000
0000
0000
0000
0001
0000
0001
3000
,
0001
1000
0001
0000
0000
0000
0100
0000
,
0010
1000
0010
1000
0000
0100
0000
0000
,
0010
0000
0100
0010
0000
0000
0100
0000
,
0010
0000
1000
0000
1000
0001
1000
0000
,
0010
0100
0001
1000
,
0001
0000
1000
0000
0001
0000
1000
0001
,
1000
0010
0100
0010
,
1000
0000
0100
0010
0100
0000
0010
0000
,
1000
0001
1000
0010
0000
0100
0000
0000
,
0010
0000
0100
0010
0000
1000
0000
0000
,
0001
1000
0001
1000
0000
0000
0010
0000
,
0100
1000
0100
0010
,
0001
0000
1000
0100
0000
0001
0000
0000
,
0001
0000
0100
1000
0000
0000
1000
0000
,
0100
0000
0001
0000
0100
1000
0000
0000
,
1000
0100
0010
0001
,
0010
0000
1000
0000
0010
0001
0000
0000
,
2000
0000
3001
0100
,
0001
0000
0100
0010
,
2000
0000
0000
0000
,
3001
0100
0010
0001
,
1001
0000
0000
1001
0000
0000
1001
0000
,
0000
1001
0000
0000
1001
0000
0000
2002
,
0000
0000
0000
0000
,
0000
3003
0000
0000
;

//---------------dance-single - ----------------
#NOTES:
     dance-single:
     :
     Beginner:
     3:
     0.180,0.214,0.161,0.054,0.000:
0000
0000
0000
0000
,
0000
0000
0000
0000
,
0000
0000
0000
0000
,
0000
1001
0000
1000
,
0001
0000
0100
0010
,
0100
0000
0000
1000
,
0001
0000
0000
0000
,
1001
0000
0100
0000
,
0010
0000
0000
0000
,
1001
0000
1000
0000
,
0001
0000
1000
0000
,
0001
0000
1000
0000
,
0100
0000
0010
0000
,
0001
0000
1000
0000
,
0001
0000
0100
0000
,
0010
0000
0010
0000
,
0001
0000
0001
0000
,
2000
0000
0000
0000
,
3000
0000
1000
0001
,
0000
1001
0000
1000
,
0000
0001
0000
0001
,
0000
1000
0000
0100
,
0000
0000
0010
0000
,
0010
0000
0000
1000
,
1000
0000
1000
0000
,
0001
0000
0000
0000
,
0001
0000
0000
0000
,
0100
0000
0100
0000
,
0010
0000
0010
0000
,
1000
0000
1000
0000
,
1000
0000
0000
0000
,
1001
0000
0000
0000
,
0001
0000
0000
0000
,
1001
0000
0000
0000
,
1000
0000
0000
0000
,
0110
0000
0010
0000
,
0010
0000
0000
0000
,
1000
0000
1000
0000
,
1000
0000
0000
0000
,
0002
0000
0000
0000
,
0003
0000
0000
0000
,
2000
0000
0000
0000
,
3001
0000
0000
1001
,
0000
1000
0000
0001
,
0000
0001
0000
0000
,
1000
0000
0100
0000
,
0100
0000
0110
0000
,
0000
0000
0000
0000
,
0001
0000
0001
0000
,
0001
0000
1000
0000
,
1000
0000
0000
0000
,
1001
0000
0001
0000
,
0001
0000
0000
0000
,
0100
0000
0100
0000
,
1000
0000
1000
0000
,
0001
0000
0000
0001
,
0000
0001
0000
0000
,
1000
0000
0000
1000
,
0000
0000
1000
0000
,
1000
0000
0000
0000
,
0110
0000
0000
0000
,
1001
0000
0000
0000
,
0100
0000
0010
0000
,
1001
0000
0000
0000
,
0000
0000
1001
0000
,
2002
0000
0000
0000
,
0000
3003
0000
0000
;
