#TITLE:SAVIOR OF SONG;
#SUBTITLE:蒼き鋼のアルペジオ -アルス・ノヴァ- OP;
#ARTIST:ナノ feat. MY FIRST STORY;
#TITLETRANSLIT:SAVIOR OF SONG;
#SUBTITLETRANSLIT:Aoki Hagane no Arpeggio -Ars Nova-;
#ARTISTTRANSLIT:Nano feat. MY FIRST STORY;
#GENRE:NOVA ROCK;
#CREDIT:;
#BANNER:SAVIOR OF SONG.png;
#BACKGROUND:SAVIOR OF SONG-bg.png;
#LYRICSPATH:;
#CDTITLE:cdtitle.png;
#MUSIC:SAVIOR OF SONG.mp3;
#MENUCOLOR:1,0.625,0,1;
#METERTYPE:DDR X;
#OFFSET:-0.273;
#SAMPLESTART:45.693;
#SAMPLELENGTH:12.000;
#SELECTABLE:YES;
#BPMS:0.000=192.000,24.000=96.000,28.000=384.000,92.000=96.000,96.000=192,128.000=384,184.000=192,195.000=384,451.000=24.000;
#STOPS:179.000=0.156
,184.000=0.625
;
#DISPLAYBPM:96:384;
#BGCHANGES:;

//---------------dance-single - ----------------
#NOTES:
     dance-single:
     :
     Challenge:
     18:
     1.000,1.000,0.702,0.487,0.119: // measure 1
0000
0000
0000
0000
,  // measure 2
0000
0000
0000
0000
,  // measure 3
0000
0000
0000
0000
,  // measure 4
0000
0000
0000
0000
,  // measure 5
0000
0000
0000
0000
,  // measure 6
0000
0000
0000
0000
,  // measure 7
0000
0000
0000
0000
0000
0000
0000
0000
0000
0000
0000
0000
0000
0000
0000
0000
0000
0000
0000
0000
0000
0000
0000
0000
1000
0100
0010
0001
0100
0010
1000
0000
,  // measure 8
0000
0000
0001
0010
0100
0010
0001
0010
,  // measure 9
0200
0000
1000
0000
0000
0000
0320
0001
,  // measure 10
0000
0000
0032
0100
0000
0000
0203
0010
,  // measure 11
0000
0000
0310
1000
0100
0000
1100
0000
,  // measure 12
0000
0000
1000
0100
0010
0100
1000
0100
,  // measure 13
0020
0000
0001
0000
0000
0000
0230
1000
,  // measure 14
0000
0000
0010
0301
1000
0000
0101
0000
,  // measure 15
0101
1100
1001
0101
,  // measure 16
0000
0000
0100
0001
1000
0001
0100
0001
,  // measure 17
2000
0000
0001
0000
0000
0000
3020
0100
,  // measure 18
0000
0000
2030
0100
0000
0000
3002
0010
,  // measure 19
0000
0103
0010
0001
,  // measure 20
0000
0000
0010
1000
0001
1000
0010
1000
,  // measure 21
0002
0100
0100
0103
,  // measure 22
0001
1000
0001
0000
1000
0001
1000
0000
,  // measure 23
1000
0100
0001
1000
0010
0001
1000
0100
,  // measure 24
2000
0000
0000
0000
0001
0100
3002
0000
0000
0000
1000
0010
2003
0000
0000
0000
0100
3020
0001
0000
0000
0000
0001
0130
1000
0000
1000
0100
0002
0000
0100
0000
,  // measure 25
2003
0000
0100
3002
0000
1000
0203
0000
,  // measure 26
0001
0320
0000
0001
0032
0000
2003
0000
,  // measure 27
3200
0000
0010
0320
0000
0001
0032
0000
,  // measure 28
1000
0000
2003
0000
0000
0000
0000
0000
3001
1000
0010
0000
0100
0000
0000
0000
,  // measure 29
0100
0010
0001
0010
0100
0001
2000
0100
,  // measure 30
0010
3001
0001
0100
,  // measure 31
1000
0000
0000
0000
0100
0020
0100
0000
0000
0000
0001
0230
0001
0000
0000
0000
,  // measure 32
1000
0302
1000
0000
0000
0000
0010
1003
0010
0000
0200
0000
0010
0000
0310
0000
,  // measure 33
1001
0000
0001
0000
1000
0100
1000
0000
,  // measure 34
0100
0000
0001
0100
0010
0000
1000
0000
,  // measure 35
0002
0000
0000
0000
0103
1000
0020
0000
,  // measure 36
0000
0000
1030
0100
0002
0000
0000
0000
,  // measure 37
0103
0000
1000
0001
0100
0001
0010
0000
,  // measure 38
1000
0000
0100
0000
0001
0000
0010
0001
,  // measure 39
1000
0000
0001
0000
0010
1000
0100
0010
,  // measure 40
0001
1000
0001
0010
0100
0000
0001
0000
,  // measure 41
0100
0000
0001
0000
0001
1000
0100
1000
,  // measure 42
0010
1000
0100
0010
,  // measure 43
0001
1000
0100
0001
0010
0100
1000
0000
,  // measure 44
0000
0000
0100
1000
0010
0100
0001
0000
,  // measure 45
1100
0101
0011
1010
,  // measure 46
0000
1001
0110
0011
,  // measure 47
1100
0000
0000
2000
0100
0010
3002
0010
,  // measure 48
0100
2003
0100
0001
3020
0100
1000
1030
,  // measure 49
0100
0010
0000
0010
0000
0000
1001
0000
,  // measure 50
0001
0000
0100
0000
0010
0000
0010
1000
,  // measure 51
0100
0010
0011
1100
,  // measure 52
0010
0000
0100
0001
0100
0000
1000
0000
,  // measure 53
0100
0000
0001
0010
1000
0000
0011
0000
,  // measure 54
0110
0000
1010
0000
1001
0000
0010
1000
,  // measure 55
0001
0110
1010
0110
,  // measure 56
0001
0000
1000
0001
0010
0000
0101
0000
,  // measure 57
1001
0000
0100
0001
1000
0001
0100
0000
,  // measure 58
0110
0000
0100
0001
1000
0000
0100
1000
,  // measure 59
0010
0100
0001
0000
0100
0001
0010
0000
,  // measure 60
0100
1000
0010
0100
0010
0000
0001
0000
,  // measure 61
0010
0100
1000
0001
,  // measure 62
1100
0000
0000
1000
0100
0000
0010
0001
,  // measure 63
0100
0010
1000
0100
0010
0000
1001
0000
,  // measure 64
0000
0001
1000
0000
0001
0100
1000
0010
,  // measure 65
0100
0001
0100
1000
0001
0010
1000
0000
,  // measure 66
0010
0000
0001
0000
0010
1000
0100
0000
,  // measure 67
0100
0000
0001
0000
0100
1000
0001
0000
,  // measure 68
0101
0100
0001
0010
,  // measure 69
0100
0000
1000
0001
0100
0000
0110
0000
,  // measure 70
0001
0000
0100
0001
1000
0000
0100
0010
,  // measure 71
0001
0000
0010
0001
0100
0000
1001
0000
,  // measure 72
0010
0000
0110
0000
0010
1000
0001
1000
,  // measure 73
0100
1000
0010
0000
0101
0000
1000
0000
,  // measure 74
0100
0000
0010
0000
0001
1000
0010
0000
,  // measure 75
0100
0000
1000
0000
0100
1000
0010
0100
,  // measure 76
0001
0000
0100
0000
0010
0000
1000
0010
,  // measure 77
0100
0010
0001
0000
1000
0000
1000
0100
,  // measure 78
1000
0000
1000
0100
1000
0000
0001
0010
,  // measure 79
0001
0000
0001
0010
0001
0000
0100
0010
,  // measure 80
0100
0000
0010
0100
0010
0000
1000
0100
,  // measure 81
0001
1000
0010
0001
1000
0100
0001
0000
,  // measure 82
2100
0100
3001
0102
,  // measure 83
0000
1000
1000
0100
,  // measure 84
0000
0010
0000
2003
,  // measure 85
0000
0100
3100
0000
,  // measure 86
0012
0010
1003
2010
,  // measure 87
0000
0001
0001
0010
,  // measure 88
0000
0100
0001
3100
,  // measure 89
0100
0000
0100
0001
,  // measure 90
1100
1000
1100
0100
,  // measure 91
1100
1000
1100
0010
,  // measure 92
0011
0001
0011
0010
,  // measure 93
0011
0001
0011
0100
,  // measure 94
1010
0010
1010
1000
,  // measure 95
1010
0010
1010
0010
,  // measure 96
0101
0001
0101
0100
,  // measure 97
0001
0010
0001
0100
0001
1000
0001
0000
,  // measure 98
0100
0000
0010
0000
1000
0001
0100
1000
,  // measure 99
0100
0010
0001
0000
1000
0000
0001
0010
,  // measure 100
0001
0000
0010
0100
0010
0000
0100
0010
,  // measure 101
0001
0100
1000
0000
0100
0000
0010
0000
,  // measure 102
1000
0000
0001
1000
0010
0001
0100
0010
,  // measure 103
1000
0000
0100
0010
0100
0000
0010
0100
,  // measure 104
0010
0000
0001
1000
0100
0001
1000
0000
,  // measure 105
0110
0011
1100
0101
,  // measure 106
1001
0000
0010
0100
0001
1000
0010
1000
,  // measure 107
0001
0000
0100
0010
0001
0000
1000
0100
,  // measure 108
1000
0000
0100
0010
0100
0000
0010
0100
,  // measure 109
0010
1000
0010
0000
0001
0000
0010
0000
,  // measure 110
1000
0000
1000
0001
0100
0010
0001
0010
,  // measure 111
0100
0110
0010
1010
,  // measure 112
0001
0011
0000
1001
,  // measure 113
0001
0100
1000
0001
0010
1000
0010
0000
;

//---------------dance-single - ----------------
#NOTES:
     dance-single:
     :
     Beginner:
     4:
     0.167,0.255,0.000,0.158,0.000: // measure 1
0000
0000
0000
0000
,  // measure 2
0000
0000
0000
0000
,  // measure 3
0000
0000
0000
0000
,  // measure 4
0000
0000
0000
0000
,  // measure 5
0000
0000
0000
0000
,  // measure 6
0000
0000
0000
0000
,  // measure 7
0000
0000
0000
0000
,  // measure 8
0000
0000
0000
0000
,  // measure 9
0000
0000
0000
0000
,  // measure 10
0000
0000
0000
0010
,  // measure 11
0000
0010
0000
0010
,  // measure 12
0000
0000
0000
0000
,  // measure 13
0000
0000
0000
0000
,  // measure 14
0000
0000
0000
1000
,  // measure 15
0000
1000
0000
1000
,  // measure 16
0000
0000
0000
0000
,  // measure 17
0000
0000
0000
0000
,  // measure 18
0000
0000
0000
0001
,  // measure 19
0000
0001
0000
0001
,  // measure 20
0000
0000
0000
0000
,  // measure 21
0000
0000
0000
0000
,  // measure 22
0000
0000
0000
0000
,  // measure 23
0000
0000
0000
0000
,  // measure 24
2000
0000
0000
0002
,  // measure 25
3003
0000
0000
0000
,  // measure 26
0000
0000
0010
0000
,  // measure 27
0010
0000
0000
0000
,  // measure 28
0000
0000
1000
0000
,  // measure 29
0001
0000
0000
0000
,  // measure 30
0100
0000
0000
0000
,  // measure 31
0010
0000
0000
0000
,  // measure 32
1000
0000
0000
0000
,  // measure 33
0001
0000
0000
0000
,  // measure 34
0001
0000
0000
0000
,  // measure 35
0001
0000
0000
0000
,  // measure 36
0000
0000
0000
0000
,  // measure 37
0100
0000
0000
0000
,  // measure 38
0100
0000
0000
0000
,  // measure 39
0100
0000
0000
0000
,  // measure 40
0000
0000
0000
0000
,  // measure 41
0010
0000
0000
0000
,  // measure 42
0010
0000
0000
0000
,  // measure 43
0010
0000
0000
0000
,  // measure 44
0000
0000
0000
0000
,  // measure 45
2000
0000
0000
0000
,  // measure 46
0000
0002
0000
0000
,  // measure 47
3003
0000
0000
0000
,  // measure 48
0000
0000
0000
0000
,  // measure 49
2000
0000
0000
3001
,  // measure 50
0000
0000
0000
0000
,  // measure 51
0001
0000
0000
0000
,  // measure 52
0001
0000
0000
0000
,  // measure 53
0000
0000
0000
0000
,  // measure 54
0100
0000
0000
0000
,  // measure 55
0100
0000
0000
0000
,  // measure 56
0010
0000
0000
0000
,  // measure 57
1000
0000
0000
0000
,  // measure 58
0001
0000
0000
0000
,  // measure 59
0000
0000
0000
0000
,  // measure 60
1000
0000
1000
0000
,  // measure 61
1000
0000
0000
0000
,  // measure 62
0020
0000
0000
0000
,  // measure 63
0000
0000
0000
0000
,  // measure 64
0230
0000
0000
0000
,  // measure 65
0000
0000
0000
0301
,  // measure 66
0000
0000
0000
0000
,  // measure 67
1000
0000
0000
0000
,  // measure 68
0001
0000
0000
0000
,  // measure 69
0000
0000
0000
0000
,  // measure 70
1000
0000
0000
0000
,  // measure 71
1000
0000
0000
0000
,  // measure 72
0001
0000
0000
0000
,  // measure 73
0001
0000
0000
0000
,  // measure 74
1000
0000
0000
0000
,  // measure 75
0000
0000
0000
0000
,  // measure 76
0001
0000
0000
0000
,  // measure 77
0001
0000
0000
0000
,  // measure 78
1000
0000
0000
0000
,  // measure 79
0100
0000
0000
0000
,  // measure 80
0010
0000
0000
0000
,  // measure 81
0001
0000
0000
0000
,  // measure 82
2000
0000
0000
0000
,  // measure 83
0000
0000
0000
0000
,  // measure 84
3002
0000
0000
0000
,  // measure 85
0000
0000
0000
0000
,  // measure 86
0203
0000
0000
0000
,  // measure 87
0000
0000
0000
0000
,  // measure 88
0320
0000
0000
0000
,  // measure 89
0000
0000
0000
0000
,  // measure 90
1030
0000
0000
0000
,  // measure 91
1000
0000
0000
0000
,  // measure 92
1000
0000
0000
0000
,  // measure 93
1000
0000
0000
0000
,  // measure 94
0002
0000
0000
0000
,  // measure 95
0000
0000
0000
0000
,  // measure 96
2003
0000
0000
0000
,  // measure 97
0000
0000
0000
3010
,  // measure 98
0000
0000
0000
0000
,  // measure 99
0010
0000
0000
0000
,  // measure 100
1000
0000
0100
0000
,  // measure 101
0010
0000
0001
0000
,  // measure 102
0100
0000
0000
0000
,  // measure 103
0100
0000
0000
0000
,  // measure 104
0001
0000
0010
0000
,  // measure 105
0100
0000
1000
0000
,  // measure 106
0100
0000
0000
0000
,  // measure 107
0010
0000
0000
0000
,  // measure 108
0100
0000
0010
0000
,  // measure 109
0100
0000
0000
0000
,  // measure 110
0001
0000
0000
0000
,  // measure 111
1000
0000
0000
0000
,  // measure 112
1000
0000
0000
0000
,  // measure 113
0002
0000
0000
1003
;

//---------------dance-single - ----------------
#NOTES:
     dance-single:
     :
     Easy:
     7:
     0.307,0.447,0.011,0.068,0.000: // measure 1
0000
0000
0000
0000
,  // measure 2
0000
0000
0000
0000
,  // measure 3
0000
0000
0000
0000
,  // measure 4
0000
0000
0000
0000
,  // measure 5
0000
0000
0000
0000
,  // measure 6
0000
0000
0000
0000
,  // measure 7
0000
0000
0000
0000
,  // measure 8
0000
0000
1000
0000
,  // measure 9
0100
0000
0000
0010
,  // measure 10
0000
0001
0000
0010
,  // measure 11
0000
0100
0000
1000
,  // measure 12
0000
0000
0001
0000
,  // measure 13
0010
0000
0000
1000
,  // measure 14
0000
0100
0000
0010
,  // measure 15
0000
0000
0000
0100
,  // measure 16
0000
0000
0010
0000
,  // measure 17
0001
0000
0000
0100
,  // measure 18
0000
1000
0000
0100
,  // measure 19
0000
0010
0000
0001
,  // measure 20
0000
0000
0100
0000
,  // measure 21
0010
0000
0000
0001
,  // measure 22
0000
1000
0000
0100
,  // measure 23
0000
0000
0010
0000
,  // measure 24
2000
0000
0002
0000
,  // measure 25
3003
0000
0000
0100
,  // measure 26
0000
0000
0000
0010
,  // measure 27
0010
0000
0000
1000
,  // measure 28
0000
0000
0001
0001
,  // measure 29
1000
0000
0100
0000
,  // measure 30
0010
0010
0000
0001
,  // measure 31
0001
0000
0000
1000
,  // measure 32
0000
0000
0010
1000
,  // measure 33
0001
0000
0100
0000
,  // measure 34
0100
0000
0010
0000
,  // measure 35
1000
0000
0100
0000
,  // measure 36
0010
0000
0001
0000
,  // measure 37
0000
0000
0100
0000
,  // measure 38
1000
0000
0100
0000
,  // measure 39
0001
0000
0100
0000
,  // measure 40
0001
0000
1000
0000
,  // measure 41
0000
0000
0100
0000
,  // measure 42
0010
0000
0001
0000
,  // measure 43
1000
0000
0100
0000
,  // measure 44
0010
0000
0100
0000
,  // measure 45
0002
0000
0000
1003
,  // measure 46
0000
2000
0000
0000
,  // measure 47
3001
0000
0000
0000
0000
1000
0000
0100
,  // measure 48
0000
0010
0000
0001
0000
0100
0000
0010
,  // measure 49
0000
1000
0000
0000
0000
0000
1001
0000
,  // measure 50
0000
0000
0100
0000
,  // measure 51
0010
0000
0000
0001
,  // measure 52
0000
0001
0000
0000
,  // measure 53
0000
1000
0000
0100
,  // measure 54
0000
0000
0010
0000
,  // measure 55
1000
0000
0100
0000
,  // measure 56
0010
0000
0001
0000
,  // measure 57
1000
0000
0100
0000
,  // measure 58
0000
0000
0001
0000
,  // measure 59
0010
0000
0100
0000
,  // measure 60
1000
0000
0100
0000
,  // measure 61
0010
0000
1000
0000
,  // measure 62
0001
0000
0001
0000
,  // measure 63
1000
0000
0000
0100
,  // measure 64
0000
0000
0010
0000
,  // measure 65
0001
0000
0000
0000
,  // measure 66
0100
0000
1000
0000
,  // measure 67
0100
0000
0010
0000
,  // measure 68
1000
0000
1000
0000
,  // measure 69
0000
0100
0000
0010
,  // measure 70
0000
0000
1000
0000
,  // measure 71
0100
0000
0010
0000
,  // measure 72
0001
0000
0100
0000
,  // measure 73
0010
0000
0100
0000
,  // measure 74
0000
0000
1000
0000
,  // measure 75
1000
0000
0100
0000
,  // measure 76
0010
0000
0001
0000
,  // measure 77
1000
0000
0100
0000
,  // measure 78
0010
0000
0001
0000
,  // measure 79
1000
0000
0100
0000
,  // measure 80
0010
0000
1000
0000
,  // measure 81
0001
0000
0000
0000
,  // measure 82
0100
0000
0010
0000
,  // measure 83
0100
0000
0000
0000
,  // measure 84
1000
0000
0100
0000
,  // measure 85
0010
0000
0000
0000
,  // measure 86
1000
0000
0100
0000
,  // measure 87
0001
0000
0000
0000
,  // measure 88
0001
0000
0100
0000
,  // measure 89
1000
0000
0000
0000
,  // measure 90
1000
0000
1000
0000
,  // measure 91
1000
0000
1000
0000
,  // measure 92
0010
0000
0010
0000
,  // measure 93
0010
0000
0010
0000
,  // measure 94
0200
0000
0000
0000
,  // measure 95
0301
0000
0000
0000
,  // measure 96
0002
0000
0000
0000
,  // measure 97
1003
0000
0000
0000
,  // measure 98
1000
0000
0001
0000
,  // measure 99
0100
0000
0000
1000
,  // measure 100
0000
1000
0000
1000
,  // measure 101
0000
1000
0000
1000
,  // measure 102
0000
0000
0010
0000
,  // measure 103
0010
0000
0000
0001
,  // measure 104
0000
0001
0000
0001
,  // measure 105
0000
0000
0000
0100
,  // measure 106
0000
0000
0010
0000
,  // measure 107
0010
0000
0000
1000
,  // measure 108
0000
1000
0000
1000
,  // measure 109
0000
1000
0000
1000
,  // measure 110
0000
0000
0010
0000
,  // measure 111
0010
0000
0000
1000
,  // measure 112
0000
0000
0000
0000
,  // measure 113
1000
0000
0000
0100
0000
0000
0001
0000
;

//---------------dance-single - ----------------
#NOTES:
     dance-single:
     :
     Hard:
     17:
     0.955,1.000,0.792,0.758,0.074: // measure 1
0000
0000
0000
0000
,  // measure 2
0000
0000
0000
0000
,  // measure 3
0000
0000
0000
0000
,  // measure 4
0000
0000
0000
0000
,  // measure 5
0000
0000
0000
0000
,  // measure 6
0000
0000
0000
0000
,  // measure 7
0000
0000
0000
0000
0000
0000
0000
0000
0000
0000
0000
0000
0000
0000
0000
0000
0000
0000
0000
0000
0000
0000
0000
0000
0001
1000
0001
1000
0001
1000
0001
0000
,  // measure 8
0000
0000
1000
0100
0010
0100
1000
0000
,  // measure 9
0020
0000
1000
0000
0000
0030
2200
0000
,  // measure 10
0000
3300
2020
0000
0000
3030
0220
0000
,  // measure 11
0000
0330
0100
0001
0010
0000
0011
0000
,  // measure 12
0000
0000
0001
0010
0100
0010
0001
0000
,  // measure 13
0200
0000
1000
0000
0000
0300
0220
0000
,  // measure 14
0300
0000
0130
1000
0001
0000
1010
0000
,  // measure 15
1000
0011
0001
1010
,  // measure 16
0000
0000
0010
1000
0001
1000
0010
0000
,  // measure 17
0002
0000
1000
0000
0000
0003
0220
0000
,  // measure 18
0000
0330
0022
0000
0000
0033
2200
0000
,  // measure 19
0000
3300
0010
0000
0100
0000
1001
0000
,  // measure 20
0000
0000
0100
0001
1000
0000
0100
0000
,  // measure 21
2010
0010
0010
3020
,  // measure 22
0000
0000
0000
0000
,  // measure 23
0031
0010
0001
0010
0100
1000
0100
1000
,  // measure 24
0002
0000
1003
2010
0000
3001
0102
0000
1003
1200
0000
1300
1000
0001
0021
0000
,  // measure 25
0230
0000
1300
2100
0000
3001
0020
0000
,  // measure 26
0031
0200
0000
0000
2300
0000
3200
0000
,  // measure 27
0320
0000
0100
0230
0000
0001
0302
0000
,  // measure 28
1003
0000
0020
0000
0000
0000
0000
0000
1030
0100
2000
0000
0010
0000
0000
0000
,  // measure 29
3010
0000
1000
0000
0010
0000
0002
0010
,  // measure 30
0010
0013
0000
0100
,  // measure 31
0001
0000
0010
0210
0000
1300
1020
0000
,  // measure 32
1030
1002
0000
0103
0101
0002
0100
0003
,  // measure 33
1001
0000
0000
0000
0001
0100
0001
0000
,  // measure 34
0010
0000
0100
0010
0100
0000
0001
0000
,  // measure 35
2002
0000
3003
0220
,  // measure 36
0000
0330
2010
0000
,  // measure 37
3010
0000
0010
0000
,  // measure 38
1000
0010
1000
0001
,  // measure 39
0100
0000
0001
0000
,  // measure 40
1000
0000
0010
1000
,  // measure 41
0010
0000
0001
0010
,  // measure 42
0100
0000
0010
0000
,  // measure 43
1000
0010
0100
0001
,  // measure 44
0000
0010
0100
1000
,  // measure 45
1001
1010
1001
1100
,  // measure 46
0000
1001
0101
1001
,  // measure 47
0011
0000
0000
0000
0000
0001
0010
0100
,  // measure 48
1000
0000
0100
0010
0100
0000
0010
0000
0001
0000
1000
0000
0100
0000
0010
0000
,  // measure 49
0001
0000
0001
1000
0010
0000
0100
0000
0000
0000
0000
0000
1001
0000
0000
0000
,  // measure 50
1000
0000
0010
0000
0100
0000
0100
0010
,  // measure 51
0100
1000
0001
0011
,  // measure 52
0010
0000
0010
1000
0010
0000
0001
0000
,  // measure 53
0010
0000
1000
0100
1000
0000
1100
0000
,  // measure 54
1000
0000
0001
0000
0010
0000
0100
1000
,  // measure 55
0100
0010
0100
0110
,  // measure 56
0010
0000
0001
0010
0001
0000
0010
0000
,  // measure 57
0100
0000
0100
1000
0100
1000
0100
0000
,  // measure 58
1000
0000
0001
0010
0001
0000
0010
0100
,  // measure 59
0010
0000
1000
0000
1000
0100
1000
0000
,  // measure 60
0100
0010
0100
0000
0001
0000
1000
0000
,  // measure 61
0100
0010
0001
1000
,  // measure 62
0011
0000
0000
0000
0011
0000
0100
1000
,  // measure 63
0100
0000
0001
0010
0001
0000
1100
0000
,  // measure 64
0000
0000
1100
0000
0001
0010
0001
0000
,  // measure 65
0100
1000
0010
0001
0010
0001
0010
0000
,  // measure 66
0100
0000
1000
0000
0100
0010
0100
0000
,  // measure 67
0010
0000
1000
0000
0010
0100
0010
0000
,  // measure 68
1000
0010
1000
0100
,  // measure 69
0010
0000
0001
1000
0001
0000
1001
0000
,  // measure 70
1000
0000
0010
1000
0010
0000
1000
0010
,  // measure 71
1000
0000
0001
0010
0001
0000
1000
0000
,  // measure 72
0100
0000
0010
0000
0001
0100
0001
0000
,  // measure 73
0001
1000
0001
0000
1000
0000
0000
0000
,  // measure 74
0000
0000
0000
0000
1000
0100
1000
0000
,  // measure 75
0100
0000
0010
0000
0001
0000
0100
1000
,  // measure 76
0100
0000
0010
0000
0100
0000
0001
0100
,  // measure 77
0001
0100
0001
0000
1000
0000
0010
0100
,  // measure 78
0010
0000
0010
0100
0010
0000
1000
0001
,  // measure 79
1000
0000
1000
0001
1000
0000
0010
0100
,  // measure 80
0010
0000
0100
0010
0100
0000
0001
1000
,  // measure 81
0001
1000
0001
1000
0001
1000
0001
0000
,  // measure 82
0012
0010
1000
2003
,  // measure 83
0000
0001
0000
0010
,  // measure 84
0000
0100
0000
3002
,  // measure 85
0000
0000
0013
0000
,  // measure 86
2100
0100
0001
3002
,  // measure 87
0000
1000
0000
0100
,  // measure 88
0000
0010
0000
0013
,  // measure 89
0000
0000
0010
1000
,  // measure 90
0011
0001
0011
0000
,  // measure 91
0011
0010
0011
0000
,  // measure 92
1100
1000
1100
0000
,  // measure 93
1100
0100
1100
0000
,  // measure 94
0101
0001
0101
0000
,  // measure 95
0101
0100
0101
0000
,  // measure 96
1010
1000
1010
0000
,  // measure 97
0010
0000
1000
0100
0010
0001
1000
0000
,  // measure 98
0010
0000
0100
0000
0001
0010
0001
0010
,  // measure 99
0001
0010
0001
2200
,  // measure 100
0000
3300
0220
0000
0000
0330
0001
0100
,  // measure 101
0001
0100
0001
0000
0010
0000
0100
0000
,  // measure 102
1000
0000
1000
0100
1000
0100
1000
0000
,  // measure 103
0010
0000
0220
0000
0000
0330
0022
0000
,  // measure 104
0000
0033
2200
0000
0000
3300
2000
0000
,  // measure 105
0010
0001
0100
3001
,  // measure 106
0001
0000
0100
0010
0100
0010
0100
0000
,  // measure 107
0001
0000
2200
0000
0000
3300
0022
0000
,  // measure 108
0000
0033
2200
0000
0000
3300
0001
1000
,  // measure 109
0001
1000
0001
0000
1000
0000
0001
0000
,  // measure 110
1000
0000
0001
0010
0001
0010
0001
1000
,  // measure 111
0010
0100
0000
0101
,  // measure 112
0000
1100
0000
1001
,  // measure 113
1000
0100
0010
0001
0010
0100
1000
0000
;

//---------------dance-single - ----------------
#NOTES:
     dance-single:
     :
     Medium:
     14:
     0.857,1.000,0.566,0.826,0.034: // measure 1
0000
0000
0000
0000
,  // measure 2
0000
0000
0000
0000
,  // measure 3
0000
0000
0000
0000
,  // measure 4
0000
0000
0000
0000
,  // measure 5
0000
0000
0000
0000
,  // measure 6
0000
0000
0000
0000
,  // measure 7
0000
0000
0000
0000
0000
0000
0000
0000
0000
0000
0000
0000
0001
0010
0100
1000
,  // measure 8
0000
0000
1000
0001
2000
0000
0001
0000
,  // measure 9
3002
1003
0000
2200
,  // measure 10
3300
0202
0303
2002
,  // measure 11
3003
0000
1000
0001
1000
0000
0001
0000
,  // measure 12
0000
0000
0001
1000
0002
0000
0000
0000
,  // measure 13
2003
0001
3002
0100
,  // measure 14
0000
0000
1003
0100
1000
0000
1000
0000
,  // measure 15
0001
0001
1000
1010
,  // measure 16
0000
0000
0010
1000
0020
0000
1000
0000
,  // measure 17
2030
0001
3000
0220
,  // measure 18
0330
0022
0033
2200
,  // measure 19
3300
0010
0100
1001
,  // measure 20
0000
0000
0001
0010
0001
0000
1000
0000
,  // measure 21
2000
0010
0000
3200
,  // measure 22
0000
0000
0000
0000
,  // measure 23
0301
0010
0001
0000
1000
0100
1000
0000
,  // measure 24
0002
0000
0000
2003
0000
0000
3020
0000
0000
0230
0000
0000
0301
0010
0100
1000
,  // measure 25
0200
0000
0000
2300
0000
0000
3002
0000
,  // measure 26
1003
0200
0000
0000
2300
0000
3200
0000
,  // measure 27
0320
0000
0000
0230
0000
0000
0302
0000
,  // measure 28
0103
0020
0000
0000
1030
2000
0010
0000
,  // measure 29
3010
0000
1000
0000
0010
0000
0002
0010
,  // measure 30
0010
0013
0000
0100
,  // measure 31
0001
0000
0010
0200
0000
1300
0020
0000
,  // measure 32
1030
0002
0000
0103
0100
0002
0100
0003
,  // measure 33
1001
0000
0001
0001
,  // measure 34
0010
0100
0100
1000
,  // measure 35
2002
0000
3000
0200
,  // measure 36
0000
0303
2010
0000
,  // measure 37
3010
0000
0010
0000
,  // measure 38
1000
0010
1000
0001
,  // measure 39
0100
0000
0001
0000
,  // measure 40
1000
0010
1000
0010
,  // measure 41
1000
0000
0001
0010
,  // measure 42
0100
0000
0010
0000
,  // measure 43
0001
0100
0010
1000
,  // measure 44
0000
0001
1000
0001
,  // measure 45
1001
0100
0010
1001
,  // measure 46
0000
0110
0001
1000
,  // measure 47
0110
0000
0000
0000
0000
0001
0001
0010
,  // measure 48
0010
0100
0100
1000
1000
0100
0100
0010
,  // measure 49
0010
0001
0001
1000
0000
0000
1001
0000
,  // measure 50
1000
0001
0010
0100
,  // measure 51
1000
0010
0001
0011
,  // measure 52
0010
1000
0001
1000
,  // measure 53
0010
1000
0100
1100
,  // measure 54
1000
0001
0010
0100
,  // measure 55
1000
0010
0100
0101
,  // measure 56
0010
0001
1000
0010
,  // measure 57
0100
0000
1000
0100
1000
0000
0100
0000
,  // measure 58
0001
0000
0001
0010
0001
0000
0010
0100
,  // measure 59
0010
0000
1000
0000
1000
0100
1000
0000
,  // measure 60
0100
0010
0100
0000
0001
0000
1000
0000
,  // measure 61
0100
0010
0001
1000
,  // measure 62
0011
0000
0011
0200
,  // measure 63
1000
0000
0320
0000
0001
0030
1100
0000
,  // measure 64
0000
1100
0020
0001
,  // measure 65
0230
0000
0310
0100
0010
0100
0010
0000
,  // measure 66
0100
1000
0200
0001
,  // measure 67
0310
1000
0020
0100
,  // measure 68
1030
0010
1000
0100
,  // measure 69
0010
0001
1000
1001
,  // measure 70
1000
1000
1010
0010
,  // measure 71
1010
0001
1000
1000
,  // measure 72
0100
0010
0002
0023
,  // measure 73
0230
2300
3001
0000
,  // measure 74
0000
0000
0000
0000
1000
0001
1000
0000
,  // measure 75
0100
0000
0010
0000
0001
0000
0100
1000
,  // measure 76
0100
0000
0010
0000
0100
0000
0001
0100
,  // measure 77
0001
0100
0001
0000
1000
0000
1000
0100
,  // measure 78
1000
0000
0001
0100
0001
0000
1000
0010
,  // measure 79
1000
0000
0001
0100
0001
0000
0100
0010
,  // measure 80
0100
0000
0010
0100
0010
0000
1000
0000
,  // measure 81
0001
0000
1000
0001
1000
0001
1000
0000
,  // measure 82
1002
0000
1000
2003
,  // measure 83
0000
0001
0000
0010
,  // measure 84
0000
0100
0000
3002
,  // measure 85
0000
0000
0013
0000
,  // measure 86
2100
0000
0001
3002
,  // measure 87
0000
1000
0000
0100
,  // measure 88
0000
0010
0000
0013
,  // measure 89
0000
0000
0010
1000
,  // measure 90
0011
0000
1001
0000
,  // measure 91
0101
0000
0110
0000
,  // measure 92
1100
0000
0101
0000
,  // measure 93
1001
0000
0110
0000
,  // measure 94
1001
0000
0101
0000
,  // measure 95
0011
0000
1100
0000
,  // measure 96
1010
0000
1001
0000
,  // measure 97
0010
0000
1000
0100
0010
0001
1000
0000
,  // measure 98
0010
0000
0100
0000
0001
0010
0001
0010
,  // measure 99
0001
0010
0001
2200
,  // measure 100
0000
0300
0020
0000
0000
3030
0001
0100
,  // measure 101
0001
0100
0001
0000
0010
0000
0100
0000
,  // measure 102
1000
0000
1000
0100
1000
0100
1000
0000
,  // measure 103
0100
0000
0220
0000
0000
0300
0002
0000
,  // measure 104
0000
0033
1000
0100
1000
0100
2000
0000
,  // measure 105
0010
0001
0100
3001
,  // measure 106
0001
0000
0100
0010
0100
0010
0100
0000
,  // measure 107
0001
0000
2200
0000
0000
3300
0022
0000
,  // measure 108
0000
0033
2200
0000
0000
3300
0001
1000
,  // measure 109
0001
1000
0001
0000
1000
0000
0001
0000
,  // measure 110
1000
0000
0001
0010
0001
0010
0001
0000
,  // measure 111
1000
0100
0000
0101
,  // measure 112
0000
1100
0000
1001
,  // measure 113
1000
0001
1000
0001
1000
0001
1000
0000
;
