#TITLE:恋愛サーキュレーション;
#SUBTITLE:化物語 OP4;
#ARTIST:花澤香菜;
#CREDIT:;
#GENRE:EXTRA VS OVERACTIVE -;
#MUSIC:Renai Circulation.mp3;
#METERTYPE:DDR X;
#MENUCOLOR:1,1,0,1;
#SELECTABLE:YES;
#BACKGROUND:Renai Circulation-bg.png;
#BANNER:Renai Circulation.png;
#CDTITLE:cdtitle.png;
#OFFSET:-0.406;
#SAMPLESTART:41.381;
#SAMPLELENGTH:12.000;
#BPMS:0=120;
#STOPS:;
#TITLETRANSLIT:Renai Circulation;
#SUBTITLETRANSLIT:Bakemonogatari OP4;
#ARTISTTRANSLIT:Kana Hanazawa;
#BGCHANGES:1.313=Renai Circulation.avi=1.000=0=0=1,99999=-nosongbg-=1.000=0=0=0
;

//---------------dance-single - ----------------
#NOTES:
     dance-single:
     :
     Beginner:
     3:
     0.000,0.000,0.000,0.000,0.000:
0000
0000
1000
0000
,
1000
0000
0001
0000
,
0001
0000
0100
0000
,
0100
0000
0010
0000
,
0010
0000
1001
0000
,
0100
0000
1001
0000
,
0010
0000
0110
0000
,
1000
0000
0110
0000
,
0001
0000
1000
1000
,
1000
0000
0100
0100
,
0100
0000
0010
0010
,
0010
0000
0001
0001
,
0001
0000
1000
0000
,
1000
0000
0001
0000
,
0001
0000
0100
0000
,
0100
0000
0010
0000
,
0010
0000
1000
1000
,
1000
0000
0001
0001
,
0001
0000
0100
0100
,
0100
0000
0010
0010
,
0010
0000
2000
0000
,
0000
0000
3002
0000
,
0000
0000
0203
0000
,
0000
0000
0320
0000
,
0000
0000
2030
0000
,
0000
0000
3200
0000
,
0000
0000
0302
0000
,
0000
0000
0023
0000
,
0000
0000
0030
0000
,
1000
0000
0100
0100
,
0100
0000
0001
0000
,
0010
0000
0100
0100
,
0100
0000
1000
0000
,
1000
0000
0010
0010
,
0010
0000
0001
0000
,
1000
0000
0010
0010
,
0010
0000
1000
0000
,
1001
0000
0001
0000
,
1001
0000
0100
0000
,
0110
0000
0010
0000
,
0110
0000
2000
0000
,
3001
0000
0002
0000
,
1003
0000
0200
0000
,
0310
0000
0110
0000
,
1001
0000
0000
0000
;

//---------------dance-single - ----------------
#NOTES:
     dance-single:
     :
     Easy:
     7:
     0.000,0.000,0.000,0.000,0.000:
0000
0000
1000
0010
,
0001
0000
0001
0010
,
1000
0000
1000
0100
,
0001
0000
0001
0100
,
1000
1001
0020
0130
,
2000
3001
0002
1003
,
0200
0310
0020
0130
,
2000
3001
0002
1003
,
1000
1001
0020
0130
,
0200
0310
0002
1003
,
2000
3001
1000
0001
,
1000
0001
0200
0310
,
1000
0100
0010
0001
,
1000
0001
1000
0100
,
0010
0100
0002
0000
,
2003
0000
3020
0000
,
0230
0000
0301
1000
,
0001
0000
0100
0010
,
0100
1000
0100
0100
,
0001
0001
2000
3001
,
0002
1003
2000
3001
,
1001
0002
1003
1001
,
0100
0010
0200
0000
,
1000
0000
0010
0000
,
0301
0000
0020
0130
,
0200
0310
0002
1003
,
2000
3001
0100
0010
,
1000
0001
1000
0001
,
1001
0110
0200
1300
,
0020
0031
2000
3100
,
0002
0013
2000
3010
,
0002
0103
0020
1030
,
0200
0301
2000
3100
,
0200
0310
0020
0031
,
1001
0000
0002
0013
,
0020
0130
0200
1300
,
1001
0000
1000
0001
,
1000
1000
0010
0100
,
0001
0001
0100
0010
,
1000
0100
0010
0100
,
0001
1001
0100
0010
,
1000
1000
0010
0100
,
0001
0001
1000
0100
,
0010
0100
1001
0110
,
1001
0000
0000
0000
;

//---------------dance-single - ----------------
#NOTES:
     dance-single:
     :
     Medium:
     11:
     0.000,0.000,0.000,0.000,0.000:
0000
0000
1000
0010
,
0100
0000
0000
0100
0000
0000
0010
0000
1000
0000
0000
0000
0001
0000
0000
0000
,
0100
0000
0000
0100
0000
0000
0010
0000
1000
0000
0000
0000
0001
0000
0100
0000
,
0010
0000
0000
0010
0000
0000
1000
0000
0100
0000
0000
0001
0000
0000
0100
0000
,
0010
0000
0110
0000
1000
0010
0001
0100
,
2000
0000
3010
0100
0001
0100
1000
0010
,
0200
0000
0301
1000
0001
1000
0002
0000
,
0103
0010
0200
0000
0310
1000
0100
0001
,
2000
0000
3001
0000
0100
0010
1000
0010
,
0200
0000
0301
1000
0010
0100
0010
1000
,
0200
0000
0310
1000
0001
0100
0010
0000
,
0010
0100
0010
0000
1000
0100
0001
0100
,
2000
0000
3010
0000
0100
0001
0100
1000
,
0010
0000
0100
0000
0010
0000
0000
0100
0000
0000
1000
0000
0100
0000
0010
0000
,
0100
0000
0001
0000
0100
0000
0000
0100
0000
0000
0100
0000
0010
0000
0000
0000
,
1000
0001
1000
0010
0200
0000
0301
1000
,
0010
0100
0001
0000
0001
0100
1000
0010
,
1000
0001
0000
1000
0001
0100
0010
0100
,
1000
0100
0010
0000
0001
0100
0001
1000
,
0100
0010
0001
0000
0001
1000
0001
0001
,
1000
0001
1000
0000
1000
1000
0001
0001
,
1000
0000
0100
0100
0010
0010
0100
0000
,
1000
0001
1000
0001
2000
0000
3010
0000
,
0020
0130
0200
0301
,
1001
0000
0000
0000
0001
0001
0010
0010
,
0100
0000
1000
1000
0100
0100
0010
0000
,
0001
0100
1000
0001
1000
1000
0001
0000
,
0001
0001
1000
0000
1000
0100
0001
0100
,
2000
3010
0101
1000
,
0010
0100
0002
1003
,
2000
3001
0002
0103
,
0100
0000
0010
0000
1000
0001
1000
0002
,
0000
0100
1003
0100
,
0010
0000
0100
0010
0100
1000
0100
0020
,
0000
0100
1030
0100
,
0010
0001
2000
0001
,
0010
3001
0101
1000
,
0010
0100
0010
0000
1000
0000
0100
0000
,
0100
0010
0100
0000
0001
0000
1000
0000
,
0010
0100
0010
0000
2000
0000
3200
0000
,
0301
0000
1000
0000
0100
0010
0100
0010
,
0200
0000
0301
1000
0001
0100
0010
0100
,
0020
0000
1030
0001
1000
0100
0010
0001
,
0100
0010
1000
0010
2000
0000
0001
0000
,
3001
0000
0000
0000
;

//---------------dance-single - ----------------
#NOTES:
     dance-single:
     :
     Hard:
     14:
     0.000,0.000,0.000,0.000,0.000:
0000
0000
0000
0000
0000
0000
0000
0000
1000
0000
0000
0100
0000
0000
0010
0000
,
0100
0000
0000
0100
0000
0000
0001
0000
0010
0000
0000
1000
0000
0000
0100
0000
,
0001
0000
0000
0001
0000
0000
1000
0001
0100
0000
0000
0001
0000
0000
0100
0000
,
1000
0000
0000
0100
0000
0001
0010
0000
0010
0000
0000
0010
0000
0100
0000
0000
,
0200
0000
0000
0000
0010
0000
0000
0000
1300
0000
0000
0100
0000
0010
1000
0000
,
0001
0000
1100
0000
0101
0000
0001
1000
0100
0000
0000
0010
0000
0001
0010
0000
,
0100
0000
0011
0000
1010
0000
1000
0000
0001
0000
1000
0001
0000
0100
1000
0000
,
0010
0000
0010
0100
0000
1000
0010
0000
0100
0001
0000
0010
0000
0001
0100
0000
,
1000
0000
0011
0000
1100
0000
0000
0000
1000
0000
0000
0100
0000
0001
0100
0000
,
0010
0000
1100
0000
0101
0000
0100
0010
0001
0000
0000
0100
0000
0001
0100
0000
,
0100
0000
1100
0000
0101
0000
0010
0000
1000
0000
0001
1000
0000
0100
0010
0000
,
1000
0000
0010
0100
0000
1000
0010
0000
0100
1000
0000
0010
0000
0001
0100
0000
,
1000
0000
1010
0000
0101
0000
0010
0100
0010
0001
0010
1000
0100
0000
0010
0000
,
1000
0000
0001
0000
1000
0000
0010
0001
0000
0000
0100
0010
0100
0010
1000
0001
,
0010
0000
0010
0100
0000
0010
0000
0010
1000
0000
0100
0010
0000
0000
0000
0010
,
0001
0010
0001
0010
0000
0100
1000
0100
0002
1000
0000
0000
1003
0010
0100
0000
,
0010
0100
0010
0100
0000
0000
0010
0000
1000
0010
0100
0001
0010
0000
0100
0000
,
0001
1000
0001
0000
0000
0000
1000
0100
0001
0010
1000
0010
0001
0100
1000
0010
,
0100
1000
0010
0100
1000
0000
0000
0000
1000
0100
0001
0100
1000
0001
0100
0001
,
1000
0010
0100
0001
0010
0001
0000
0000
1000
0000
0100
0010
0001
0000
0010
0100
,
0001
0010
1000
0100
0000
0000
0000
0000
1010
0000
0010
0000
0001
0000
0100
0000
,
0011
0000
1100
0100
0001
0100
0101
0000
,
1000
0000
0110
0000
0001
0000
0110
0000
0001
0020
0000
0100
0000
1030
0001
0000
,
1000
0020
0000
1000
0000
0031
0100
0000
2000
0000
0000
0100
0000
3001
0010
0000
,
2000
0010
3010
0000
1001
0100
0001
0100
,
1001
0000
0110
1000
0010
0001
0110
0000
,
0110
0000
1000
0000
0001
0000
0100
0000
0001
0020
0000
0001
0000
1030
0001
0000
,
1000
0200
0000
0010
0000
1300
0001
0000
0200
0010
0000
1300
0000
0001
0100
0000
,
0010
0010
0110
0000
2001
0001
3100
0000
,
1200
1000
0310
0001
1000
0100
0010
0002
,
0100
0100
0103
0001
2000
0000
3100
0001
,
0200
0000
0310
1000
0001
0010
0100
2000
,
0001
0001
3001
0000
0201
0001
0310
0000
,
1020
1000
0130
0010
2000
0100
3100
0020
,
0001
0001
0031
1000
0020
0000
2030
0000
,
3002
0000
0000
0000
0203
0000
0000
0000
0320
0001
0000
0100
0000
1030
0100
0000
,
0010
0000
1010
0000
0011
0000
0001
0010
1000
0000
0000
0100
0000
0000
0010
0000
,
0002
0000
1000
0000
1003
0000
0010
0000
0100
0000
0000
0010
0000
0000
0100
0000
,
2000
0000
0001
0000
3001
0000
0010
0100
0010
0000
0000
0010
0000
0000
0100
0000
,
0001
0000
0000
1000
0000
0010
0100
0000
0100
0000
0010
0100
0000
0010
0100
0000
,
2000
0000
0010
0000
3010
0000
0001
0000
1001
0000
0000
0100
0000
0000
0010
0000
,
0002
0000
1000
0000
1003
0000
0010
0001
0100
0000
0000
0010
0000
0000
0010
0000
,
2000
0000
0001
0000
3001
0000
0010
0100
0010
0000
0000
0010
0000
0001
0010
0000
,
1000
0000
0000
0100
0000
0010
0001
0000
0011
0000
0000
1010
0000
1100
0000
0000
,
0011
0000
0000
0000
;
