#TITLE:Overfly;
#SUBTITLE:ソードアート.オンライン ED2;
#ARTIST:春奈るな;
#TITLETRANSLIT:;
#SUBTITLETRANSLIT:Sword Art Online ED2;
#ARTISTTRANSLIT:Luna Haruna;
#GENRE:ANIMATION BEAT#1;
#CREDIT:;
#BANNER:Overfly.png;
#BACKGROUND:Overfly-bg.png;
#LYRICSPATH:;
#CDTITLE:cdtitle.png;
#MUSIC:Overfly.mp3;
#OFFSET:0.309;
#MENUCOLOR:0,0,1,1;
#METERTYPE:DDR X;
#SAMPLESTART:57.589;
#SAMPLELENGTH:12.000;
#SELECTABLE:YES;
#BPMS:0.000=134.000;
#STOPS:;
#BGCHANGES:;

//---------------dance-single - ----------------
#NOTES:
     dance-single:
     :
     Hard:
     10:
     0.524,0.561,0.146,0.584,0.000:
0000
0000
0000
0000
,
0002
0000
0000
0000
,
0023
0000
0000
0000
,
0230
0000
0000
0000
,
2300
0000
0000
0000
,
3200
0000
0000
0000
,
0320
0000
0000
0000
,
0031
1000
0000
0000
0000
1001
0000
0000
,
0110
0000
1000
0001
0100
0010
0001
0000
,
0100
0001
0100
1000
0100
0010
0001
0000
,
0100
0010
0001
0010
0100
1000
0010
0000
,
0100
0010
0001
0100
0010
0001
0100
0000
,
0001
0100
1000
0001
0100
1000
0001
0000
,
1000
0100
0010
1000
0100
0010
0100
0000
,
0010
0100
0010
0200
0000
0310
1000
0200
,
0000
0310
1000
0100
0010
0001
0101
0101
,
0101
0000
1000
0100
0010
2000
0000
3010
,
0100
0010
0000
2000
0000
3010
0100
0010
,
0100
0000
0010
0001
0010
0100
0010
0100
,
0010
1000
0100
0002
0000
1003
0001
1000
,
0001
0000
0100
0010
0100
0010
1000
0200
,
0000
0320
0000
2030
0000
3002
0000
0103
,
0010
0100
1000
0200
0000
0310
1000
0010
,
0200
0000
0310
0002
0000
0013
0100
0001
,
0100
0000
0001
1000
0001
1000
0001
1000
,
0200
0000
0310
2000
0000
3100
0020
0000
,
0032
0000
1003
0001
1000
0001
0100
0010
,
2000
0000
3001
0200
0000
0310
0002
0000
,
2003
0000
3010
0100
0010
0100
0010
1000
,
0200
0000
0310
2000
0000
3002
0000
0003
,
0100
0010
0100
0010
1000
0100
0010
0001
,
1001
0000
0100
0101
0000
1010
0000
0210
,
0000
0000
0320
2030
,
3001
1000
0001
1000
0100
0010
0001
0100
,
0020
0000
0031
0100
0001
0100
0001
0010
,
0200
0000
0310
2000
0000
3002
0000
2003
,
0000
0000
3010
0100
0010
1000
0100
0010
,
0002
0000
1003
0010
0100
0010
0001
0010
,
0200
0000
0310
1000
0100
0001
0100
0010
,
2000
0000
3100
0020
0000
0032
0000
1003
,
0020
0000
0130
0001
1000
0010
0100
0000
,
1100
0010
0100
0010
1000
0100
0010
0001
,
0200
0000
0310
0001
0010
0100
1000
0100
,
0002
0000
0103
0020
0000
0032
0000
2003
,
0000
3000
0010
1000
0100
0010
0100
0010
,
2000
0000
3010
0100
0001
0010
0100
0010
,
0002
0000
1003
0001
1000
0100
0010
0001
,
1001
0000
0100
0101
0000
1000
0010
0100
,
2002
0000
0000
0000
,
0000
0000
0000
0000
,
3003
0000
0000
0000
;

//---------------dance-single - ----------------
#NOTES:
     dance-single:
     :
     Challenge:
     13:
     0.746,0.786,0.573,0.460,0.297:
0000
0000
0000
0000
,
0002
0000
0000
0000
0000
0000
0000
0000
1000
0000
0000
1000
0000
0000
1000
0000
,
2003
0000
0000
0000
0000
3010
0100
0010
,
0200
0000
0310
0002
0000
2003
0000
3010
,
0200
0000
0000
0000
0010
0000
0000
0000
0001
0000
0000
0001
0000
0000
0001
0000
,
0302
0000
0000
0000
1000
0000
0000
0000
0100
0000
0000
0100
0000
0000
0100
0000
,
0203
0000
0000
0000
0010
0000
0000
0010
0000
0000
0010
0000
0310
0000
1000
0000
,
1001
0000
1001
0000
0010
0000
0100
0000
0010
1000
0200
0000
0000
0000
0000
0000
,
0310
0000
1000
0000
0010
0000
0100
0000
0100
0001
0100
0000
0011
0000
1000
0000
,
0100
0000
0010
0000
0001
0000
0100
0010
0100
0010
0100
0000
1010
0000
1000
0000
,
0100
0000
0001
0000
0100
0000
0100
0000
0100
0010
0100
0000
0100
0000
1000
0000
,
0100
0000
0001
0000
0100
0000
0010
1000
0010
1000
0010
0000
1000
0000
0100
0001
,
0100
0000
0001
0000
0100
0000
0001
0000
0001
0010
0100
0000
0100
0000
0010
0000
,
1000
0000
0100
0000
0100
0000
1000
0100
0010
0001
0100
0000
0010
0000
0100
1000
,
0100
0000
0100
0000
0100
0010
0100
0010
0100
0010
1000
0000
0001
0000
0101
0000
,
0000
1100
0011
0110
1100
1100
0110
0110
,
0011
0000
0100
0001
0100
0002
1000
1003
,
0100
0010
1000
0020
0100
0130
0010
0100
,
0010
0000
1000
0200
0001
0301
0010
0001
,
0010
0200
0000
0320
1000
1030
0001
0100
,
0010
0000
0001
0100
0001
1000
0100
0020
,
0100
0230
0001
0302
1000
2003
0010
3010
,
0100
0010
0100
0020
0000
0031
0100
0010
,
2000
0000
3001
0100
0001
1100
0011
0110
,
1010
0000
0000
0000
0100
0010
0100
1000
0100
0000
0010
0000
0100
0000
0010
0000
,
1100
0002
0000
0203
0000
0310
1000
0011
,
0110
0000
0000
0000
1000
0100
1000
0001
1000
0000
0100
0000
0010
0000
1000
0000
,
0021
0000
0000
0000
0130
0000
0102
0000
0000
0000
1003
0000
0001
0100
1000
0000
,
1001
0000
0000
0000
0100
1000
0010
0100
0001
0000
0010
0000
0100
0000
0010
0000
,
0002
0000
1003
0002
0000
0103
0010
0100
,
1200
0010
0310
0100
0210
0001
0301
0010
,
0012
0100
0103
0110
0000
0220
0000
0000
,
0000
0000
0000
0000
0000
0000
0000
0000
0300
0000
0000
0001
1030
0000
1000
0000
,
1100
0000
0010
0000
0110
0000
0010
0000
1000
0100
0010
0000
0100
0000
0010
0000
,
0012
0000
0000
0000
0103
0000
0010
0001
1000
0100
0010
0000
1100
0000
0011
0000
,
0200
0000
0000
0000
0310
0000
1000
0000
0001
0010
0200
0000
0000
0000
0310
0000
,
1000
0000
0010
0000
0100
0000
0010
1000
0010
1000
0010
0000
1100
0000
0001
0100
,
1000
0000
1000
0000
0010
0000
0100
0000
0010
0100
1000
0000
0001
0000
0100
0000
,
0011
0000
1000
0000
0100
0000
0010
1000
0001
0010
0100
0000
0011
0000
1100
0000
,
0110
0000
0010
0000
1000
0000
0010
0000
0100
0001
0010
0000
1000
0000
0010
2000
,
0001
0000
3100
0010
0001
0000
0100
0001
0010
0100
0001
1000
0010
0000
0100
0000
,
0101
0000
1000
0000
0010
0000
0100
0000
0100
1000
0001
0000
0010
0000
1000
0000
,
1002
0000
0000
0000
1003
0000
0010
0100
0010
0100
0010
0000
1100
0000
0011
0000
,
0200
0000
0000
0300
0010
0000
1000
0000
0010
0100
0010
0000
0010
0000
1000
0000
,
0001
0000
0100
0000
0010
0000
0010
1000
0010
0100
0001
0000
0101
0000
0010
1000
,
0100
0000
0001
0000
1000
0000
0100
0000
0010
1000
0001
0000
1000
0000
0010
0000
,
1100
0000
1000
0000
0100
0000
0010
0001
0100
0010
0001
0000
1010
0000
0101
0000
,
1200
0000
0310
0201
0000
0310
1100
0011
,
0202
0000
0000
0000
,
0000
0000
0000
0000
,
0303
0000
0000
0000
;

//---------------dance-single - ----------------
#NOTES:
     dance-single:
     :
     Medium:
     8:
     0.406,0.449,0.067,0.449,0.039:
0000
0000
0000
0000
,
2000
0000
0000
0000
,
3200
0000
0000
0000
,
0320
0000
0000
0000
,
0032
0000
0000
0000
,
0203
0000
0000
0000
,
0320
0000
0000
0000
,
1030
0001
0000
0000
0000
1000
0000
0000
,
1000
0000
0001
0000
1000
0001
1000
0000
,
0010
0000
0100
0000
0010
0100
0010
0000
,
0100
0000
0001
0000
1000
0001
1000
0000
,
0010
0000
0001
0000
1000
0001
1000
0000
,
0010
0000
0100
0000
0010
0100
0010
0000
,
1000
0000
0001
0000
1000
0001
1000
0000
,
0101
0000
0000
1010
0000
0000
0000
0110
,
0000
1000
0100
0010
0001
1000
0100
0010
,
0001
0000
0100
0010
0100
0010
1000
0100
,
0010
0100
0000
0002
0000
0000
0000
0000
,
1003
0000
0100
0010
0100
0000
0010
0100
,
0010
2000
0000
3002
0000
0000
0000
0000
,
1003
0000
0100
0010
0100
0010
0100
2000
,
0000
3020
0000
0230
0000
0302
0000
1003
,
0010
0000
0100
0020
0000
0000
0000
0130
,
0001
0000
1000
0010
0000
0200
0000
0000
,
0301
0000
1000
0001
1000
0001
0000
0100
,
0010
0100
0000
0010
0000
0020
0000
0000
,
0130
0000
1000
0001
1000
0001
0000
0100
,
0010
0000
0100
0020
0000
0230
0000
0000
,
0301
0000
1000
0001
1000
0001
0000
0100
,
0002
0000
1003
0001
0000
1000
0000
0001
,
2000
0000
0000
3001
1000
0000
0000
0100
,
0020
0000
0130
0010
0000
2000
0000
0000
,
0000
0000
0000
0000
0000
0000
3000
0000
0001
0000
0000
1000
0000
0000
0000
0000
,
1001
0000
0000
0000
0100
0000
0000
0000
0010
0000
0000
0100
0000
0000
0010
0000
,
2000
0000
3010
0000
0100
0010
0100
0010
,
0200
0000
0310
2000
0000
3200
0000
0302
,
0000
0000
0000
0000
0003
0000
1000
0000
0001
0000
0000
1000
0000
0000
0001
0000
,
2000
0000
0000
0000
3001
0000
0100
0000
0001
0000
0000
0100
0000
0000
0010
0000
,
2000
0000
0000
0000
3000
0010
0100
0010
,
0100
0000
0010
0100
0000
0010
0000
0100
,
0020
0000
1030
0010
0100
0000
0010
0100
,
1001
0000
0000
0000
0100
0000
0010
0000
0100
0000
0000
0010
0000
0000
1000
0000
,
0020
0000
0130
0000
0010
1000
0001
1000
,
0002
0000
1003
0002
0000
0203
0000
0320
,
0000
0000
0000
0000
0000
0000
0000
0000
1030
0000
0000
0001
0000
0000
1000
0000
,
0002
0000
0000
0000
1003
0000
0000
0000
0001
0000
0000
1000
0000
0000
0001
0000
,
2000
0000
3001
0100
0000
0010
0100
0010
,
0200
0000
0310
1000
0000
0100
0010
0100
,
2002
0000
0000
0000
,
0000
0000
0000
0000
,
3003
0000
0000
0000
;

//---------------dance-single - ----------------
#NOTES:
     dance-single:
     :
     Easy:
     5:
     0.281,0.309,0.056,0.326,0.000: // measure 1
0000
0000
0000
0000
,  // measure 2
0020
0000
0000
0000
,  // measure 3
0032
0000
0000
0000
,  // measure 4
2003
0000
0000
0000
,  // measure 5
3200
0000
0000
0000
,  // measure 6
0320
0000
0000
0000
,  // measure 7
0032
0000
0000
0000
,  // measure 8
1003
0000
0000
0000
0000
1000
0000
0000
,  // measure 9
0001
1000
0010
0100
,  // measure 10
0001
1000
0100
0010
,  // measure 11
0001
0100
1000
0001
,  // measure 12
0100
1000
0010
0001
,  // measure 13
1000
0100
0001
0100
,  // measure 14
1000
0010
0100
0001
,  // measure 15
1001
0000
0000
1001
0000
0000
0000
1001
,  // measure 16
0000
1000
0000
0001
0000
1000
0000
0001
,  // measure 17
1000
0100
0010
0001
,  // measure 18
2000
0000
3002
0000
,  // measure 19
0103
0010
0100
0001
,  // measure 20
0002
0000
2003
0000
,  // measure 21
3010
0001
0100
0001
,  // measure 22
0020
0000
0230
0000
,  // measure 23
0310
1000
0001
0100
,  // measure 24
0200
0000
0320
0000
,  // measure 25
1030
0000
0001
1000
0000
0000
0001
0000
,  // measure 26
1000
0001
0100
0010
,  // measure 27
0100
0000
1000
0001
0000
0000
0100
0000
,  // measure 28
0010
1000
0100
0010
,  // measure 29
0001
0000
0100
0010
0000
0000
0100
0000
,  // measure 30
1000
0100
0010
0001
,  // measure 31
0010
0000
0100
0010
0000
0000
0100
0000
,  // measure 32
0010
0000
0000
1000
0000
0000
0001
0000
,  // measure 33
2000
0000
0000
0000
,  // measure 34
3001
0100
0010
1000
,  // measure 35
0020
0000
0000
0000
,  // measure 36
1030
0100
0010
0001
,  // measure 37
0200
0000
0310
1000
,  // measure 38
0002
0000
0103
0010
,  // measure 39
0200
0000
0310
1000
,  // measure 40
0100
0010
0001
1000
,  // measure 41
0020
0000
0130
0001
,  // measure 42
0020
0000
1030
0001
,  // measure 43
0200
0000
0310
1000
,  // measure 44
0002
0000
2003
0000
,  // measure 45
3020
0000
0130
0010
,  // measure 46
0002
0000
0013
0100
,  // measure 47
2000
0000
3010
0100
,  // measure 48
1001
0000
0000
1000
0000
0001
0000
0000
,  // measure 49
2002
0000
0000
0000
,  // measure 50
0000
0000
0000
0000
,  // measure 51
3003
0000
0000
0000
;

//---------------dance-single - ----------------
#NOTES:
     dance-single:
     :
     Beginner:
     2:
     0.096,0.168,0.135,0.123,0.000: // measure 1
0000
0000
0000
0000
,  // measure 2
0002
0000
0000
0000
,  // measure 3
0003
0000
0000
0000
,  // measure 4
2000
0000
0000
0000
,  // measure 5
3000
0000
0000
0000
,  // measure 6
0200
0000
0000
0000
,  // measure 7
0300
0000
0000
0000
,  // measure 8
1001
0000
0000
0000
,  // measure 9
0110
0000
0000
0000
,  // measure 10
0010
0000
0000
0000
,  // measure 11
0001
0000
0000
0000
,  // measure 12
1000
0000
0000
0000
,  // measure 13
0100
0000
0000
0000
,  // measure 14
0010
0000
0000
0000
,  // measure 15
0001
0000
0000
0000
,  // measure 16
0000
0000
0000
0000
,  // measure 17
1000
0000
0000
0000
,  // measure 18
0100
0000
0000
0000
,  // measure 19
0100
0000
0000
0000
,  // measure 20
0010
0000
0000
0000
,  // measure 21
0001
0000
0000
0000
,  // measure 22
1000
0000
0000
0000
,  // measure 23
0001
0000
0000
0000
,  // measure 24
0100
0000
0000
0000
,  // measure 25
0110
0000
0000
0000
,  // measure 26
0110
0000
0000
0000
,  // measure 27
1001
0000
0000
0000
,  // measure 28
1001
0000
0000
0000
,  // measure 29
0110
0000
0000
0000
,  // measure 30
0110
0000
0000
0000
,  // measure 31
1001
0000
0000
0000
,  // measure 32
1001
0000
0000
0000
,  // measure 33
0000
0000
0000
0000
,  // measure 34
1000
0000
0000
0000
,  // measure 35
0002
0000
0000
0000
,  // measure 36
0003
0000
0000
0000
,  // measure 37
2000
0000
0000
0000
,  // measure 38
3000
0000
0000
0000
,  // measure 39
0020
0000
0000
0000
,  // measure 40
0030
0000
0000
0000
,  // measure 41
2000
0000
0000
0000
,  // measure 42
3000
0000
0000
0000
,  // measure 43
0002
0000
0000
0000
,  // measure 44
0003
0000
0000
0000
,  // measure 45
0100
0000
0000
0000
,  // measure 46
0020
0000
0000
0000
,  // measure 47
0030
0000
0000
0000
,  // measure 48
1001
0000
0000
0000
,  // measure 49
2002
0000
0000
0000
,  // measure 50
0000
0000
0000
0000
,  // measure 51
3003
0000
0000
0000
;
