#TITLE:Overfly EVOLVED ROUTE C;
#SUBTITLE:ソードアート.オンライン ED2;
#ARTIST:春奈るな;
#TITLETRANSLIT:;
#SUBTITLETRANSLIT:Sword Art Online ED2;
#ARTISTTRANSLIT:Luna Haruna;
#GENRE:ANIMATION BEAT#1;
#CREDIT:;
#BANNER:Overfly EVOLVED ROUTE C.png;
#BACKGROUND:Overfly EVOLVED ROUTE C-bg.png;
#LYRICSPATH:;
#CDTITLE:cdtitle.png;
#MUSIC:Overfly EVOLVED ROUTE C.mp3;
#MENUCOLOR:0,0,1,1;
#METERTYPE:DDR X;
#OFFSET:-0.325;
#SAMPLESTART:17.186;
#SAMPLELENGTH:12.000;
#SELECTABLE:YES;
#BPMS:0.000=134.000;
#STOPS:;
#BGCHANGES:;

//---------------dance-single - ----------------
#NOTES:
     dance-single:
     :
     Hard:
     13:
     0.613,0.680,0.376,0.160,0.312:
0000
0000
0000
0000
,
0000
0000
0000
0000
,
2000
0000
0000
0000
,
3200
0000
0000
0000
,
0320
0000
0000
0000
,
0032
0000
0000
0000
,
2003
0000
0100
0000
,
3200
0000
0010
0000
,
0320
0000
0001
0000
,
0032
0000
0000
0000
0000
0000
0000
0000
1000
0000
0000
1000
0000
0000
1000
0000
,
2003
0000
0000
0000
0001
0000
0000
0000
0010
0000
0000
0010
0000
0000
0010
0000
,
3020
0000
0001
0000
0031
0100
0001
1000
,
0100
0000
0010
0100
0000
0010
0000
1000
,
0002
0000
0000
0000
0000
0000
0000
0000
1003
0000
0000
1000
0000
0000
0010
0000
,
0200
0000
0000
0000
0000
0000
0000
0000
0310
0000
0000
0010
0000
0000
0010
0000
,
0200
0000
0000
0301
0000
0001
0100
0001
,
1100
0000
0110
0000
0000
0000
1000
0000
0010
0001
0010
0000
0000
0000
0000
0000
,
0101
0000
0000
0000
1001
0000
1000
0000
0100
1000
0010
0000
0001
0000
0000
0000
,
0100
0000
0001
0000
0100
0000
1000
0001
0100
1000
0010
0000
1000
0000
0000
0000
,
1000
0000
0001
0000
0100
0000
1000
0000
0010
0100
1000
0000
0001
0000
0000
0000
,
1000
0000
0100
0000
0001
0000
0010
0100
1000
0001
0100
0000
0001
0000
1000
0100
,
0010
0000
0100
0000
0001
0000
1000
0000
0100
0001
0010
0000
0001
0000
0000
0000
,
0100
0000
0001
0000
0100
0000
1000
0100
0010
0100
1000
0000
0001
0000
1000
0001
,
1000
0000
0100
0000
0001
1000
0001
1000
0001
1000
0001
0000
0100
0000
0110
0000
,
0000
1100
0110
0011
0101
0110
1100
1001
,
0101
0000
1000
0101
0000
0001
0100
0010
,
1100
0100
0001
0100
0010
1000
0100
0001
,
0110
0010
0000
1001
0000
0100
0010
1000
,
0101
0001
0100
0010
0000
0011
0100
0010
,
2001
0000
3001
1000
0000
0100
0010
0100
,
1002
0000
0103
0010
0000
1010
0100
0010
,
0100
1000
0100
0001
0100
0020
0000
2030
,
0001
0000
0000
0000
0001
0000
0000
0000
3001
0000
1100
0000
0100
0001
0010
0001
,
0100
0000
1000
0000
1001
0000
0100
0000
0010
1000
0100
0000
0110
0000
1000
0100
,
0001
0000
0100
0000
0010
0000
1000
0100
0001
0100
1000
0000
0001
0000
0100
0001
,
0010
0000
1000
0000
0100
0000
0010
0000
0100
0010
0100
0000
0010
0000
1000
0000
,
0100
0000
0001
0000
0100
0000
0010
0100
1000
0100
1000
0000
0010
0000
0100
0000
,
0101
0000
1000
0000
0100
0000
0010
0000
0100
0010
0001
0000
1000
0000
0010
0000
,
1100
0000
0100
0000
0010
0000
1000
0100
0001
0010
0100
0000
0010
0000
0100
0000
,
0011
0000
0100
0001
0000
0001
0100
0000
0100
0010
0000
0001
0100
0000
0010
0000
,
0100
0000
1000
0000
0100
0000
0010
1000
0100
0001
0010
0000
0100
0000
1000
0000
,
0001
0000
1000
0001
0010
1000
0100
0000
0001
0100
0001
1000
0001
0000
0001
0000
,
0000
0000
0000
0000
0101
0000
0100
0000
0001
0010
1000
0000
0001
0000
0100
0000
,
0010
0000
0100
0000
1000
0000
0001
0010
1000
0100
0001
0000
1100
0000
0011
0000
,
1010
0000
0010
0000
0100
0000
1000
0000
0010
1000
0100
0000
0010
0000
1000
0000
,
0001
0000
1000
0000
0010
0000
0100
0001
1000
0010
1000
0000
0001
0000
0001
1000
,
0100
0000
1000
0000
0010
0000
1000
0000
0100
0001
0100
0000
0001
0000
0001
0000
,
2000
0000
0010
0000
3010
1100
1010
1001
,
0011
0000
1000
0000
0010
0000
0100
0000
1000
0000
0001
0000
1000
0000
0010
1000
,
0100
0000
0100
0010
1000
0100
0001
0000
1000
0100
0001
1000
0010
1000
0100
0000
,
0101
0000
1000
0000
0010
0000
1000
0000
0001
0010
1000
0000
1000
0000
0010
0000
,
0100
0000
0010
0000
1000
0000
0001
1000
0100
0001
1000
0000
1010
0000
0011
0000
,
1001
0000
0100
0000
0001
0000
1000
0000
0010
1000
0100
0000
1000
0000
0001
0000
,
1000
0000
0100
0000
0010
0000
1000
0100
0010
1000
0100
0000
0100
0000
0001
0100
,
0001
0000
1000
0000
0010
0000
0100
0000
0010
1000
0010
0000
1000
0000
1000
0000
,
0101
0000
0100
0000
1000
0000
0010
0100
1000
0000
0001
0010
1000
0100
1000
0010
,
0001
0101
0000
0000
0000
1010
0000
0000
,
0101
0000
1000
0000
0001
0000
1000
0000
0100
0001
0100
0000
1000
0000
0010
0000
,
0100
0000
0001
0000
1000
0000
0010
1000
0010
1000
0010
0000
0100
0000
1000
0000
,
0001
0000
1000
0000
0100
0000
0010
0000
0100
0001
0100
0000
0001
0000
1000
0000
,
0010
0000
1000
0000
0001
0000
1000
0010
1000
0010
1000
0000
0100
0000
0001
0000
,
0101
0000
1000
0000
0010
0000
1000
0000
0010
1000
0010
0000
0100
0000
1000
0000
,
0001
1000
0010
0100
0100
0001
0100
0001
,
0101
0000
1000
0000
0010
1000
0010
1000
0010
1000
0010
0000
1000
0000
2200
0000
,
0000
0000
0000
0000
,
0000
0000
0000
0000
,
0000
0000
0000
0000
,
0000
0000
0000
0000
,
3300
0000
0000
0000
;

//---------------dance-single - ----------------
#NOTES:
     dance-single:
     :
     Medium:
     10:
     0.478,0.517,0.176,0.264,0.112:
0000
0000
0000
0000
,
0000
0000
0000
0000
,
2000
0000
0000
0000
,
3200
0000
0000
0000
,
0320
0000
0000
0000
,
0032
0000
0000
0000
,
2003
0000
0100
0000
,
3200
0000
0010
0000
,
0320
0000
0001
0000
,
0032
0000
0000
0000
0000
0000
0000
0000
1000
0000
0000
1000
0000
0000
2003
0000
,
0000
0000
0000
0000
0000
0000
0000
0000
0001
0000
0000
0001
0000
0000
3002
0000
,
0000
0000
0000
0000
0000
0103
0010
1000
,
0200
0000
0301
0200
0000
0320
0000
1030
,
0200
0000
0000
0000
0000
0000
0000
0000
0310
0000
0000
0010
0000
0000
1000
0000
,
0002
0000
0000
0000
0000
0000
0000
0000
0103
0000
0000
0100
0000
0000
0010
0000
,
2000
0000
0000
3020
0000
1030
0100
0010
,
0100
0000
0101
0000
0000
0000
0000
0000
1000
0001
1000
0000
0000
0000
0000
0000
,
0100
0000
0000
0000
0001
0000
1000
0000
0100
0001
0100
0000
0001
0000
0000
0000
,
1000
0000
0010
0000
0001
0000
0010
0000
1000
0001
1000
0000
0100
0000
0000
0000
,
1000
0000
0100
0000
0001
0000
0100
0000
1000
0001
1000
0000
0001
0000
0000
0000
,
1000
0000
0010
0000
0001
0000
1000
0000
0010
0100
0010
0000
0001
0000
0000
0000
,
1001
0000
0100
0000
0001
0000
0100
0000
1000
0100
1000
0000
0001
0000
0000
0000
,
0100
0000
0001
0000
1000
0000
0100
0000
0010
0001
0010
0000
0100
0000
0000
0000
,
1100
0100
0010
0100
0001
1000
0100
0110
,
0000
0011
0100
0010
1100
0100
0010
0100
,
0011
0000
1000
0001
0000
0100
0010
1000
,
0100
0002
0000
2003
0000
3010
0100
0020
,
0000
2030
0000
0001
0000
3001
1000
0100
,
0010
0100
0000
0100
0010
1000
0001
1000
,
1001
0000
1000
0001
0000
0100
0010
1000
,
0200
0000
0000
0310
0000
0000
1000
0000
0000
0000
0100
0000
0000
0000
1000
0000
,
0100
0001
0100
1000
0010
0200
0000
0002
,
0000
0000
0000
0000
0000
0000
0303
0000
0000
0000
0000
0000
1000
0001
1000
0001
,
1000
0000
1000
0001
0100
1000
0010
0000
,
1000
0100
0010
0100
0001
0010
0100
0000
,
0100
0010
0001
1000
0100
0100
0100
0000
,
1000
0010
1000
0100
0001
0100
0010
0000
,
1001
0000
0001
0100
0010
1000
0001
0000
,
1001
0000
1000
0001
0100
0010
0000
1000
,
0001
0000
0000
1000
0000
0000
0001
0000
1000
0000
0000
0001
0000
0000
1000
0000
,
0001
0100
1000
0001
,
0010
0000
0100
1000
0100
0000
1000
0000
0010
0001
0010
0000
0001
0000
1000
0000
,
0100
0000
1100
0100
0010
1000
0010
0001
,
0200
0000
1000
0000
1300
0100
0010
0001
,
0010
0000
0010
1000
0010
0100
0001
0200
,
0001
0000
0301
0010
1000
0100
0010
0001
,
0020
0000
0031
0100
0010
1000
0010
0001
,
0200
0000
1000
0000
1300
0100
0010
0001
,
1001
0000
0010
1000
0010
0001
0010
1000
,
0100
0000
1000
0100
1000
0000
1000
0000
0010
0001
0010
0000
0001
0000
0000
0000
,
1100
0000
0010
1000
0010
0001
0010
1000
,
0200
0000
1000
0000
1300
0100
0010
1000
,
1010
0000
1000
0020
0000
0031
0100
1000
,
0020
0000
0001
0000
1030
0100
1000
0010
,
0001
0000
0001
0000
0010
1000
0010
0001
,
0011
0000
0100
0010
1000
0010
0100
1000
,
1100
1100
0000
0000
0000
1100
0000
0000
,
1100
0000
0000
0000
0100
0000
0010
0000
1000
0010
1000
0000
1000
0000
0000
0000
,
0100
0000
0001
0000
0100
0000
1000
0000
0010
0001
0010
0000
0100
0000
0000
0000
,
0010
0000
0001
0000
0010
0000
0001
0000
0100
0010
0100
0000
0100
0000
0000
0000
,
0001
0000
0010
0000
1000
0000
0010
0000
0001
0010
0001
0000
0001
0000
0000
0000
,
0110
0000
0010
0000
1000
0000
0010
0000
0100
0001
0100
0000
0100
0000
0000
0000
,
0100
0000
0010
0000
0001
0000
0010
0000
0001
1000
0000
0000
0100
0000
0000
0000
,
1010
0000
1000
0000
0100
0000
0010
0001
0010
0001
0010
0000
1000
0000
2200
0000
,
0000
0000
0000
0000
,
0000
0000
0000
0000
,
0000
0000
0000
0000
,
0000
0000
0000
0000
,
3300
0000
0000
0000
;

//---------------dance-single - ----------------
#NOTES:
     dance-single:
     :
     Easy:
     6:
     0.313,0.354,0.104,0.200,0.000: // measure 1
0000
0000
0000
0000
,  // measure 2
0000
0000
0000
0000
,  // measure 3
2000
0000
0000
0000
,  // measure 4
3200
0000
0000
0000
,  // measure 5
0320
0000
0000
0000
,  // measure 6
0032
0000
0000
0000
,  // measure 7
2003
0000
0000
0000
,  // measure 8
3200
0000
0000
0000
,  // measure 9
0320
0000
0000
0000
,  // measure 10
0032
0000
0000
0000
1000
0000
0000
2003
,  // measure 11
0000
0000
0000
0000
0001
0000
0000
3002
,  // measure 12
0000
0000
0000
1003
,  // measure 13
0001
0000
0000
0100
0000
0010
0000
0002
,  // measure 14
0000
0000
0000
0000
1003
0000
0000
0200
,  // measure 15
0000
0000
0000
0000
0310
0000
0000
0002
,  // measure 16
0000
0000
1003
0001
,  // measure 17
1000
0000
0001
1000
0000
0001
1000
0001
,  // measure 18
1000
0000
0010
0000
0100
0010
0100
0000
,  // measure 19
0001
0000
1000
0000
1000
0001
1000
0000
,  // measure 20
0010
0000
0010
0000
0100
0010
0100
0000
,  // measure 21
0100
0000
0001
0000
1000
0001
1000
0000
,  // measure 22
1001
0000
0100
0000
0010
0100
0010
0000
,  // measure 23
1000
0001
1000
0001
,  // measure 24
1000
0100
1000
0100
0000
0010
0100
0010
,  // measure 25
0000
1000
0100
0010
0001
0010
0100
1000
,  // measure 26
0001
0000
0000
1000
0000
0000
0001
1000
,  // measure 27
0001
0000
0000
0100
0000
0010
0100
0010
,  // measure 28
0000
0100
0000
0000
0000
1000
0001
0000
,  // measure 29
1000
0001
0000
0100
0000
0010
0100
0010
,  // measure 30
0000
0000
0000
1000
0000
1000
0001
0000
,  // measure 31
1001
0000
0000
0100
0000
0010
0100
0000
,  // measure 32
0010
0000
1000
0001
1000
0001
0000
2000
,  // measure 33
0000
0000
0000
0000
,  // measure 34
3001
0000
1000
0000
0010
0100
0010
0000
,  // measure 35
1000
0000
0001
0000
0100
0010
0100
0000
,  // measure 36
0001
0000
1000
0000
0001
1000
0001
0000
,  // measure 37
1000
0000
0010
0000
1000
0001
1000
0000
,  // measure 38
1001
0000
0100
0000
0010
0100
0010
0000
,  // measure 39
1001
0000
0100
0000
0001
1000
0001
0000
,  // measure 40
1001
0100
0100
0010
,  // measure 41
0010
0000
1000
0000
0001
1000
0001
0100
,  // measure 42
0100
0010
0100
0000
0001
1000
0001
1000
,  // measure 43
0000
0000
1001
0000
0100
0010
0100
0010
,  // measure 44
2000
0000
0001
0000
3001
0000
1000
0001
,  // measure 45
1000
0000
0010
0100
0000
0010
0000
2000
,  // measure 46
0000
0000
3001
0001
,  // measure 47
0002
0000
0103
0100
,  // measure 48
0200
0000
0000
0000
0300
0000
0001
1000
,  // measure 49
0001
0000
0100
0010
0000
1000
0000
0002
,  // measure 50
0000
0000
1003
0001
,  // measure 51
1000
0001
0001
1000
,  // measure 52
0002
0100
0100
1003
,  // measure 53
0100
0000
0010
1000
0000
0100
0000
0020
,  // measure 54
0000
0000
1030
1000
,  // measure 55
2000
0000
3001
0001
,  // measure 56
0002
0000
1003
0001
,  // measure 57
1000
0001
0000
0000
0000
1001
0000
0000
,  // measure 58
1001
0100
0010
0010
,  // measure 59
1000
0001
1000
0000
0001
0000
0001
0000
,  // measure 60
1000
0000
1000
0000
0100
0010
0100
0000
,  // measure 61
0001
0000
0001
0000
1000
0001
1000
0000
,  // measure 62
1001
0000
0001
0000
1000
0001
1000
0000
,  // measure 63
1001
0000
1000
0000
0001
1000
0001
0000
,  // measure 64
1001
0000
0000
0110
0000
0000
0000
2002
,  // measure 65
0000
0000
0000
0000
,  // measure 66
0000
0000
0000
0000
,  // measure 67
0000
0000
0000
0000
,  // measure 68
0000
0000
0000
0000
,  // measure 69
3003
0000
0000
0000
;

//---------------dance-single - ----------------
#NOTES:
     dance-single:
     :
     Beginner:
     3:
     0.127,0.218,0.096,0.112,0.000:
0000
0000
0000
0000
,
0000
0000
0000
0000
,
2000
0000
0000
0000
,
3002
0000
0000
0000
,
0003
0000
0000
0000
,
0200
0000
0000
0000
,
0320
0000
0000
0000
,
0030
0000
0000
0000
,
2000
0000
0000
0000
,
3001
0000
0000
0000
,
0002
0000
0000
0000
,
1003
0000
0000
0000
,
1000
0000
1000
0000
,
1000
0000
0000
0000
,
2000
0000
0000
0000
,
3001
0000
0001
0000
,
1001
0000
0000
0000
,
0110
0000
1000
1000
,
0001
0000
0001
0001
,
1000
0000
0100
0100
,
0010
0000
0010
0010
,
0110
0000
1000
1000
,
0010
0000
0001
0001
,
0100
0000
0001
0000
,
1000
1000
0001
0001
,
1001
0000
1000
0000
,
1000
0000
0000
0000
,
0002
0000
0000
0000
,
1003
0000
0000
0000
,
1001
0000
0000
0000
,
1001
0000
0000
0000
,
1001
0000
0000
0000
,
0020
0000
0000
0000
,
0130
0000
0100
0100
,
0100
0000
0000
0000
,
0001
0000
0000
0000
,
0001
0000
0000
0000
,
1001
0000
1000
1000
,
1000
0000
0000
0000
,
2000
0000
0000
0000
,
3000
0000
0000
0000
,
0010
0000
0010
0000
,
0000
1000
0000
0000
,
1000
0000
0000
0010
,
0010
0000
0000
0000
,
0002
0000
0000
0000
,
1003
0000
0000
0000
,
2000
0000
0000
0000
,
3001
0000
0000
0000
,
0001
0000
0001
0000
,
1001
0000
0000
0000
,
1000
0000
0000
0000
,
0100
0000
0000
0000
,
0020
0000
0000
0000
,
0030
0000
0000
0000
,
1001
0000
0000
0000
,
1000
0000
0000
0000
,
1001
0000
0000
0000
,
0001
0000
0000
0000
,
1000
0000
0000
0000
,
0001
0000
0000
0000
,
0110
0000
0000
0000
,
1000
0000
0000
0000
,
1000
0000
0000
0000
,
0002
0000
0000
0000
,
0000
0000
0000
0000
,
0000
0000
0000
0000
,
0000
0000
0000
0000
,
0003
0000
0000
0000
;
